Welcome Guest ( Log In | Register )

История благодарностей участнику Reverend ::: Спасибо сказали: 637 раз(а)
Дата поста: В теме: За сообщение: Спасибо сказали:
Jan 27 2020, 07:42:07 Гаснет Свет - В Пламени Костра [ep] (2020)


*Artist: Гаснет Свет
*Album: В Пламени Костра [ep]
*Year: 2020
*Genre: Symphonic Power Metal
*Country: Russian Federation
*Format: mp3@CBR320kbps
*Size: 46MB

Tracklist:
1. В Пламени Костра 06.32
2. Пока Цветет Сакура 07.01
3. Голод 07.47
******************************
Total playing time: 21:21

ВКонтакте (превью)

[more=Extended info]«ГАСНЕТ СВЕТ» - EP «В ПЛАМЕНИ КОСТРА» (2020) записан в следующем составе:

Алексей НЕСТЕРОВ – вокал, бэк-вокал;
Сергей ШВЕЙ – вокал, бэк-вокал, клавишные;
Денис ЛЕБЕДЕВ – бас-гитара.

В записи EP также принимали участие:
Роман ГУРЬЕВ (Arida Vortex) – гитара;
Ольга АЗАРЕНКО (One More Tale) – клавишные, оркестровки, бэк-вокал;
Евгений ЛАЙКОВ (Archontes) – ударные;
Дмитрий СКИДАНЕНКО (Forces United) – бэк-вокал;
Дмитрий МАШКОВ (Арктида) – клавишные (3);
Роман ВАЛЕРЬЕВ (Корсика) – гитара (3);
Игорь ДЕНЕГА - скрипка (1,3), сопилка (2);
Ван СИ – эрху (2);
Денис ИЛЛАРИОНОВ - скрипка (3);
Александр МИХАЙЛОВ (ex-Midnight Eternal) - бэк-вокал;
АРТИ - бэк-вокал.

Сведение и мастеринг: Евгений ВИНОГРАДОВ («ДАЙ Рекордз»)

Альбом записан на студии «Acheron Records» в 2019 гг.
Запись партий эрху: Дмитрий Машков («Арктида Records», сентябрь 2019 г.)

Дизайн обложки: Mayhem Design Studio https://vk.com/mayhemdesign)[/more]

[more=Technical info]
Input File: 01. В Пламени Костра.mp3
Channels : 2
Sample Rate : 44100
Precision : 16-bit
Duration : 00:06:32.10 = 17291786 samples = 29407.8 CDDA sectors
File Size : 15.7M
Bit Rate : 320k
Sample Encoding: MPEG audio (layer I, II or III)
Comments :
Title=В Пламени Костра
Artist=Гаснет Свет
Album=В Пламени Костра (EP)
Tracknumber=1
Year=2020
Genre=Symphonic Power Metal

[/more]

Register
(1) Aresson,
Oct 10 2018, 05:50:50 Гаснет Свет - In Tenebris (2018)


*Artist: Гаснет Свет
*Album: In Tenebris
*Year: 2018
*Genre: Symphonic Metal
*Country: Russian Federation
*Format: mp3@CBR320kbps
*Size: 161MB

Tracklist:
01. «На Распутье» (04:26)
02. «Черная Кровь» (05:06)
03. «Осколки» (04:02)
04. «Пленники Шторма» (06:41)
05. «Без Сожалений» (04:51)
06. «Серые Сны» (08:51)
07. «Икар» (05:12)
08. «Против Потока» (06:27)
09. «Свеча» (05:50)
10. «Спаси и Храни» (05:17)
11. «Ночь» (04:58)
12. «In Tenebris» (06:29)
13. «Конец Времен» (Bonus Track) (07:09)
******************************
Total playing time: 1:15:19

[more=Extended info]Состав:
Алексей НЕСТЕРОВ – вокал, бэк-вокал
Сергей ШВЕЙ – вокал, бэк-вокал, гроулинг, клавишные
Алексей КУРЕНКОВ – ударные
Денис ЛЕБЕДЕВ – бас-гитара

В записи альбома также принимали участие:
Ольга ЗАЙЦЕВА – клавишные, оркестровки
Роман ГУРЬЕВ – гитара
Артур БЕРКУТ – вокал (2)
Евгений ЕГОРОВ – вокал (6)
Дмитрий СКИДАНЕНКО – вокал (7), бэк-вокал
Петр ЕЛФИМОВ – вокал (10)
Елена МИНИНА – вокал (11)
Олег ИЗОТОВ – соло-гитара (1)
Сергей ТЕРЕНТЬЕВ – соло-гитара (5)
Олег МИШИН – соло-гитара (7)
Вячеслав МОЛЧАНОВ – соло-гитара (8)
Александр ЛУКАНИЧЕВ – бэк-вокал (1,4,13)

Альбом записан на студии «Acheron Records» в 2016-2018 гг.
Сведение и мастеринг: Евгений Виноградов («ДАЙ Рекордз»)

Дизайн обложки: Фёдор Жердев[/more]

[more=Technical info]
Input File: 01 - На Распутье.mp3
Channels : 2
Sample Rate : 44100
Precision : 16-bit
Duration : 00:04:26.82 = 11766718 samples = 20011.4 CDDA sectors
File Size : 10.7M
Bit Rate : 320k
Sample Encoding: MPEG audio (layer I, II or III)
Comments :
Title=На Распутье
Artist=Гаснет Свет
Album=In Tenebris
Tracknumber=1
Year=2018
Genre=Symphonic Metal

[/more]

Register
(5) Aresson, avkruchinin, Cartman223, oldvarg, Phlebotomized,
Dec 10 2015, 18:45:12 Дыхание Пустоты - Семь Королевств [single] (2015)


*Artist: Дыхание Пустоты
*Album: Семь Королевств [single]
*Year: 2015
*Genre: Melodic Metal
*Country: Russian Federation
*Format: mp3@CBR320kbps
*Size: 12MB

Tracklist:
01. Семь Королевств 04:56
******************************
Total playing time: 4:56

[more=Extended info]Чтобы скрасить почти пятимесячное ожидание шестого сезона сериала "Игра Престолов" по циклу романов "Песнь льда и пламени" Джорджа Мартина, Дыхание Пустоты выпустило дебютный сингл "Семь Королевств" с выходящего в 2016 году нового альбома.

Музыка: Владимир Рогачев и Мика Хаутамяки. Текст: Мария Ажнина и Татьяна Коротенко. Автор обложки - Александр Москаленко.

Сингл записан следующим составом:
- Владимир Рогачев - клавишные,
- Алексей Нестеров - вокал,
- Денис Лебедев - бас,
- Кирилл Багриновский - ударные.

В записи также принимали участие наши друзья:
- Роман Валерьев (Колизей, Корсика) - гитара,
- Дмитрий Скиданенко (Колизей) - бэк-вокал.

Сведение и мастеринг: Роман Валерьев.[/more]

[more=Technical info]
Input File: 01 - Семь Королевств.mp3
Channels : 2
Sample Rate : 44100
Precision : 16-bit
Duration : 00:04:56.83 = 13090379 samples = 22262.5 CDDA sectors
File Size : 11.9M
Bit Rate : 320k
Sample Encoding: MPEG audio (layer I, II or III)

[/more]

Register
(4) Rosen, VALERY, varlam4, wreak,
Apr 27 2015, 22:10:08 Дыхание Пустоты - Вечный Дождь [single] (2015)


*Artist: Дыхание Пустоты
*Album: Вечный Дождь [single]
*Year: 2015
*Genre: Melodic Heavy Metal
*Country: Russian Federation
*Format: mp3@CBR320kbps
*Size: 12MB

Tracklist:
01. Вечный Дождь (X-Japan Cover) 05:24
******************************
Total playing time: 5:24

[more=Extended info]В записи сингла принимали участие:
Владимир Рогачев - клавишные, аранжировки
Алексей Нестеров - вокал
Кирилл Багриновский - ударные
Денис Лебедев - бас
Роман Валерьев - акустика, гитара, сведение.

Музыка: X-Japan
Слова: Татьяна Коротенко, Алексей Нестеров[/more]

[more=Technical info]
Input File: 01 - Вечный Дождь (X-Japan Cover).mp3
Channels : 2
Sample Rate : 44100
Precision : 16-bit
Duration : 00:05:24.11 = 14293031 samples = 24307.9 CDDA sectors
File Size : 13.0M
Bit Rate : 320k
Sample Encoding: MPEG audio (layer I, II or III)

[/more]

Register
(5) BRUTAL06, csgmnk, Rosen, varlam4, wreak,
Dec 22 2014, 08:30:24 Lullacry - Legacy: 1998-2014 [best of/compilation] (2014)


*Artist: Lullacry
*Album: Legacy: 1998-2014 [best of/compilation]
*Year: 2014
*Genre: Melodic Heavy/Gothic Metal
*Country: Finland
*Format: mp3@CBR320kbps
*Size: 283MB

Tracklist:
Disc 1:
1. Hell on High Heels 03:29
2. Damn You 03:12
3. Don't Touch the Flame 03:42
4. Alright Tonight 03:25
5. Crucify My Heart 03:44
6. Into Your Heart 04:35
7. Be My God 03:40
8. Fire Within 03:30
9. King of Pain 05:41
10. Sweet Desire 04:12
11. Downwards 04:10
12. Feel My Revenge 04:47
13. Pitch Black Emotions 03:18
14. Trust 03:09
15. Thousand Suns 04:40
16. Gone Are the Days 04:22
17. The Autumn 04:07
Disc 2:
1. To Every Heartache 05:13
2. L.O.V.E. Machine (W.A.S.P. cover) 03:52
3. Head Like a Hole (Nine Inch Nails cover) 04:28
4. Unchain Me (Live in Studio 2001) 03:45
5. Whisper in the Chaos '97 03:20
6. For Evermore (Live in Studio 1999) 04:25
7. The Chant (Live in Studio 1999) 04:35
8. I Don't Mind (Live at Radio City 2001) 03:56
9. Rain (Sweet Desire sessions) 03:52
10. May the Times Change (Sweet Desire sessions) 03:23
11. May the Times Change '97 03:21
12. My Life (Crucify demo sessions 2002) 04:37
13. Crucify My Heart Pt. II (Piano version) 04:16
14. Children of the Grave (Live at Tavastia 1999) 03:51
15. All for Nothing (Live at Tavastia 1999) 05:02
16. I Stole Your Love (KISS cover) 03:04
17. Fool's Journey 03:50
******************************
Total playing time: 2:16:33

[more=Extended info]Компиляция вышла 9 мая 2014 г. в преддверии официального распада группы после трех прощальных шоу.[/more]

[more=Technical info]
Input File: 01-Hell On High Heels.mp3
Channels : 2
Sample Rate : 48000
Precision : 16-bit
Duration : 00:03:29.96 = 10077840 samples ~ 15746.6 CDDA sectors
File Size : 8.40M
Bit Rate : 320k
Sample Encoding: MPEG audio (layer I, II or III)
Comments :
Title=Hell On High Heels
Artist=Lullacry
Album=Legacy 1998 - 2014 [Disc 1]
Tracknumber=1
Year=2014-01-01
Genre=137

[/more]

Register
(6) Cartman223, infozahist, Jurmagund, Rosen, Stringer, VALERY,
Dec 5 2014, 14:02:31 Дыхание Пустоты - Искупление (2014)


*Artist: Дыхание Пустоты
*Album: Искупление
*Year: 2014
*Genre: Symphonic Heavy Metal
*Country: Russian Federation
*Format: mp3@CBR320kbps
*Size: 232MB

Tracklist:
01. Стефан (Интро) 01.04
02. Смерть 03.41
03. Воины Северного Ветра 04.09
04. Пепел 05.44
05. Пусть Он Падет!01.33
06. Иерихон 05.09
07. Никогда 01.19
08. Книга Мертвых Имен 03.15
09. Новый Путь 02.00
10. Хрустальный Сон 03.54
11. Таинственный Гость 04.02
12. Голгофа 07.08
13. Искупление 05.10
14. Ветер 05.26
15. Океан (Bonus Track) 05.01
******************************
Total playing time: 58:59



[more=Extended info]"ДЫХАНИЕ ПУСТОТЫ" - "ИСКУПЛЕНИЕ" (2014)

В записи альбома принимали участие:

Алексей Нестеров - вокал
Владимир Рогачев - клавишные, гитара
Денис Лебедев - бас, акустика
Кирилл Багриновский - ударные
Сергей Швей - вокал

Приглашенные музыканты:
Роман Валерьев (Колизей, Корсика, экс-Эпидемия) - гитара
Игорь Потеев - гитара
Игорь Потрусаев - гитара
Мария Ажнина - вокал
Михаил Агеев - вокал
Андрей Кукушкин (экс-Антанта) - вокал
Сергей Малышев - скрипка
Александр Фомин - бэк-вокал

Сведение: Роман Валерьев.

Мастеринг - Станислав Карякин, студия Андрея Субботина

Материал записан в 2009-2014 гг. По времени записи предшествует "Ночи Волка".

В раздачу включен буклет. Автор - Ульяна Балабанова.[/more]

[more=Technical info]
Input File: 02 - Смерть.mp3
Channels : 2
Sample Rate : 44100
Precision : 16-bit
Duration : 00:03:41.60 = 9772428 samples = 16619.8 CDDA sectors
File Size : 8.86M
Bit Rate : 320k
Sample Encoding: MPEG audio (layer I, II or III)
Comments :
Title=Ñìåðòü
Artist=Äûõàíèå Ïóñòîòû
Album=Èñêóïëåíèå
Tracknumber=2
Year=2014
Genre=9

[/more]

Register
(12) 0x13, BRUTAL06, csgmnk, DTGB, oldvarg, Phlebotomized, Rosen, serach, tamerz, varlam4, Victim of fate, wreak,
Nov 27 2014, 19:33:04 Ария - Через Все Времена (2014)
Если кому-то интересно, по ссылке ниже доступен:

Цифровой буклет "Через Все Времена" (2014)
(3) avather, Fess, infiltrator,
Sep 11 2014, 08:34:19 Дыхание Пустоты - Ночь Волка [ep] (2014)


*Artist: Дыхание Пустоты
*Album: Ночь Волка [ep]
*Year: 2014
*Genre: Melodic Heavy Power Metal
*Country: Russian Federation
*Format: mp3@CBR320kbps
*Size: 61MB

Tracklist:
1. Гроза 02:14
2. Ночь Волка 05:54
3. Не Плачь 05:45
4. Голод 04:57
******************************
Total playing time: 18:50

[more=Extended info]Для прослушивания доступен мини-альбом "Ночь Волка"

В записи мини-альбома принимали участие:

Алексей Нестеров - вокал
Владимир Рогачев - клавишные, гитара
Денис Лебедев - бас
Сергей Швей - вокал

а также приглашенные участники:
Игорь Саркисьян - гитара (экс-Колизей) (1,2,4)
Роман Валерьев (Корсика, Колизей, Пилигрим) - гитара (2,3,4)
Игорь Потрусаев - гитара (4)
Мария Ажнина - вокал
Маргарита Савина - вокал

Оформление обложки: Александр Москаленко

Дата релиза: 2 сентября 2014 года.

Сканы буклета прилагаются.[/more]

[more=Technical info]
Input File: 01 - Гроза.mp3
Channels : 2
Sample Rate : 44100
Precision : 16-bit
Duration : 00:02:14.15 = 5916191 samples = 10061.5 CDDA sectors
File Size : 5.37M
Bit Rate : 320k
Sample Encoding: MPEG audio (layer I, II or III)

[/more]

Register
(5) BRUTAL06, oldvarg, Rosen, varlam4, wreak,
Jun 11 2014, 07:52:47 Дыхание Пустоты - Не Плачь [single] (2014)


*Artist: Дыхание Пустоты
*Album: Не Плачь [single]
*Year: 2014
*Genre: Melodic Heavy Metal
*Country: Russian Federation
*Format: mp3@CBR320kbps
*Size: 14MB

Tracklist:
01. Не Плачь 05:47
******************************
Total playing time: 5:47

[more=Extended info]Для прослушивания доступен дебютный Интернет-сингл "Дыхания Пустоты" "НЕ ПЛАЧЬ". Сингл взят из готовящегося к релизу мини-альбома "Ночь Волка".

В записи сингла принимали участие:
Алексей (Reverend) Нестеров - вокал
Владимир Рогачев - клавишные, гитара
Денис Лебедев - бас
Сергей Швей - вокал

а также приглашенные участники:
Мария Ажнина - вокал
Маргарита Савина - вокал

В записи также принял участие и впоследствии свел проект Роман Валерьев (экс-Эпидемия, Колизей, Корсика, Пилигрим).

Оформление обложки: Александр Москаленко[/more]

[more=Technical info]
Input File: 01 - Не Плачь.mp3
Channels : 2
Sample Rate : 44100
Precision : 16-bit
Duration : 00:05:47.17 = 15310329 samples = 26038 CDDA sectors
File Size : 13.9M
Bit Rate : 320k
Sample Encoding: MPEG audio (layer I, II or III)
Comments :
Artist=Voidbreath
Album=No More Tears
Year=2014

[/more]

Register
(4) Rosen, spiritualdecay666, varlam4, wreak,
Feb 17 2014, 11:28:03 Royal Hunt - Moving Target (1995)
Reuploaded

Royal Hunt - Moving Target (1995)


Size: 97 MB
Bitrate: 320 Kbs
Track-list:
1. Last Goodbye 06:33
2. 1348 04:23
3. Makin' a Mess 04:00
4. Far Away 04:58
5. Step by Step 05:11
6. Autograph 03:36
7. Stay Down 04:21
8. Give It Up 04:01
9. Time 04:53

Register

(1) technoboy69,
Apr 22 2013, 19:04:51 Inchiuvatu - Strurusia [demo] (1994)
Reuploaded


Inchiuvatu - Strurusia [demo] (1994)

Формат: mp3@VBR237kbps
Размер: 37MB

Register


(1) paganheart,
Apr 22 2013, 18:58:00 Inchiuvatu - Demoniu [demo] (1994)
Reuploaded


Inchiuvatu - Demoniu [demo] (1994)


Формат: mp3@VBR270kbps
Размер: 43,1MB

Register
(1) paganheart,
Apr 22 2013, 18:56:38 Inchiuvatu - TrinaKa [demo] (1993)
Reuploaded


Inchiuvatu - TrinaKa [demo] (1993)



Артист: Inchiuvatu
Альбом: TrinaKa [demo]
Год: 1993
Стиль: Symphonic Black Metal
Размер: 39.95 Мб
Register
(1) paganheart,
Mar 26 2013, 10:34:35 Fiend - Freezing Funeral Serenades [ep] (2006)
Can someone reupload that?
(2) dermarsoran, infiltrator,
Feb 5 2013, 21:51:32 220 Volt - Prisoner Of War [single] (1982)
Reuploaded


220 Volt - Prisoner Of War [single] (1982)



Band: 220 Volt
Release: Prisoner of War (Single)
Genre: Heavy Metal
Country: Sweden
Year: 1982
Size: 7.67
Bitrate: 160kbps
Register
(1) MEmethuselah,
Nov 27 2012, 07:25:16 Netherworld - Netherworld (1996)
Reuploaded

Netherworld - Netherworld (1996)



Genre: Black Metal
Size: 79.85 MB

Register
(4) Groln, KKK1488, les, toly1917,
Nov 19 2012, 16:29:23 Teitanblood & Proclamation - Proclamation / Teitanblood [split] (2005)
Reuploaded



Proclamation & Teitanblood - Proclamation/Teitanblood [split] (2005)


Размер: 27.17 MB

Register
(8) apo1, CRUNCH, dead4, kauyumari, killingod, Lanceatum, Leolomb, marilin,
Aug 23 2012, 16:34:48 Triumfall - Antithesis Of All Flesh (2009)
Ifolder Link

Название: 2009 - Antithesis of All Flesh.zip
Размер: 100.78 Мб

Register
(7) Fryz, Houwitser, legion01, RUSP73, toly1917, Typhoid, Ugly13,
Aug 22 2012, 19:35:37 Triumfall - Antithesis Of All Flesh (2009)
Reuploaded

Triumfall - Antithesis Of All Flesh (2009)


Исполнитель: Triumfall
Альбом: Antithesis Of All Flesh
Год выхода: 2009
Страна: Serbia
Жанр: Black Metal
Время: 51 min
Качество: CBR 320
Размер: 101 MB

1. Atrium Mortis
2. One With The Dark Side Eternal
3. Alegiance To Thy Fall
4. Omega Overcasts The Presence
5. Rise Of Pantheon
6. Skies Are The Chains
7. Within Their Midinght
8. The Final Purification

Register

Собственно единственный полноформатный релиз с вокалом нынешнего вокалиста Горгорота.
(1) Rikardo90,
Jul 16 2012, 20:44:58 Moriorr - Masochrist (2007)
Reuploaded

Moriorr - Masochrist (2007)


Стиль: Death/Black Metal
Страна: Czech Republic (Prague)
Формат: mp3@VBR201
Размер: 53 Мb

Tracklist:
1. Intro 00:15
2. Jsem tvщj Kristus 03:53
3. Buп zlej (Be Evil) 03:13
4. Miluju tм mrtvou 02:36
5. Иas na funeral 04:13
6. Prosektura II. 04:35
7. Poslednн dмjstvн 03:48
8. Masochrist 02:59
9. Thermonuclear massacre 03:38
10. Rokenrol Moriorr 05:57
Total playing time: 36:30
Register
(5) BRUTAL06, dermarsoran, VALERY, varlam4, vov7609,
Jul 16 2012, 20:24:59 Mortalicum - Progress Of Doom (2010)
Reuploaded

Mortalicum - Progress Of Doom (2010)


Жанр: Heavy/Doom Metal
Год издания: 2010
Label: Metal On Metal Records
Аудиокодек: MP3
Тип рипа: Tracks
Битрейт аудио: 320 kbps
Продолжительность: 01:34:44
Сканы: да
Битрейт: 320 kbps
Размер: 111 Mb

Треклист:
01. Guiding Star 03:31
02. Into The Night 03:31
03. Progress Of Doom 04:14
04. A Darker Power 04:41
05. Power And Control 03:41
06. The Voyager 03:38
07. Revolution In Vain 04:25
08. Darkness All Around 05:52
09. Inner Peace 05:22
10. Damnation Of The Soul 09:21
Register
(3) AHBAnep, dark2805, varlam4,
Jul 10 2012, 05:07:10 Power Theory - Out Of Ashes, Into The Fire (2011)
Reuploaded

Power Theory - "Out Of The Ashes, Into The Fire…And Other Tales Of Insanity"



Страна: USA (Tullytown, Pennsylvania)
Жанр: Heavy/ Power Metal
Год издания: 2011
Аудиокодек: MP3
Тип рипа: tracks
Битрейт аудио: 320 kbps
Размер: 104 Mb
Продолжительность: 45:41
Трек-лист:
01. Prevaricator 03:37
02. This Madness Is Mine 04:19
03. Heart Of Darkness 05:15
04. Nightmare Crawling 03:55
05. Never Surrender (Terror Time) 05:39
06. When The Rain Comes Down 04:40
07. Insane (Metal's Part Of My Brain 03:26
08. Out Of Ashes, Into The Fire 04:51
09. Uriel's Tears (Instrumental) 02:23
10. Revelation 04:18
11. Slay The Beast Within 03:18
Register
(3) green7272, MеtalHead, varlam4,
Jul 9 2012, 05:04:36 Taak - Koerapööriöö (2006)
Found in the Web


Taak - Koerapööriöö (2006)

Битрейт: 224 kbps
Размер: 73,3 mb
Трек-лист:
01. Korjusepäev
02. Merevaik
03. Õiglane Jaak
04. Punane Madu
05. Tähist ja tolmust
06. Habemega nali
07. Trots
08. Öö
09. Ööliblikas
10. Hüljatu
11. Poeg on pätt
Register

Register
(2) Hroedmar, varlam4,
Jul 3 2012, 19:03:39 Adumus - To Heed The Call Of War (2004)
Reuploaded

Adumus - To Heed The Call Of War (2004)


Artist: Adumus
Music Album: To Heed the Call of War
Style: Black Metal
Year Of Publishing: 2011
Quality: 256Kbps
File Size: 80.41MB

Track List:
0.01: Adumus – To Heed the Call of War (00:45)
0.02: Adumus – The Inquisition Tower (04:27)
0.03: Adumus – Maleficent Omens (03:42)
0.04: Adumus – The Forsaken (05:13)
0.05: Adumus – Kindred Legions (03:23)
0.06: Adumus – A Pact With a Phantom Coven (04:16)
0.07: Adumus – Tyrants of the Deep (04:56)
0.08: Adumus – Martyrs for Diabolical Summonings (04:16)
0.09: Adumus – A Return to Pagan Glory (04:33)
0.10: Adumus – Post Mortem (04:01)
0.11: Adumus – Of the Underground (03:33)

Register
(4) princeshr, Typhoid, varlam4, vasiljev_sergej,
Jul 3 2012, 18:48:43 Depressive Winter - Llac Edicius (2006)
Reuploaded

Depressive Winter - Llac Edicius (2006)


Стиль: Black Metal
Группа: Depressive Winter
Альбом: Llac Edicius
Год: 2006
Страна: Франция
Размер: 92.55 мб
Битрейт: VBR ~ 250

Трек-лист
1. Call for Confession
2. The Cave of Madness
3. Llac Edicius
4. Voices of Reason
5. S.M.D.D.F.B.
6. Slaughter in the Name of God (Theory in Practice)
7. Psychopathic Paranoia Anthem
Register
(2) fenriz666, varlam4,

7 Pages V   1 2 3 > » 
- Lo-Fi Version Support form
Copyrights and abuse reports form
Time is now: 29th February 2020 - 10:30:36