Welcome Guest ( Log In | Register )

История благодарностей участнику gm_user ::: Спасибо сказали: 481 раз(а)
Дата поста: В теме: За сообщение: Спасибо сказали:
Sep 1 2018, 05:32:21 Sumac - Love In Shadow (2018)


*Artist: Sumac
*Album: Love In Shadow
*Year: 2018
*Genre: Atmospheric Sludge
*Country: Canada
*Format: mp3@CBR320kbps
*Size: 154MB

Tracklist:
01. The Task
02. Attis' Blade
03. Arcing Silver
04. Ecstasy of Unbecoming
******************************
Total playing time: 1:06:10



[more=Extended info]SUMAC is the powerhouse trio of Aaron Turner (Isis, Old Man Gloom,Mamiffer), Nick Yacyshyn (Baptists), and Brian Cook (Russian Circles, These Arms Are Snakes).

Releases September 21, 2018[/more]

[more=Technical info]
Input File: 02 - 02_Attis'_Blade.mp3.mp3
Channels : 2
Sample Rate : 44100
Precision : 16-bit
Duration : 00:15:45.42 = 41693154 samples = 70906.7 CDDA sectors
File Size : 38.2M
Bit Rate : 324k
Sample Encoding: MPEG audio (layer I, II or III)
Comments :
Title=Attis' Blade
Artist=SUMAC
Album=Love In Shadow
Tracknumber=2/4
Year=2018
Genre=Metal

[/more]

Register
(14) as71, Black Cat, Evgundel, gena, Hell_Is_Here, infiltrator, jpvalentim, marilin, ripper33, Rosen, stub888, Tyrone, Unkle Jonny, VALERY,
Aug 30 2018, 13:15:48 Pig Destroyer - Head Cage (2018)
QUOTE(aesteticvice @ Aug 30 2018, 13:12:06) *
оригинально срим транскодить в 256 1488.gif на самом деле твоя прога качает то, что установили когда туда влили(могли и вав влепить из 160 например), там не выше 128 по спектрам и на слух ты их никогда не отличишь, а истинные тру качают реальное качество, читай пост выше bye.gif


Капитан очевидность.
Я говорю, что ты взял 256 (в котором зашит 128) и перекодил в 128 и назвал это тру.
По такой логике если рипать 320 в 320 мы получим тру 320.
(3) infiltrator, Samaritianin, SatanicPanzer,
Aug 30 2018, 12:14:13 Pig Destroyer - Head Cage (2018)
Это стрим рип. 256 кбит стрим. А по факту 128. А тут транскод в 320.
И так сойдёт. Верно ?
(2) aesteticvice, infiltrator,
Aug 28 2018, 16:35:31 Beyond The Black - Heart Of The Hurricane (2018)


*Artist: Beyond The Black
*Album: Heart Of The Hurricane
*Year: 2018
*Genre: Symphonic Metal
*Country: Germany
*Format: mp3@CBR320kbps
*Size: 155MB

Tracklist:
01. Hysteria
02. Heart of the Hurricane
03. Through the Mirror
04. Million Lightyears
05. Song for the Godless
06. Escape from the Earth
07. Beneath a Blackened Sky
08. Fairytale of Doom
09. My God Is Dead
10. Dear Death
11. Scream for Me
12. Freedom
13. Breeze
14. Echo from the Past (Bonus Track)
15. Parade (Bonus Track)
******************************
Total playing time: 1:04:57

[more=Technical info]
Input File: 02. Heart Of The Hurricane.mp3
Channels : 2
Sample Rate : 44100
Precision : 16-bit
Duration : 00:03:40.12 = 9707424 samples = 16509.2 CDDA sectors
File Size : 9.24M
Bit Rate : 336k
Sample Encoding: MPEG audio (layer I, II or III)
Comments :
Title=Heart Of The Hurricane
Artist=Beyond The Black
Album=Heart Of The Hurricane
Tracknumber=2/15
Year=2018
Discnumber=1/1

[/more]

Register
(28) Alpha_Prime, Cartman223, DenisKov, djsema4, Fatalv, Femto, gusto24191, gwynnbleid, kryptor, MeatWolf, metala, Mogozoz, Mplast, nikolay81, oldvarg, Rosen, sadmannn, SAPOGi, Scuns, Shadechaser, talismanFS, terron, tOmV, Tular, valera2010, Victim of fate, zerger, скептик,
Aug 21 2018, 16:25:33 U.D.O. - Steelfactory (2018)


*Artist: U.D.O.
*Album: Steelfactory
*Year: 2018
*Genre: Heavy Metal
*Country: Germany
*Format: mp3@CBR320kbps
*Size: 149MB

Tracklist:
01. Tongue Reaper
02. Make The Move
03. Keeper Of My Soul
04. In The Heat Of The Night
05. Raise The Game
06. Blood On Fire
07. Rising High
08. Hungry And Angry
09. One Heart One Soul
10. A Bite Of Evil
11. What A Hell Of A Night (Japan Bonus Track)
12. Eraser
13. Rose In The Desert
14. The Way
******************************
Total playing time: 1:02:19



[more=Technical info]
Input File: 02. Make The Move.mp3
Channels : 2
Sample Rate : 44100
Precision : 16-bit
Duration : 00:04:04.37 = 10776541 samples = 18327.5 CDDA sectors
File Size : 10.3M
Bit Rate : 337k
Sample Encoding: MPEG audio (layer I, II or III)
Comments :
Title=Make The Move
Artist=U.D.O.
Album=Steelfactory
Tracknumber=2/14
Year=2018
Discnumber=1/1

[/more]

Register
(66) Abrob, AHBAnep, Alexis The Best, andreikun, Aresson, avkruchinin, boby9052, Boozer, bowelstew, Branis, cesar, Darkness, DenisKov, Diflock, djsema4, DTGB, Emhyr var Emreis, Fatalv, Faust2016, finntroll3, fsc97, gwar, igorzz, Indamage, infiltrator, jpvalentim, kakha_k, Kasper969, kim666, LEGION69, Lord Noctua, lyukon, METALHUNTER, metaljan, mintare, Mplast, MеtalHead, Nattfodd, Necroeire, oldvarg, Orkkh, Paradayz, Phlebotomized, poeira, recber, Rodriga, Rosen, russ777, sadmannn, Samaritianin, Shadechaser, Shadowman, talismanFS, TeamatSE, terron, toly1917, Unscarted, v.v.m, wgs73, wn129aa, WX419, xarjar, Yarri, ZambuL, zaqxsw, Смусмумбрик,
Aug 15 2018, 09:26:38 Thou - Magus (2018)


*Artist: Thou
*Album: Magus
*Year: 2018
*Genre: Sludge/Drone/Doom Metal
*Country: United States
*Format: mp3@CBR320kbps
*Size: 175MB

Tracklist:
01. Inward
02. My Brother Caliban
03. Transcending Dualities
04. The Changeling Prince
05. Sovereign Self
06. Divine Will
07. In the Kingdom of Meaning
08. Greater Invocation of Disgust
09. Elimination Rhetoric
10. The Law Which Compels
11. Supremacy
******************************
Total playing time: 1:15:48



[more=Technical info]
Input File: 02 - My Brother Caliban 1.mp3
Channels : 2
Sample Rate : 44100
Precision : 16-bit
Duration : 00:01:04.29 = 2835365 samples = 4822.05 CDDA sectors
File Size : 2.61M
Bit Rate : 325k
Sample Encoding: MPEG audio (layer I, II or III)
Comments :
Title=My Brother Caliban
Artist=Thou
Album=Magus
Tracknumber=2
Year=2018

[/more]

Register
(14) boby9052, denver, Emhyr var Emreis, Fragilitas, gena, Ghostb, Hell_Is_Here, igorzz, jpvalentim, lordbathor, marilin, Rosen, stub888, VALERY,
Jul 24 2018, 17:09:22 Derdian - DNA (2018)


*Artist: Derdian
*Album: DNA
*Year: 2018
*Genre: Power Metal
*Country: Italy
*Format: mp3@CBR320kbps
*Size: 165MB

Tracklist:
01. Abduction
02. DNA
03. False Flag Operation
04. Never Born
05. Hail to the Masters
06. Red and White
07. Elohim
08. Nothing Will Remain
09. Fire from the Dust
10. Destiny Never Awaits
11. Frame of the End
12. Part of This World
13. Ya nada cambiara
14. Never Born (Japanese Version) (Japan Bonus Track)
******************************
Total playing time: 1:12:34

[more=Extended info]Japan Edition

Line Up:
Enrico "Henry" Pistolese - Guitars, Vocals (backing)
Salvatore Giordano - Drums
Marco "Gary" Garau - Keyboards
Dario Radaelli - Guitars
Marco Banfi - Bass
Ivan Giannini - Vocals (Elegacy, Ivan Giannini, Airforce (live), ex-DarCloud, ex-Ivory)[/more]

[more=Technical info]
Input File: 02. DNA.mp3
Channels : 2
Sample Rate : 44100
Precision : 16-bit
Duration : 00:05:29.29 = 14521865 samples = 24697 CDDA sectors
File Size : 13.2M
Bit Rate : 322k
Sample Encoding: MPEG audio (layer I, II or III)
Comments :
Title=DNA
Artist=Derdian
Album=DNA
Tracknumber=2/14
Year=2018
Discnumber=1/1

[/more]

Register
(18) AHBAnep, Alpha_Prime, avather, Druidir, Fatalv, Foneg, gwar, John Beak, Kasper969, metala, Mogozoz, MеtalHead, NECHAST, oldvarg, Rosen, Rover, Shadechaser, vir2al,
Jul 24 2018, 16:55:29 Manticora - To Kill To Live To Kill (2018)


*Artist: Manticora
*Album: To Kill To Live To Kill
*Year: 2018
*Genre: Progressive Power/Speed Metal
*Country: Denmark
*Format: mp3@CBR320kbps
*Size: 162MB

Tracklist:
01. Piano Concerto 1: B Flat minor... 01:00
02. Echoes of a Silent Scream 06:03
03. Through the Eyes of the Killer: Towering Over You 06:15
04. Katana: Awakening the Lunacy 07:04
05. The Farmer's Tale (Part 1: The Aftermath of Indifference) 06:35
06. The Devil in Lisbon 05:40
07. Growth 09:19
08. Humiliation Supreme 02:43
09. Nothing Lasts Forever 05:48
10. Katana: Opium 05:44
11. Through The Eyes of the Killer: Revival of the Muse That Is Violence 07:28
12. The Farmer's Tale (Part 2: Annihilation at the Graves) 06:13
******************************
Total playing time: 1:09:52



[more=Technical info]
Input File: 02. Echoes Of A Silent Scream.mp3
Channels : 2
Sample Rate : 44100
Precision : 16-bit
Duration : 00:06:02.66 = 15993086 samples = 27199.1 CDDA sectors
File Size : 14.7M
Bit Rate : 325k
Sample Encoding: MPEG audio (layer I, II or III)
Comments :
Title=Echoes Of A Silent Scream
Artist=Manticora
Album=To Kill To Live To Kill
Tracknumber=2/12
Year=2018
Discnumber=1/1

[/more]

Register
(31) AdeptofDarkness, AHBAnep, andgrek28, avather, Cartman223, CelticSPB, Druidir, Emhyr var Emreis, Exorcist, Fatalv, hammer, infiltrator, metala, mirotvorets, Mogozoz, Mplast, MеtalHead, oldvarg, Olrak, pichileon, realexxx75, Rosen, Rover, samokot, SAPOGi, Shadechaser, Tino, tOmV, VALERY, Whitefish, Yarri,
Jul 23 2018, 21:35:35 Iron Void - Excalibur (2018)


*Artist: Iron Void
*Album: Excalibur
*Year: 2018
*Genre: Doom Metal
*Country: United Kingdom
*Format: mp3@CBR320kbps
*Size: 108MB

Tracklist:
01. Dragon's Breath
02. The Coming of a King
03. Lancelot of the Lake
04. Forbidden Love
05. Enemy Within
06. The Grail Quest
07. A Dream to Some, a Nightmare to Others
08. The Death of Arthur
09. Avalon
******************************
Total playing time: 47:07



[more=Technical info]
Input File: 01 Dragon\'s Breath.mp3
Channels : 2
Sample Rate : 44100
Precision : 16-bit
Duration : 00:06:24.02 = 16935458 samples = 28801.8 CDDA sectors
File Size : 15.4M
Bit Rate : 321k
Sample Encoding: MPEG audio (layer I, II or III)
Comments :
Title=Dragon's Breath
Artist=IRON VOID
Album=Excalibur
Tracknumber=1
Year=2018
Genre=Doom Metal

[/more]

Register
(14) infiltrator, JantoHadez, KVRT, marilin, MeathookSeed, metala, Mogozoz, oldvarg, Rosen, sergsazan, stub888, Tino, VALERY, WX419,
Jul 4 2018, 04:48:06 Anachronism - Orogeny (2018)
Судя по всему почиканый стрим рип с ютуба
(2) aesteticvice, infiltrator,
Jan 14 2016, 20:37:33 Brainstorm - Scary Creatures (2016)


*Artist: Brainstorm
*Album: Scary Creatures
*Year: 2016
*Genre: Heavy/Power Metal
*Country: Germany
*Format: mp3@CBR320kbps
*Size: 115MB

Tracklist:
01. The World to See 05:12
02. How Much Can You Take 04:14
03. We Are... 05:29
04. Where Angels Dream 04:40
05. Scary Creatures 05:29
06. Twisted Ways 05:25
07. Caressed by the Blackness 04:31
08. Scars in Your Eyes 04:27
09. Take Me to the Never 05:07
10. Sky Among the Clouds 05:04
******************************
Total playing time: 49:38

[more=Technical info]
Input File: 02. How Much Can You Take.mp3
Channels : 2
Sample Rate : 44100
Precision : 16-bit
Duration : 00:04:14.07 = 11204355 samples = 19055 CDDA sectors
File Size : 10.2M
Bit Rate : 322k
Sample Encoding: MPEG audio (layer I, II or III)
Comments :
Title=How Much Can You Take
Artist=Brainstorm
Album=Scary Creatures
Tracknumber=02
Year=2016
Genre=Power Metal
Discnumber=1/1

[/more]

Register
(24) andgrek28, Aresson, avather, avkruchinin, csgmnk, DenisKov, djsema4, DTGB, Fatalv, lyukon, MeathookSeed, MetalW, Mogozoz, nospeedlimit, oldvarg, Olrak, Rosen, SAPOGi, satanist666, talismanFS, varlam4, vigilante, wgs73, wreak,
Jan 14 2016, 12:24:06 Rhapsody Of Fire - Into The Legend (2016)


*Artist: Rhapsody Of Fire
*Album: Into The Legend
*Year: 2016
*Genre: Symphonic Power Metal
*Country: Italy
*Format: mp3@CBR320kbps
*Size: 153MB

Tracklist:
01. In Principio
02. Distant Sky
03. Into The Legend
04. Winter's Rain
05. A Voice In The Cold Wind
06. Valley Of Shadows
07. Shining Star
08. Realms Of Light
09. Rage Of Darkness
10. The Kiss Of Life
******************************
Total playing time: 1:06:43

[more=Technical info]
Input File: 02. Distant Sky.mp3
Channels : 2
Sample Rate : 44100
Precision : 16-bit
Duration : 00:04:32.64 = 12023512 samples = 20448.1 CDDA sectors
File Size : 11.0M
Bit Rate : 323k
Sample Encoding: MPEG audio (layer I, II or III)
Comments :
Title=Distant Sky
Artist=Rhapsody Of Fire
Album=Into the Legend
Tracknumber=2
Year=2016
Genre=Symphonic Power Metal
Discnumber=1

[/more]

Register
(42) AHBAnep, andy584, Aresson, avather, avkruchinin, BleedingSun, Cartman223, chon, DenisKov, djsema4, dronewolf, fabriziomagno, Fatalv, Fess, finmetal, fylopaloma, ironyserg, Jurmagund, LightWizard, Lugia010719d1, MeatWolf, Mogozoz, morbidangelo, MеtalHead, Narasimha, oldvarg, Olrak, recber, Rosen, sadmannn, satanist666, Scald, StoneTemple, talismanFS, Thunderbird, varlam4, Victim of fate, vosmidesijatye, wreak, yuratroll, ZambuL, Варонъ,
Jan 12 2016, 09:08:02 Abbath - Abbath (2016)


*Artist: Abbath
*Album: Abbath
*Year: 2016
*Genre: Black Metal
*Country: Norway
*Format: mp3@CBR320kbps
*Size: 102MB

Tracklist:
01. To War
02. Winter Bane
03. Ashes Of The Damned
04. Ocean Of Wounds
05. Count The Dead
06. Fenrir Hunts
07. Root Of The Mountain
08. Eternal
******************************
Total playing time: 40:54

[more=Technical info]
Input File: 01 - To War.mp3
Channels : 2
Sample Rate : 44100
Precision : 16-bit
Duration : 00:05:35.34 = 14788582 samples = 25150.6 CDDA sectors
File Size : 13.5M
Bit Rate : 321k
Sample Encoding: MPEG audio (layer I, II or III)
Comments :
Title=To War
Artist=Abbath
Album=Abbath
Tracknumber=01
Year=2016
Genre=Black Metal
Discnumber=1

[/more]

Register
(108) 0x13, 1968_janeart, Ainar, alexcount, andeimon, andivi, Aphotic, Aresson, artscald, Ballisargon, Buregon, Buslaych, cesar, Chasm, craP_cillA, DarkFlame, DarkHorde, DarkYantar, dimitris p., djsema4, DMIYUR, doom, Drojnan, fabeldyr, fabriziomagno, frwd, garml2, gena, geohors, GoatFucker, gryphon, gusto24191, Henmik, Ildjarn, Immolator, Infidel, johnbutoff, judaz, Jurmagund, Kasper969, kazulapka, killingod, Konst, Leiche, Lord Noctua, LORDSEITAN, Lucifer, lucifix, Luka, marilin, MMMMM, Moonshtook, morbidangelo, NachtWulf, Necroeire, nekrokilldozer, nugorod, Old Vyaine, oldvarg, Ostad, Ostinato, pfk505, phillipjorge, princeshr, QuadenThyrane, Rattenkonig, Raw1488, recber, RENыч, respect, Rosen, Ruben, sabbracadabra, sandr666, satanist666, ShmiT, Slammer4000, sperminator, Spritznkarli, SSBandera, ssv, StabWound, suseka, Swastika, TeamatSE, thyrane, Tino, tont, tr00ps, troll1980, undeadlich, VALERY, varg-38ru, varlam4, vasiljev_sergej, Vidder242, vov7609, wgs73, wreak, Xor, xska, yarrsuaa, ZambuL, Zoloft, Герб, Луч, Сварог Барг, Сет,
Dec 29 2015, 11:22:44 Lost Society - Braindead (2016)
Register
(6) DarkHorde, Diflock, DTGB, mika, Samaritianin, vo140182fav,
Dec 28 2015, 19:04:54 Witchcraft - Nucleus (2016)


*Artist: Witchcraft
*Album: Nucleus
*Year: 2016
*Genre: Doom Metal
*Country: Sweden
*Format: mp3@CBR192kbps
*Size: 103MB

Tracklist:
01. Malstroem
02. Theory Of Consequence
03. The Outcast
04. Nucleus
05. An Exorcism Of Doubts
06. The Obsessed
07. To Transcend Bitterness
08. Helpless
09. Breakdown
10. Chasing Rainbows
******************************
Total playing time: 1:13:41

Register
(6) Lightbringer, marilin, paganheart, SatanicPanzer, VALERY, vosmidesijatye,
Nov 11 2015, 18:28:40 Kampfar - Profan (2015)
320

Register
(2) Black Cat, Lord Noctua,
Oct 28 2015, 19:42:51 Reverence - Gods Of War (2015)


*Artist: Reverence
*Album: Gods Of War
*Year: 2015
*Genre: Power Metal
*Country: United States
*Format: mp3@CBR320kbps
*Size: 140MB

Tracklist:
1.Gods of War
2.Heart of Gold
3.Until My Dying Breath
4.Angel in Black
5.Tear Down the Mountain
6.Blood of Heroes
7.Battle Cry
8.Choices Made
9.Splinter
10.Cleansed by Fire
11.Race to Obscene
12.Kick the Dog (Bonus Track)
******************************
Total playing time: 55:20



[more=Extended info]Японец с бонусом и сканами.
Все благодарности ильяну (ilijan) с ММТ. Там же лось


Состав
Todd Michael Hall - Vocals (Riot V, Jack Starr’s Burning Starr)
Steve "Doc" Wacholz - Drums (founding member of Savatage, ex-Crimson Glory)
Bryan Holland - Guitars (Tokyo Blade, Arrest)
Michael Massie - Bass (Overloaded, Chocking Susan)
Pete Rossi - Guitars (Overland, Sanxtion)[/more]

[more=Technical info]
Input File: 01. Gods Of War.mp3
Channels : 2
Sample Rate : 44100
Precision : 16-bit
Duration : 00:04:51.58 = 12858810 samples = 21868.7 CDDA sectors
File Size : 11.7M
Bit Rate : 322k
Sample Encoding: MPEG audio (layer I, II or III)
Comments :
Title=Gods Of War
Artist=Reverence
Album=Gods Of War (Japan)
Tracknumber=01
Year=2015
Genre=Power Metal

[/more]

Register
(13) AHBAnep, DenisKov, infiltrator, metala, Mogozoz, MеtalHead, oldvarg, Rosen, satanist666, Spunkynut, varlam4, wgs73, wreak,
Oct 27 2015, 23:08:51 Intronaut - The Direction Of Last Things (2015)


*Artist: Intronaut
*Album: The Direction Of Last Things
*Year: 2015
*Genre: Progressive/Sludge/Post-Metal
*Country: United States
*Format: mp3@CBR256kbps
*Size: 93MB

Tracklist:
01. Fast Worms
02. Digital Gerrymandering
03. The Pleasant Surprise
04. The Unlikely Event Of A Water Landing
05. Sul Ponticello
06. The Direction Of Last Things
07. City Hymnal
******************************
Total playing time: 46:06



Register
(11) Baudolino, Buregon, garml2, metala, Ostinato, Rosen, Shadowman, Tino, varlam4, wreak, yuratroll,
Oct 27 2015, 20:20:58 Vanden Plas - Chronicles Of The Immortals: Netherworld II (2015)


*Artist: Vanden Plas
*Album: Chronicles Of The Immortals: Netherworld II
*Year: 2015
*Genre: Progressive Metal
*Country: Germany
*Format: mp3@CBR192kbps
*Size: 97MB

Tracklist:
01. Vision 11even * In My Universe
02. Vision 12elve * Godmaker's Temptation
03. Vision 13teen * Stone Roses Edge
04. Vision 14teen * Blood Of Eden (* All Love Must Die) (* The Rite)(* This Is The Night)
05. Vision 15teen * Monster
06. Vision 16teen * Diabolica Comedia
07. Vision 17teen * Where Have The Children Gone
08. Vision 18teen * The Last Fight
09. Vision 19teen * Circle Of The Devil
******************************
Total playing time: 1:06:15



Register
(10) csgmnk, DenisKov, dimitris p., LusitanianTroll, metala, MMMMM, MеtalHead, Rosen, varlam4, wreak,
Oct 27 2015, 15:34:13 Lugubrum - Herval (2015)


*Artist: Lugubrum
*Album: Herval
*Year: 2015
*Genre: Experimental Black Metal
*Country: Belgium
*Format: mp3@CBR320kbps
*Size: 80MB

Tracklist:
1. Aalschuimix
2. Vergeeldetruidrager
3. Herval
4. Dorstige Vis
5. Aldi Iacta Est
6. Uri Noir
7. Comata
8. Herval Herval
******************************
Total playing time: 34:39



[more=Technical info]
Input File: 03 Herval.mp3
Channels : 2
Sample Rate : 44100
Precision : 16-bit
Duration : 00:04:39.41 = 12321893 samples = 20955.6 CDDA sectors
File Size : 11.2M
Bit Rate : 321k
Sample Encoding: MPEG audio (layer I, II or III)
Comments :
Title=Herval
Artist=Lugubrum
Album=Herval
Tracknumber=3
Year=2015
Genre=Black Metal

[/more]

Register
(47) acerbus, Aresson, artscald, Black Cat, Blut aus Nord, Boozer, brth, Buregon, cancer1974, Constantinus I, DarkHorde, doom, Emhyr var Emreis, gusto24191, infiltrator, judaz, Kazoth, Lena, lestllk, Lord Noctua, metala, morbidangelo, NachtWulf, oldvarg, Ostinato, Premature_Devotion, Rosen, sacrut, Sanc, satanist666, Schavuyt, skeletron215, smes, SortVokter, stub888, the_cleanser, Tino, Valdmaar, VALERY, varg-38ru, varlam4, Xor, xska, yuratroll, zlvd, Абигор, некрософ,

- Lo-Fi Version Support form
Copyrights and abuse reports form
Time is now: 14th November 2019 - 02:06:57