Welcome Guest ( Log In | Register )

История благодарностей участнику Svafrlami ::: Спасибо сказали: 1204 раз(а)
Дата поста: В теме: За сообщение: Спасибо сказали:
May 9 2020, 14:10:12 Grausamkeit - Auswanderung Nach Palästina [bootleg] (2018)


*Artist: Grausamkeit
*Album: Auswanderung Nach Palästina [bootleg]
*Year: 2018
*Genre: Ambient/Black Metal
*Country: Germany
*Format: mp3@VBR201kbps
*Size: 91MB

Tracklist:
1. Untitled
******************************
Total playing time: 58:49

[more=Technical info]
Input File: 01 - Deportation Nach Palästina.mp3
Channels : 2
Sample Rate : 44100
Precision : 16-bit
Duration : 00:58:49.69 = 155659373 samples = 264727 CDDA sectors
File Size : 88.9M
Bit Rate : 201k
Sample Encoding: MPEG audio (layer I, II or III)
Comments :
Title=Deportation Nach Palästina
Artist=Grausamkeit
Album=Deportation Nach Palästina
Tracknumber=1
Year=2018
Genre=Black Metal

[/more]

Register
(30) 1968_janeart, Borderline1991, ChaosArcana, craP_cillA, dim0ntius, dvlz, FUDEDOR, fuoco, heinz88, Hell_Is_Here, INDARKNESS, infiltrator, kim666, lestllk, multizwilling, Olethros, Ostinato, randumbum, Raw1488, Reverend, Rosen, sethurius, stub888, thenecromancer, the_cleanser, tim47, varlam4, vasiljev_sergej, Wail, Абигор,
May 9 2020, 14:00:08 Goremonger - The Sickening Paradox Of Reality (2018)


*Artist: Goremonger
*Album: The Sickening Paradox Of Reality
*Year: 2018
*Genre: Brutal Death Metal/Goregrind
*Country: United States
*Format: mp3@CBR320kbps
*Size: 82MB

Tracklist:
1. Blowing Gas at Your Face
2. Calculated Coincidence
3. Hanging Out at Fuck the Ass
4. Fart Bubble Embolism
5. Her First Time on Film
6. Spewing Religious Fodder
7. Just Another Hole
8. Fuck Your Victim Impact Statement
9. Paw's Homegrown and Crusty Old Porn
10. Queef Bubble Embolism
11. Tits of All Shapes and Sizes
12. Don't Tell Mom the Baby Sister's Dead
13. Burning Your World (Fleshgrind cover)
14. Pimp in My Own Grind
15. Attack of the Ptardodactyl (A Vile Disturbance)
16. More Doors (Outro)
******************************
Total playing time: 35:56



[more=Technical info]
Input File: 05 Her First Time On Film.mp3
Channels : 2
Sample Rate : 44100
Precision : 16-bit
Duration : 00:01:33.00 = 4101300 samples = 6975 CDDA sectors
File Size : 3.73M
Bit Rate : 321k
Sample Encoding: MPEG audio (layer I, II or III)
Comments :
Title=Her First Time On Film
Artist=Goremonger
Album=The Sickening Paradox Of Reality
Tracknumber=05
Year=2018-耀Ł-교⌃
Genre=Brutal Death Metal/Grindcore
Discnumber=1

[/more]

Register
(9) atavist, Hell_Is_Here, infiltrator, jollo, Lukittaz, Olethros, randumbum, Rosen, vyacheslav,
May 9 2020, 13:52:00 Lore Of The Cannibals - Cannibals Of The Ancient Forest [demo] (2017)


*Artist: Lore Of The Cannibals
*Album: Cannibals Of The Ancient Forest [demo]
*Year: 2017
*Genre: Black Metal
*Country: United States
*Format: mp3@CBR320kbps
*Size: 87MB

Tracklist:
1. Cannibals of the Ancient Forest
2. Rise and Fall of the Nahi Tribe
3. Sacrifice Blood
4. Triumph
5. Cannibals of the Ancient Forest (Necroholocaust Mix)
6. Sacrifice Blood (Necroholocaust Mix)
7. Triumph (Necroholocaust Mix)
******************************
Total playing time: 37:45

Preview 1

[more=Technical info]
Input File: 02-RiseAndFallOfTheNahiTribe.mp3
Channels : 2
Sample Rate : 44100
Precision : 16-bit
Duration : 00:07:09.38 = 18935438 samples = 32203.1 CDDA sectors
File Size : 17.3M
Bit Rate : 322k
Sample Encoding: MPEG audio (layer I, II or III)
Comments :
Title=Rise and Fall of the Nahi Tribe
Artist=Lore of the Cannibals
Album=Cannibals of the Ancient Forest
Tracknumber=2
Year=2017

[/more]

Register
(8) infiltrator, kim666, multizwilling, Olethros, stub888, thenecromancer, vasiljev_sergej, Wail,
May 9 2020, 13:40:08 Obscura Symphonia - Dawn Of Total Darkness [demo] (1999)


*Artist: Obscura Symphonia
*Album: Dawn Of Total Darkness [demo]
*Year: 1999
*Genre: Atmospheric/Melodic Black Metal
*Country: France
*Format: mp3@CBR320kbps
*Size: 126MB

Tracklist:
1. Enthrone the Great (Intro)
2. Mystic Grandiose Castle
3. Profound Desolation
4. Religious
5. Gloomy Interlude
6. Dark Visions
7. Ineffable Hate
8. Funeral Quest
9. Dawn of Total Darkness
10. In the Streams of Abstract Cosmic Lake of Perdition (Outro)
******************************
Total playing time: 53:08



[more=Technical info]
Input File: 02 Mystic Grandiose Castle.mp3
Channels : 2
Sample Rate : 44100
Precision : 16-bit
Duration : 00:03:42.81 = 9825921 samples = 16710.8 CDDA sectors
File Size : 9.02M
Bit Rate : 324k
Sample Encoding: MPEG audio (layer I, II or III)
Comments :
Title=Mystic Grandiose Castle
Artist=Obscura Symphonia
Album=Dawn Of Total Darkness
Tracknumber=2
Year=1999
Genre=Black Metal

[/more]

Register
(15) 1968_janeart, craP_cillA, Evilded, infiltrator, kim666, Olethros, randumbum, robertho777, senecazm, symphonicadiction, thenecromancer, VALERY, varlam4, vasiljev_sergej, zhol,
May 9 2020, 13:30:55 A Field Of Black Orchids - The Golden Age Ov Saturn (2010)


*Artist: A Field Of Black Orchids
*Album: The Golden Age Ov Saturn
*Year: 2010
*Genre: Experimental Industrial
*Country: United States
*Format: mp3@CBR320kbps
*Size: 148MB

Tracklist:
1. Blood Pact
2. AZiph
3. Psi le Cibe
4. Dismember Placement
5. Neu RA l
6. EYE core I.D.
7. Viscoelastic Servitor
8. Liquid Viral Isolator [WATER]
9. SlavE
10. The Golden Age ov Saturn
11. EYE core I.D. -redux (Worms of the Earth)
******************************
Total playing time: 1:02:59




[more=Technical info]
Input File: 09 SlavE.mp3
Channels : 2
Sample Rate : 44100
Precision : 16-bit
Duration : 00:05:50.09 = 15438925 samples = 26256.7 CDDA sectors
File Size : 14.3M
Bit Rate : 327k
Sample Encoding: MPEG audio (layer I, II or III)
Comments :
Title=SlavE
Artist=A Field Of Black Orchids
Album=The Golden Age Ov Saturn
Tracknumber=9
Year=2010
Genre=Other

[/more]

Register
(5) gwar, infiltrator, Olethros, Torolv, zoog,
May 9 2020, 13:20:31 Arthuros - Kosmos (2020)


*Artist: Arthuros
*Album: Kosmos
*Year: 2020
*Genre: Dungeon Synth
*Country: Greece
*Format: mp3@CBR320kbps
*Size: 90MB

Tracklist:
1. With Apollonian Might
2. Observer Of The Kosmos, Part I
3. With Arthurian Pride
4. Observer Of The Kosmos, Part II
5. Inside A Star's Womb
6. Phos (Φως)
7. A Sword Dipped In Star's Blood
8. Penetrating Through The Void...
******************************
Total playing time: 37:57



[more=Technical info]
Input File: 05 - Inside a Star's Womb.mp3
Channels : 2
Sample Rate : 44100
Precision : 16-bit
Duration : 00:03:53.55 = 10299555 samples = 17516.2 CDDA sectors
File Size : 9.79M
Bit Rate : 335k
Sample Encoding: MPEG audio (layer I, II or III)
Comments :
Title=Inside a Star's Womb
Artist=Arthuros
Album=Kosmos
Tracknumber=5
Year=2020
Genre=Dungeon Synth

[/more]

Register
(2) infiltrator, Olethros,
May 9 2020, 13:12:49 Arthuros - Ithildin (2019)


*Artist: Arthuros
*Album: Ithildin
*Year: 2019
*Genre: Dungeon Synth
*Country: Greece
*Format: mp3@CBR320kbps
*Size: 75MB

Tracklist:
1 Gaze Of The Light Tower​.​.​.​.​.
2 My Journey To The Light Realm
3 As I Pass Through The Moongate
4 The Vision Of The Northern Star
5 I , The Stars
6 Olympos
7 Fled Towards Paths Unknown.....
******************************
Total playing time: 31:25



[more=Technical info]
Input File: 01 Gaze Of The Light Tower......mp3
Channels : 2
Sample Rate : 44100
Precision : 16-bit
Duration : 00:01:09.78 = 3077298 samples = 5233.5 CDDA sectors
File Size : 2.92M
Bit Rate : 335k
Sample Encoding: MPEG audio (layer I, II or III)
Comments :
Title=Gaze Of The Light Tower.....
Artist=ARTHUROS
Album=Ithildin
Tracknumber=1
Year=2019
Genre=Dungeon Synth

[/more]

Register
(2) infiltrator, Olethros,
May 9 2020, 13:01:49 :wumpscut: - Bunkertor 7 (2006)


*Artist: :wumpscut:
*Album: Bunkertor 7
*Year: 2006
*Genre: Dark Electro
*Country: Germany
*Format: mp3@CBR320kbps
*Size: 151MB

Tracklist:
1 Open Gate
2 Torn Skin
3 Capital Punishment
4 Die In Winter (Original Version)
5 Bunkertor 7 (German Texture)
6 Thorns (Album Version)
7 Mortal Highway
8 Bunkertor 7 (Reprised)
9 Dying Culture (Album Version)
10 Corroded Breed
11 Tell Me Why (Album Version)
12 Close Gate
13 Capital Punishment (Early Take)
14 Corroded Breed (Early Take)
15 Bunkertor 7 (Early Take)
******************************
Total playing time: 1:06:30



[more=Technical info]
Input File: 02. Torn Skin.mp3
Channels : 2
Sample Rate : 44100
Precision : 16-bit
Duration : 00:05:24.17 = 14296073 samples = 24313 CDDA sectors
File Size : 13.0M
Bit Rate : 322k
Sample Encoding: MPEG audio (layer I, II or III)
Comments :
Title=Torn Skin
Artist=:wumpscut:
Album=Bunkertor 7 (11 Years Anniversary Edition)
Tracknumber=02/15
Year=2006
Genre=12

[/more]

Register
(8) Angry_Chair, Femto, FUDEDOR, gwar, infiltrator, Olethros, Rodin, Shadechaser,
May 9 2020, 12:51:46 Suicide Commando - Forest Of The Impaled (2017)


*Artist: Suicide Commando
*Album: Forest Of The Impaled
*Year: 2017
*Genre: Ebm/Electro/Industrial
*Country: Belgium
*Format: mp3@CBR320kbps
*Size: 449MB

Tracklist:
Forest Of The Impaled (CD 1)
1 The Gates Of Oblivion
2 My New Christ
3 Too Far Gone
4 Death Lies Waiting
5 The Pain That You Like
6 Poison Tree
7 The Devil
8 Chasm Of Emptiness
9 Crack Up
10 Schiz[o]topia
11 We Are Transitory

Remix CD (CD 2)
1 Death Lies Waiting (Nigen Remix)
2 The Pain That You Like (Pride And Fall Remix)
3 Chasm Of Emptiness (The Psychic Force Remix)
4 My New Christ (Life Cried Remix)
5 The Pain That You Like (Orange Sector Remix)
6 Too Far Gone (Plastic Noise Experience Remix)
7 Chasm Of Emptiness (Mildreda Remix)
8 My New Christ (Reaxion Guerrilla Remix)
9 Death Lies Waiting ([:SITD:] Remix)
10 My New Christ (2nd Face Remix)
11 Katarina Misskey - God Is In The Rain

Tribute CD (CD 3)
1 Acylum - Come To Me
2 Reactor 7x - Love Breeds Suicide
3 C-Lekktor Vs. Circuito Cerrado - Desire
4 Short And Crunch - Monster
5 Alien Vampires - Cause Of Death: Suicide
6 Empusa - Sheer Horror
7 ES23 - Conspiracy With The Devil
8 Mildreda - Fate
9 Nano Infect - Hellraiser
10 XSRY - Time
11 Aim And Execute - Actions Of The Mind
12 Bodyharvest - Godsend
13 Stahlnebel & Black Selket - Sterbehilfe
14 Yu feat. Blackjack O'Hare - See You In Hell

The Devil Bonus MCD (CD 4)
1 The Devil (Satanismus Remix)
2 Cold Therapy - The Devil
3 The Devil (Instrumental)
4 Sektor O - The Devil
5 The Devil (1991 Version)
******************************
Total playing time: 3:31:24



[more=Technical info]
Input File: 02 My New Christ.mp3
Channels : 2
Sample Rate : 44100
Precision : 16-bit
Duration : 00:04:36.37 = 12187785 samples = 20727.5 CDDA sectors
File Size : 11.2M
Bit Rate : 323k
Sample Encoding: MPEG audio (layer I, II or III)
Comments :
Title=My New Christ
Artist=Suicide Commando
Album=Forest of the Impaled (Deluxe Edition)
Tracknumber=02/41
Year=2017
Genre=Electronic
Discnumber=1/4

[/more]

Register
(8) Angry_Chair, Femto, gwar, Hell_Is_Here, infiltrator, Olethros, Shadechaser, wtk.412,
Mar 14 2020, 21:49:51 Aphotic Apathy - The Nostromo (2015)


*Artist: Aphotic Apathy
*Album: The Nostromo
*Year: 2015
*Genre: Space/Dark Ambient
*Country: Unknown
*Format: mp3@VBR274kbps
*Size: 83MB

Tracklist:
1. Awaken
2. Mother
3. Signal
4. LV-426
5. Derelict
6. Exploration
7. Space Jockey
8. Cargo
9. Eggs
10. Host
11. Nostromo
12. Narcissus
******************************
Total playing time: 51:44



[more=Technical info]
Input File: 02 Mother.mp3
Channels : 2
Sample Rate : 44100
Precision : 16-bit
Duration : 00:02:29.08 = 6574428 samples = 11181 CDDA sectors
File Size : 5.18M
Bit Rate : 278k
Sample Encoding: MPEG audio (layer I, II or III)
Comments :
Title=Mother
Artist=Aphotic Apathy
Album=The Nostromo
Tracknumber=2
Year=2015
Genre=Ambient

[/more]

Register
(4) gena, infiltrator, Olethros, recber,
Mar 14 2020, 21:44:24 Aphotic Apathy - The Engineers (2015)


*Artist: Aphotic Apathy
*Album: The Engineers
*Year: 2015
*Genre: Space/Dark Ambient
*Country: Unknown
*Format: mp3@VBR248kbps
*Size: 95MB

Tracklist:
1. LV-223
2. Discovery
3. Dream
4. Designed
5. Temple
6. Ampules
7. Swarm
8. Engineers
9. Pathogen
10. Life
11. Paradise
******************************
Total playing time: 55:05



[more=Technical info]
Input File: 08 Engineers.mp3
Channels : 2
Sample Rate : 44100
Precision : 16-bit
Duration : 00:02:13.15 = 5871739 samples = 9985.95 CDDA sectors
File Size : 4.21M
Bit Rate : 253k
Sample Encoding: MPEG audio (layer I, II or III)
Comments :
Title=Engineers
Artist=Aphotic Apathy
Album=The Engineers
Tracknumber=8
Year=2015

[/more]

Register
(4) Dreamtale, infiltrator, Olethros, recber,
Mar 14 2020, 20:32:12 Antiquus Scriptum - Tales From The Past Millennium [demo] (1999)


*Artist: Antiquus Scriptum
*Album: Tales From The Past Millennium [demo]
*Year: 1999
*Genre: Black Metal
*Country: Portugal
*Format: mp3@CBR320kbps
*Size: 27MB

Tracklist:
1. Dance of the Sleepless Souls in a Dusk Called Night... (Intro)
2. Osculum Infame
3. In Pulverem Reverteris
4. Lucid Fairytale (Napalm Death cover) (live)
5. Dance of the Crying Souls in a Dusk Called Night... (Outro)
******************************
Total playing time: 14:02

[more=Extended info]Not sure if the following blogspot is the original uploader but demo was found here:https://ewigerfroststurm.blogspot.com/2019/04/antiquus-scriptum-tales-from-past.html?m=1[/more]

[more=Technical info]
Input File: 03 In Pulverem Reverteris.mp3
Channels : 2
Sample Rate : 44100
Precision : 16-bit
Duration : 00:02:00.44 = 5311404 samples = 9033 CDDA sectors
File Size : 4.82M
Bit Rate : 320k
Sample Encoding: MPEG audio (layer I, II or III)
Comments :
Title=In Pulverem Reverteris
Artist=Antiquus Scriptum
Album=Tales From The Past Millennium
Tracknumber=3
Year=1999
Genre=Black Metal

[/more]

Register
(11) infiltrator, kim666, morbidangelo, nord6666, Olethros, SilentNidhogg, stub888, thenecromancer, varlam4, vasiljev_sergej, wreak,
Mar 13 2020, 22:15:06 Yelworc - Trinity (2004)


*Artist: Yelworc
*Album: Trinity
*Year: 2004
*Genre: Dark Electro
*Country: Germany
*Format: mp3@CBR320kbps
*Size: 118MB

Tracklist:
1 Blaze Of Downfall
2 Doom Of Choronzon
3 Triune Junction
4 Prodigies Of Black
5 Vexilla Regis Inferni
6 Trinity
7 After Laughter
8 Bloodwhited
9 Caia's Curse
10 Revelation
11 D-Mask
12 Beast Tamer
13 Almighty Din
14 Thru Me
15 Pan*Demonium
16 Hellfaction
******************************
Total playing time: 1:17:05



[more=Technical info]
Input File: 02 Doom Of Choronzon.mp3
Channels : 2
Sample Rate : 44100
Precision : 16-bit
Duration : 00:05:14.51 = 13869803 samples = 23588.1 CDDA sectors
File Size : 12.6M
Bit Rate : 320k
Sample Encoding: MPEG audio (layer I, II or III)
Comments :
Title=Doom Of Choronzon
Artist=yelworC
Album=Trinity
Tracknumber=02
Year=2004
Genre=Electronic

[/more]

Register
(6) Buregon, EvgeniusLongus, FUDEDOR, gwar, infiltrator, Olethros,
Mar 13 2020, 22:09:54 Hexenfaust - C.S. [demo] (2006)


*Artist: Hexenfaust
*Album: C.S. [demo]
*Year: 2006
*Genre: Symphonic Black/Doom Metal
*Country: Italy
*Format: mp3@CBR320kbps
*Size: 87MB

Tracklist:
1. C.S. Praeludium (Intro)
2. Zehul Ithos Osnok
3. Opus Infernalis
4. The Moon and the Serpent
5. Ad Nihilum Recidere
******************************
Total playing time: 38:13



[more=Extended info]CD ripped from my own personal collection, enjoy!!![/more]

[more=Technical info]
Input File: 02 Zehül Ithos Osnok.mp3
Channels : 2
Sample Rate : 44100
Precision : 16-bit
Duration : 00:08:32.46 = 22599574 samples = 38434.6 CDDA sectors
File Size : 20.5M
Bit Rate : 320k
Sample Encoding: MPEG audio (layer I, II or III)
Comments :
Title=Zehül Ithos Osnok
Artist=Hexenfaust
Album=C.S.
Tracknumber=2
Year=2006-01-01
Genre=Symphonic Black/Doom Metal

[/more]

Register
(9) Den_M, infiltrator, Mogozoz, Ostinato, senecazm, sergsazan, symphonicadiction, VALERY, wreak,
Mar 13 2020, 20:42:37 Lore Liege - Doomed, Endlessly [compilation] (2019)


*Artist: Lore Liege
*Album: Doomed, Endlessly [compilation]
*Year: 2019
*Genre: Dungeon Synth
*Country: United States
*Format: mp3@CBR320kbps
*Size: 38MB

Tracklist:
1. The Black Thornes of Dagamoor
2. Into the Forbidden Land of the Dworn
3. The Castle of Ithilien
4. Sorrow and Anger Fill the Heart of a Widow
5. Hill of Sorcery (Dol Guldur)
6. Doomed, Endlessly
7. A Mind Wandering
******************************
Total playing time: 18:47



[more=Technical info]
Input File: 01 The Black Thornes of Dagamoor.mp3
Channels : 2
Sample Rate : 44100
Precision : 16-bit
Duration : 00:01:39.19 = 4374367 samples = 7439.4 CDDA sectors
File Size : 4.13M
Bit Rate : 333k
Sample Encoding: MPEG audio (layer I, II or III)
Comments :
Title=The Black Thornes of Dagamoor
Artist=Lore Liege
Album=Doomed, Endlessly
Tracknumber=1
Year=2019

[/more]

Register
(2) infiltrator, Olethros,
Mar 13 2020, 20:35:54 Lore Liege - Dusk [ep] (2020)


*Artist: Lore Liege
*Album: Dusk [ep]
*Year: 2020
*Genre: Ambient/Black Metal
*Country: United States
*Format: mp3@CBR320kbps
*Size: 45MB

Tracklist:
1. The Conjuring (Intro)
2. Fierce Magic In The Forgotten Forest
3. Sun Of Souls
4. Lost Wisdom (Burzum Cover)
5. A Dear Friend
6. Untitled (Outro)
******************************
Total playing time: 18:58



[more=Technical info]
Input File: 02 Fierce Magic In The Forgotten Forest.mp3
Channels : 2
Sample Rate : 44100
Precision : 16-bit
Duration : 00:06:19.08 = 16717560 samples = 28431.2 CDDA sectors
File Size : 15.3M
Bit Rate : 324k
Sample Encoding: MPEG audio (layer I, II or III)
Comments :
Title=Fierce Magic In The Forgotten Forest
Artist=Lore Liege
Album=Dusk (EP)
Tracknumber=2
Year=2020

[/more]

Register
(8) infiltrator, kim666, Ostinato, robertho777, SilentNidhogg, stub888, vasiljev_sergej, wreak,
Mar 13 2020, 20:31:56 Lore Liege - Demo - Nov. 2019 [demo] (2019)


*Artist: Lore Liege
*Album: Demo - Nov. 2019 [demo]
*Year: 2019
*Genre: Ambient/Black Metal
*Country: United States
*Format: mp3@CBR320kbps
*Size: 44MB

Tracklist:
1. The Cries of a Cold Dreadful Forest
2. Sun Of Souls
3. Small Creatures Roam the Snowy Woods
4. Untitled I
5. Untitled II
******************************
Total playing time: 19:06



[more=Technical info]
Input File: 02 Sun Of Souls.mp3
Channels : 2
Sample Rate : 44100
Precision : 16-bit
Duration : 00:03:46.08 = 9969952 samples = 16955.7 CDDA sectors
File Size : 9.12M
Bit Rate : 323k
Sample Encoding: MPEG audio (layer I, II or III)
Comments :
Title=Sun Of Souls
Artist=Lore Liege
Album=Demo - Nov. 2019
Tracknumber=2
Year=2019

[/more]

Register
(10) eternald, infiltrator, kim666, murian, Ostinato, robertho777, SilentNidhogg, stub888, vasiljev_sergej, wreak,
Mar 13 2020, 20:27:52 Lore Liege - A Break In A Harsh Storm [ep] (2019)


*Artist: Lore Liege
*Album: A Break In A Harsh Storm [ep]
*Year: 2019
*Genre: Dungeon Synth
*Country: United States
*Format: mp3@CBR320kbps
*Size: 69MB

Tracklist:
1. The Stars Of Rarn
2. An Ancient Voice Calls From The Tower
3. The Last Day Of Beltane
4. A Great Warrior, Nithral
5. Drifting Sailors At Sea
6. The Unforgiving Valley
7. Eternity
******************************
Total playing time: 27:55



[more=Technical info]
Input File: 02 An Ancient Voice Calls From The Tower.mp3
Channels : 2
Sample Rate : 44100
Precision : 16-bit
Duration : 00:04:14.58 = 11226846 samples = 19093.3 CDDA sectors
File Size : 10.4M
Bit Rate : 327k
Sample Encoding: MPEG audio (layer I, II or III)
Comments :
Title=An Ancient Voice Calls From The Tower
Artist=Lore Liege
Album=A Break In A Harsh Storm
Tracknumber=2
Year=2019

[/more]

Register
(2) infiltrator, Olethros,
Mar 13 2020, 20:19:23 Necro Cannibal Ass Grinder - Robot With A Human Dick [ep] (2018)


*Artist: Necro Cannibal Ass Grinder
*Album: Robot With A Human Dick [ep]
*Year: 2018
*Genre: Goregrind
*Country: United States
*Format: mp3@CBR320kbps
*Size: 40MB

Tracklist:
1. Phallitron Rising
2. Robot Blowjob Carnage
3. Genetically Modified Prostitute pt.1
4. Genetically Modified Prostitute pt.2 feat Dick Tuckit
5. Aim for the Mechanical Anus
******************************
Total playing time: 16:10




[more=Technical info]
Input File: 02 Robot Blowjob Carnage.mp3
Channels : 2
Sample Rate : 44100
Precision : 16-bit
Duration : 00:04:16.38 = 11306314 samples = 19228.4 CDDA sectors
File Size : 10.4M
Bit Rate : 325k
Sample Encoding: MPEG audio (layer I, II or III)
Comments :
Title=Robot Blowjob Carnage
Artist=Necro Cannibal Ass Grinder
Album=Robot With A Human Dick
Tracknumber=2
Year=2018

[/more]

Register
(2) infiltrator, vyacheslav,
Mar 13 2020, 20:13:31 Cloacal Kiss - Cloacal Kiss [demo] (2005)


*Artist: Cloacal Kiss
*Album: Cloacal Kiss [demo]
*Year: 2005
*Genre: Grindcore/Mathcore
*Country: United States
*Format: mp3@VBR203kbps
*Size: 11MB

Tracklist:
1 Necrobot
2 Verison Serephis
3 Makeshift Cock Recepticle
******************************
Total playing time: 7:20




[more=Technical info]
Input File: 02-cloacal_kiss-venision.mp3
Channels : 2
Sample Rate : 44100
Precision : 16-bit
Duration : 00:02:25.71 = 6425855 samples = 10928.3 CDDA sectors
File Size : 3.72M
Bit Rate : 204k
Sample Encoding: MPEG audio (layer I, II or III)
Comments :
Title=Venison Seraphim
Artist=Cloacal Kiss
Album=Cloacal Kiss
Tracknumber=2
Year=2005
Genre=Other

[/more]

Register
(2) infiltrator, wreak,
Mar 13 2020, 20:07:34 Archazard - Homemade Preacher Of Terror (2015)


*Artist: Archazard
*Album: Homemade Preacher Of Terror
*Year: 2015
*Genre: Aggrotech/Harsh Ebm
*Country: Russian Federation
*Format: mp3@CBR320kbps
*Size: 117MB

Tracklist:
1. Bullet Through
2. Cradle Of Nightmares
3. Doll Face
4. Exhumation Feelings
5. Higher Suffering
6. Homemade Preacher Of Terror
7. Melting Witch
8. Sound Has a Space
******************************
Total playing time: 41:30



[more=Technical info]
Input File: 06 Homemade Preacher Of Terror.mp3
Channels : 2
Sample Rate : 44100
Precision : 16-bit
Duration : 00:05:28.59 = 14490643 samples = 24644 CDDA sectors
File Size : 13.3M
Bit Rate : 323k
Sample Encoding: MPEG audio (layer I, II or III)
Comments :
Title=Homemade Preacher Of Terror
Artist=Archazard
Album=Homemade Preacher Of Terror
Tracknumber=6
Year=2015
Genre=Aggrotech/Harsh EBM

[/more]

Register
(4) FUDEDOR, gwar, infiltrator, Olethros,
Feb 25 2020, 00:16:52 Viscera Drip - Satanic Panic (2018)


*Artist: Viscera Drip
*Album: Satanic Panic
*Year: 2018
*Genre: Aggrotech/Harsh Ebm
*Country: United States
*Format: mp3@VBR267kbps
*Size: 160MB

Tracklist:
Satanic Panic (CD 1)
1 Bleak
2 Satanic Panic (Feat. Benjamin'sPlauge)
3 The Human Race Is Wrong
4 Rotten (Feat. 13th Angel)
5 Tulpa
6 Prison Ov Flesh (Feat. SIN DNA)
7 Martyers
8 Antichrist
9 Aphotic (Feat. Avarice In Audio)
10 Bluttrinker
11 Bleak (Circuito Cerrado Vs C-Lekktor Remix)
12 Bleak (Tar-Tar Remix)
13 Bleak (Alien Nation Remix)
14 Bleak (Jermageddon Remix)

Enlight Me Not (CD 2)
1 Euphony Ov Diablerie
2 Phobos
3 You're My Dead Angel (feat. Genius Of Nefarious)
4 Enlight Me Not
******************************
Total playing time: 1:25:30



[more=Technical info]
Input File: 109_viscera_drip-aphotic_(feat._avarice_in_audio).mp3
Channels : 2
Sample Rate : 44100
Precision : 16-bit
Duration : 00:05:46.04 = 15260540 samples = 25953.3 CDDA sectors
File Size : 11.6M
Bit Rate : 267k
Sample Encoding: MPEG audio (layer I, II or III)
Comments :
Title=Aphotic (Feat. Avarice In Audio)
Artist=Viscera Drip
Album=Satanic Panic
Tracknumber=9
Year=2018
Genre=Electronic
Discnumber=1/2

[/more]

Register
(6) Buregon, gwar, Hell_Is_Here, infiltrator, Ostinato, spiritualdecay666,
Oct 17 2019, 22:12:58 Corneus - My Black Visions Of Doom [demo] (2001)


*Artist: Corneus
*Album: My Black Visions Of Doom [demo]
*Year: 2001
*Genre: Black Metal
*Country: Germany
*Format: mp3@VBR199kbps
*Size: 73MB

Tracklist:
1. Intro
2. Soul Masturbation
3. Rape My Mind
4. Die Grotte alles Schlechten
5. My Black Visions of Doom
6. Deep in Hell...
7. Ausblutung
8. Stench of Gore
9. I'm the Descendant
10. Obstrusive Sexual Terror
11. Behold the Goat
12. My Hypocrisy Is Your Death
13. Suburb of the Hell
14. Chopperkill
15. Gottes entgültiger Hirnschlag
16. My Hypocrisy Is Your Death (Version 2000)
******************************
Total playing time: 36:15

[more=Technical info]
Input File: 11 - Behold the Goat.mp3
Channels : 2
Sample Rate : 44100
Precision : 16-bit
Duration : 00:02:07.66 = 5629806 samples = 9574.5 CDDA sectors
File Size : 4.16M
Bit Rate : 261k
Sample Encoding: MPEG audio (layer I, II or III)
Comments :
Title=Behold The Goat
Artist=Corneus
Album=My Black Visions Of Doom
Tracknumber=11
Year=2001
Genre=Black Metal

[/more]

Register
(18) 1968_janeart, artscald, ChaosArcana, craP_cillA, FUDEDOR, Ildjarn, infiltrator, lestllk, Olethros, Rosen, satanist666, SilentNidhogg, stub888, thenecromancer, unit731, varlam4, vasiljev_sergej, Wail,
Oct 17 2019, 22:05:41 Grausamkeit & Goat Sperm & Heroin Makes Happy & Leichenberg & Corneus & Auxxxcult - Evil & Hate Propaganda [split] (2000)


*Artist: Grausamkeit & Goat Sperm & Heroin Makes Happy & Leichenberg & Corneus & Auxxxcult
*Album: Evil & Hate Propaganda [split]
*Year: 2000
*Genre: Ambient/Black Metal | Black Metal | Ambient/Black Metal | Black Metal | Black Metal | Black Metal
*Country: Germany | Germany | Germany | Germany | Germany | Germany
*Format: mp3@VBR208kbps
*Size: 35MB

Tracklist:
Grausamkeit:
1. Transylvania
Goat Sperm:
2. Scum
Heroin Makes Happy:
3. This Strong Stuff
Leichenberg:
4. Berührung mit der Pest
Corneus:
5. Don't Forget the Cult
Auxxxcult:
6. Untitled
******************************
Total playing time: 18:24

[more=Technical info]
Input File: 05 - Corneus - Don\'t Forget the Cult.mp3
Channels : 2
Sample Rate : 48000
Precision : 16-bit
Duration : 00:03:57.62 = 11405952 samples ~ 17821.8 CDDA sectors
File Size : 7.79M
Bit Rate : 262k
Sample Encoding: MPEG audio (layer I, II or III)
Comments :
Title=Don't Forget The Cult
Artist=Corneus
Album=Evil & Hate Propaganda
Tracknumber=5
Year=2000
Genre=Black Metal

[/more]

Register
(24) 1968_janeart, artscald, ChaosArcana, craP_cillA, dvlz, Frozenkult, Fryz, FUDEDOR, helvetesrike, Ildjarn, infiltrator, kim666, Lanceatum, lestllk, Moonshtook, morbidangelo, Raw1488, Rosen, satanist666, stub888, Styx, thenecromancer, varlam4, vasiljev_sergej,
Oct 17 2019, 21:54:37 Grausamkeit & Grabschänder - Grausamkeit / Grabschänder [split] (2016)


*Artist: Grausamkeit & Grabschänder
*Album: Grausamkeit / Grabschänder [split]
*Year: 2016
*Genre: Ambient/Black Metal | Black Metal
*Country: Germany | Germany
*Format: mp3@VBR202kbps
*Size: 28MB

Tracklist:
Grausamkeit:
1. Transylvania
2. Abyss of Filth (different version)
Grabschänder:
3. Das Todeswerk des Ejakulats
4. With Pest I Rise, With Death I Go
******************************
Total playing time: 17:25

[more=Technical info]
Input File: 02 - Grausamkeit - Abyss Of Filth (Rehearsal).mp3
Channels : 2
Sample Rate : 44100
Precision : 16-bit
Duration : 00:03:32.14 = 9355374 samples = 15910.5 CDDA sectors
File Size : 5.37M
Bit Rate : 203k
Sample Encoding: MPEG audio (layer I, II or III)
Comments :
Title=Abyss Of Filth (Rehearsal)
Artist=Grausamkeit
Album=Grausamkeit & Grabschänder - Split CS
Tracknumber=2
Year=2016
Genre=Black Metal

[/more]

Register
(26) 1968_janeart, acerbus, artscald, ChaosArcana, dermarsoran, dvlz, FUDEDOR, Hell_Is_Here, helvetesrike, Ildjarn, infiltrator, kim666, Korpse, Lanceatum, lestllk, Moonshtook, Neel, Reverend, Rosen, SilentNidhogg, stub888, thenecromancer, the_cleanser, VALERY, varlam4, vasiljev_sergej,

7 Pages V   1 2 3 > » 
- Lo-Fi Version Support form
Copyrights and abuse reports form
Time is now: 12th July 2020 - 23:30:58