Welcome Guest ( Log In | Register )

История благодарностей участнику Krosis ::: Спасибо сказали: 547 раз(а)
Дата поста: В теме: За сообщение: Спасибо сказали:
Dec 3 2019, 14:14:22 Lugubrum & Urfaust - Bradobroeders [split] (2019)
Register
(7) Daale, Fryz, Kazoth, metaljosue, Moonshtook, soulskinner681, Tyrone,
Dec 3 2019, 10:14:27 Vermiculum - Penumbra (2019)
Записано плохо, музыка никакая.
(1) vovenom,
Dec 3 2019, 09:19:39 Lugubrum & Urfaust - Bradobroeders [split] (2019) (1) atom72,
Dec 3 2019, 09:08:41 Lugubrum & Urfaust - Bradobroeders [split] (2019)
ЦИТАТА(atom72 @ 3rd December 2019 - 13:07:05) *
Очень схожие по философии звучания группы, их сплит закономерен.

Тем более, что это уже второй их сплит.
(1) atom72,
Dec 3 2019, 08:01:17 Lugubrum & Urfaust - Bradobroeders [split] (2019)
Не врубаюсь я в подобные эксперименталы, Circle of Ouroborus туда же. Не моё.
(1) RUSP73,
Dec 3 2019, 07:59:25 Noctem Aeternus - Landscape Of Discord (2019)
Мелодик блэк с уклоном в симфоник.
(1) Andrew,
Nov 26 2019, 19:13:35 Loxodrom - Sol Uten Varme (2019)
они точно не из России? 1488.gif
(4) Eisbar, Foneg, Penetralia, Yarri,
Nov 26 2019, 14:30:24 Чайф - Слова На Бумаге (2019)
ЦИТАТА(raattent @ 26th November 2019 - 18:22:20) *
как говорили металхеды в 80х- 90х про всю эту русский рок тусовку - обрыганы.



а металхеды типо не обрыганы 1488.gif
(9) 6666666, Deze, Exorcist, Ghostb, lafuma, Mplast, Old Vyaine, Tular, vosmidesijatye,
Nov 26 2019, 11:37:11 Спасибо - Спасибо [ep] (2019)
по мне так инди это вообще не жанр, а его отстутствие.
(1) Ghostb,
Nov 26 2019, 09:26:42 Варг Викернес закрывает BURZUM
ЦИТАТА(Aresson @ 26th November 2019 - 12:39:51) *
кстати, в разговорах с Партурнаксом, он постоянно это слово втыкает - "кросис", это оттуда ник у тебя?

йес.) это значит "Печаль" на драконьем
(1) Aresson,
Nov 26 2019, 07:59:28 Les Legions Noires
ЦИТАТА(Hostis @ 24th November 2019 - 03:05:25) *
А вот Хаски по смысловой нагрузке убирает напрочь 99% подобного музла.

"лучший поэт современности" жи, ну да, ну да 1488.gif
(1) Deze,
Nov 26 2019, 07:36:16 Прах - Тени Зимы (2019)


*Artist: Прах
*Album: Тени Зимы
*Year: 2019
*Genre: Atmospheric Black Metal
*Country: Russian Federation
*Format: mp3@CBR320kbps
*Size: 115MB

Tracklist:
1. Первый Снег
2. Озеро Ночь И Луна
3. Болот Осенних Зеркала
4. Несущие Холод
5. Самайн-Блюз
6. Голые Ветви Деревьев
7. Тени Зимы
8. Снег Кружится Над Полем
9. Черный Ворон
10. Вечность
11. Вьюга
******************************
Total playing time: 49:21



[more=Technical info]
Input File: 01 Первый снег.mp3
Channels : 2
Sample Rate : 44100
Precision : 16-bit
Duration : 00:03:21.68 = 8894044 samples = 15125.9 CDDA sectors
File Size : 8.14M
Bit Rate : 323k
Sample Encoding: MPEG audio (layer I, II or III)
Comments :
Title=Первый снег
Artist=Прах
Album=Тени зимы
Tracknumber=1
Year=2019

[/more]

Register
(15) 1968_janeart, alikkon, Aresson, kim666, metaljosue, morbidangelo, robertho777, Rosen, Shadechaser, SilentNidhogg, VALERY, vasiljev_sergej, wanderer73, YarG, Сварог Барг,
Nov 26 2019, 07:33:15 Прах - Из Пустоты (2019)


*Artist: Прах
*Album: Из Пустоты
*Year: 2019
*Genre: Atmospheric Black Metal
*Country: Russian Federation
*Format: mp3@CBR320kbps
*Size: 88MB

Tracklist:
1. Тропой Безумия
2. Грань Пустоты
3. Палач
4. Сквозь Пыль
5. Серый Покой
6. За Левым Плечом
7. Ностальгия (Nocturnal Depression cover)
8. Daudi Baldrs (Burzum cover)
******************************
Total playing time: 38:12



[more=Technical info]
Input File: 01 Тропой безумия.mp3
Channels : 2
Sample Rate : 44100
Precision : 16-bit
Duration : 00:03:54.39 = 10336423 samples = 17579 CDDA sectors
File Size : 9.41M
Bit Rate : 321k
Sample Encoding: MPEG audio (layer I, II or III)
Comments :
Title=Тропой безумия
Artist=Прах
Album=Из пустоты
Tracknumber=1
Year=2019

[/more]

Register
(11) 1968_janeart, Aresson, kim666, morbidangelo, Olethros, Rosen, Shadechaser, SilentNidhogg, VALERY, vasiljev_sergej, wanderer73,
Nov 14 2019, 07:55:53 ДДТ - Галя Ходи (2018)
ЦИТАТА(Sigue @ 14th November 2019 - 11:08:33) *
Кинчев тоже нос по ветру держит, Раммштайном вдохновляется.

ты про плагиатный "Изгой"? ну дак это 14 лет назад было 1488.gif


сабж я, кстати, так и не послушал
(1) vosmidesijatye,
Nov 11 2019, 10:50:20 Vestibulum Vacuüi - Boetekleed [demo] (2017)
Я конечно люблю raw, но когда нойзовый порог превышает 50% это уже перебор. Кроме него по итогу слышны практически одни барабаны.
(1) Evilded,
Nov 11 2019, 09:17:02 Лучшие Black Metal релизы 2019
так, навскидку

Asagraum
Bethlehem
Černý Kov
Darkthrone
DNS
Gaahls Wyrd
Gestapo 666
Knoest
Mayhem
Mgla
Misthyrming
Sulphuric Night
Sun Worship
The Penitent
(1) judaz,
Nov 11 2019, 06:35:43 Sulphuric Night - Forever Cursed (2019)
true_black.gif годнота. и снова из боснии. так держать
(1) Абигор,
Nov 2 2019, 13:26:18 Vrač - U Vječnoj Magli Života [demo] (2019)
А мне наоборот боснийцы последнее время доставляют, и сия демка не исключение.
(1) HviteGuden,
Nov 1 2019, 16:16:06 Perterricrepus - The Dark Age Of The Carpathia (2008)
No, thank to you)).

p.s. corrent album name is "The Dark Age Of The Carpathia")
(1) Borderline1991,
Nov 1 2019, 08:01:20 Sarke - Gastwerso (2019)
Проходняк.
(2) Brann, garmonbozia,
Oct 28 2019, 07:59:12 Батюшка - Свеча Господня (2019)


*Artist: Батюшка
*Album: Свеча Господня
*Year: 2019
*Genre: Unblack Metal
*Country: Russian Federation
*Format: mp3@VBR276kbps
*Size: 92MB

Tracklist:
1. Господи Иисусе
2. Псалмы
3. Царь Небесный
4. Святая Гора
5. Смилуйся Над Нами
6. Господь Услышит
7. Закон Божий
8. Сокровенная Комната
9. Преподобный
10. Завет
******************************
Total playing time: 45:42



[more=Technical info]
Input File: 01. Господи Иисусе.mp3
Channels : 2
Sample Rate : 44100
Precision : 16-bit
Duration : 00:05:05.92 = 13491072 samples = 22944 CDDA sectors
File Size : 10.6M
Bit Rate : 277k
Sample Encoding: MPEG audio (layer I, II or III)
Comments :
Title=Господи Иисусе
Artist=Батюшка
Album=Свеча Господня
Tracknumber=1
Year=2019

[/more]

Register
(3) infiltrator, oldvarg, zoog,
Oct 28 2019, 07:52:10 Батюшка - Молитвы (2019)


*Artist: Батюшка
*Album: Молитвы
*Year: 2019
*Genre: Unblack Metal
*Country: Russian Federation
*Format: mp3@VBR276kbps
*Size: 71MB

Tracklist:
1. Молитва 1
2. Молитва 2
3. Молитва 3
4. Молитва 4
5. Молитва 5
6. Молитва 6
7. Молитва 7
8. Молитва 8
******************************
Total playing time: 35:16



[more=Technical info]
Input File: 01. Молитва 1.mp3
Channels : 2
Sample Rate : 44100
Precision : 16-bit
Duration : 00:04:08.35 = 10952059 samples = 18626 CDDA sectors
File Size : 8.50M
Bit Rate : 274k
Sample Encoding: MPEG audio (layer I, II or III)
Comments :
Title=Молитва 1
Artist=Батюшка
Album=Молитвы
Tracknumber=1
Year=2019

[/more]

Register
(3) infiltrator, kolar666, zoog,
Oct 28 2019, 07:45:43 Батюшка - Господи Иисусе (2019)


*Artist: Батюшка
*Album: Господи Иисусе
*Year: 2019
*Genre: Unblack Metal
*Country: Russian Federation
*Format: mp3@VBR293kbps
*Size: 89MB

Tracklist:
1. Колокольный Звон
2. Матерь Божия
3. Крест Святой
4. Монах
5. Благодать
6. И Воссияет Крест В Небесах!
7. Открой Мне, Боже, Дверь Спасения!
8. Спаси Нас, Боже, Грешных!
******************************
Total playing time: 41:37



[more=Technical info]
Input File: 02. Матерь Божия.mp3
Channels : 2
Sample Rate : 44100
Precision : 16-bit
Duration : 00:04:44.63 = 12552183 samples = 21347.2 CDDA sectors
File Size : 9.84M
Bit Rate : 276k
Sample Encoding: MPEG audio (layer I, II or III)
Comments :
Title=Матерь Божия
Artist=Батюшка
Album=Господи Иисусе
Tracknumber=2
Year=2019

[/more]

Register
(3) infiltrator, oldvarg, zoog,
Oct 28 2019, 07:27:50 Батюшка - Лики Святых (2019)


*Artist: Батюшка
*Album: Лики Святых
*Year: 2019
*Genre: Unblack Metal
*Country: Russian Federation
*Format: mp3@VBR280kbps
*Size: 79MB

Tracklist:
1. Лики Святых
2. Мученик
3. Святость
4. Монастырь
5. Мироточение
6. Евангелие
7. Дар
8. Дух Святый
******************************
Total playing time: 39:20



[more=Technical info]
Input File: 01. Лики Святых.mp3
Channels : 2
Sample Rate : 44100
Precision : 16-bit
Duration : 00:05:24.57 = 14313581 samples = 24342.8 CDDA sectors
File Size : 11.6M
Bit Rate : 287k
Sample Encoding: MPEG audio (layer I, II or III)
Comments :
Title=Лики Святых
Artist=Батюшка
Album=Лики Святых
Tracknumber=1
Year=2019

[/more]

Register
(3) infiltrator, oldvarg, zoog,
Oct 28 2019, 07:17:35 Батюшка - Песнопения (2019)


*Artist: Батюшка
*Album: Песнопения
*Year: 2019
*Genre: Unblack Metal
*Country: Russian Federation
*Format: mp3@CBR320kbps
*Size: 80MB

Tracklist:
1. Благовест
2. Глас
3. Икона
4. Отче Наш
5. Утреня
6. Блаженны
7. Повечерие
8. Крест
******************************
Total playing time: 34:21



[more=Technical info]
Input File: 01. Благовест.mp3
Channels : 2
Sample Rate : 44100
Precision : 16-bit
Duration : 00:03:31.03 = 9306511 samples = 15827.4 CDDA sectors
File Size : 8.62M
Bit Rate : 327k
Sample Encoding: MPEG audio (layer I, II or III)
Comments :
Title=Благовест
Artist=Батюшка
Album=Песнопения
Tracknumber=1
Year=2019

[/more]

Register
(4) Alpha_Prime, oldvarg, Olethros, postal67,

9 Pages V   1 2 3 > » 
- Lo-Fi Version Support form
Copyrights and abuse reports form
Time is now: 14th December 2019 - 06:29:58