Welcome Guest ( Log In | Register )

История благодарностей участнику Krosis ::: Спасибо сказали: 615 раз(а)
Дата поста: В теме: За сообщение: Спасибо сказали:
Aug 5 2020, 10:46:39 Tombstone - The Awakening Of Darkness (2020)
Качал неохотно, а на поверку оказалось довольно неплохо.
(1) дивин,
Jun 25 2020, 07:09:49 Serment - Chante, Ô Flamme De La Liberté (2020)
типичный metal noir quebecois. норм.
(1) nsk2008,
Jun 22 2020, 11:09:20 Vspolokh - Помре (2020)
по первым трекам довольно недурно, этакая смесь мглы, равентэйла и друдкха. слушаем дальше.


upd: нну, под конец приелось слегка. хотя мб я не в настроении.
(3) garmonbozia, Infidel, infiltrator,
May 25 2020, 09:11:41 Ruadh - The Rock Of The Clyde (2020)
чёто вообще мимо. вот именно, что миленько, слащаво и чуть ли не благорадостно. не по мое такие поделки. если даже без упора на мрачняк, то штуки в стиле Agalloch - крутые и атмосферные, а тут снова пиликающая гитарка в соло, надоедающая по ушам, невнятный вокал, а чистое пение вообще мимо кассы.... no, thanx.
(1) MeatWolf,
May 24 2020, 14:41:11 Selfdestroyer - Кладбище Сломанных Судеб (2020)
Пламя желаний в сознанье пылает,
Возможностей площадь слишком мала,
В разум внедрились процентные ставки,
Объятия банков манят глупца.

Жажда комфортной среды обитанья
Повесит на шею тягостный долг:
Должен платить дань до жизни заката,
Иль неизбежно лишишься всего.

Жизнь взаймы в кандалах!
Не спастись! Ты лишь раб!
Твой мирок уж давно
Угнетён нищетой!


headcrab.png
(1) vosmidesijatye,
May 5 2020, 11:09:54 Hexenfluch - Aradia (2020)
атлична атлична true_black.gif
(3) Evilded, NOMIDIMON, Occultas,
May 5 2020, 06:32:51 Vir - Occulta Alpinae (2020)
порожняк. осилил полтора трека.
(2) Brann, satanist666,
May 4 2020, 06:17:28 Theodor Bastard - Волчья Ягода (2020)
не понравилось. слишком добросветлое музло.
(1) garmonbozia,
Apr 8 2020, 22:06:44 Kulkodar - Apostate Literature (2020)
который раз читаю как "куколдар".)
(3) Dantalian, ingram, nsk2008,
Apr 7 2020, 16:40:44 Lebenssucht - -273​,​15°C (2020)
я человек простой, вижу deha - качаю.
(2) infiltrator, ingram,
Mar 29 2020, 15:32:06 Äkth Gánahëth - From The Cursed Glades [demo] (2020)
неплохо, побольше бы.
(2) craP_cillA, infiltrator,
Mar 18 2020, 17:05:43 Firmament - Firmament [ep] (2020)
ухх, прям очень душевно. хороший дебют.
(1) garmonbozia,
Mar 4 2020, 15:30:12 Люди Осени - Волны Времени (2020)
Да ладно? 17.gif
(2) infiltrator, Maestrovs,
Feb 26 2020, 06:26:29 Marblebog - Kietlen (2019)
Кошмар какой-то, надо ж было такой отстой записать. Хорошая же группа была.
(1) garmonbozia,
Feb 10 2020, 07:09:26 Мрамор - Мортофилия (2020)
вторичное пластмассовое говно с хреновыми аранжировками и отвратительнейшим вокалом.

а вконтактике повально хорошие комменты. реально, это нынче считается музыкой?

домашняя работа великовозрастной школоты, бездушная, напрочь лишённая атмосферы и какой-либо музыкальной ценности, с бестолковым якобы-концептом, и бессмысленными текстами.

вот что бывает, когда безмозглое цивильё пытается играть "злую сотонинскую музыку".

альбом стоило озаглавить "копрофилия". это не музыка, это помои. а уж называть это блэком = оскорбление чувств Верующих 666.
(6) Cosmic_Sorcerer, Foneg, infiltrator, Malzus, Maximvs, Radwind,
Dec 14 2019, 14:50:36 Stillness - Glory Of The Nord (2019)
ЦИТАТА(Olrak @ 14th December 2019 - 18:31:48) *
Обновите ссылку, плз!

На бандкампе альбом можно скачать бесплатно.
(1) Olrak,
Dec 3 2019, 14:14:22 Lugubrum & Urfaust - Bradobroeders [split] (2019)
Register
(9) Daale, Fryz, Kazoth, LVXXVL, metaljosue, Moonshtook, soulskinner681, thornfields, Tyrone,
Dec 3 2019, 10:14:27 Vermiculum - Penumbra (2019)
Записано плохо, музыка никакая.
(1) vovenom,
Dec 3 2019, 09:19:39 Lugubrum & Urfaust - Bradobroeders [split] (2019) (2) atom72, LVXXVL,
Dec 3 2019, 09:08:41 Lugubrum & Urfaust - Bradobroeders [split] (2019)
ЦИТАТА(atom72 @ 3rd December 2019 - 13:07:05) *
Очень схожие по философии звучания группы, их сплит закономерен.

Тем более, что это уже второй их сплит.
(1) atom72,
Dec 3 2019, 08:01:17 Lugubrum & Urfaust - Bradobroeders [split] (2019)
Не врубаюсь я в подобные эксперименталы, Circle of Ouroborus туда же. Не моё.
(1) RUSP73,
Dec 3 2019, 07:59:25 Noctem Aeternus - Landscape Of Discord (2019)
Мелодик блэк с уклоном в симфоник.
(1) Andrew,
Nov 26 2019, 19:13:35 Loxodrom - Sol Uten Varme (2019)
они точно не из России? 1488.gif
(6) Eisbar, Foneg, Penetralia, plfan93, Shadowman, Yarri,
Nov 26 2019, 14:30:24 Чайф - Слова На Бумаге (2019)
ЦИТАТА(raattent @ 26th November 2019 - 18:22:20) *
как говорили металхеды в 80х- 90х про всю эту русский рок тусовку - обрыганы.



а металхеды типо не обрыганы 1488.gif
(11) 6666666, Deze, Exorcist, Ghostb, infiltrator, lafuma, Mplast, Old Vyaine, paganheart, Tular, vosmidesijatye,
Nov 26 2019, 07:36:16 Прах - Тени Зимы (2019)


*Artist: Прах
*Album: Тени Зимы
*Year: 2019
*Genre: Atmospheric Black Metal
*Country: Russian Federation
*Format: mp3@CBR320kbps
*Size: 115MB

Tracklist:
1. Первый Снег
2. Озеро Ночь И Луна
3. Болот Осенних Зеркала
4. Несущие Холод
5. Самайн-Блюз
6. Голые Ветви Деревьев
7. Тени Зимы
8. Снег Кружится Над Полем
9. Черный Ворон
10. Вечность
11. Вьюга
******************************
Total playing time: 49:21



[more=Technical info]
Input File: 01 Первый снег.mp3
Channels : 2
Sample Rate : 44100
Precision : 16-bit
Duration : 00:03:21.68 = 8894044 samples = 15125.9 CDDA sectors
File Size : 8.14M
Bit Rate : 323k
Sample Encoding: MPEG audio (layer I, II or III)
Comments :
Title=Первый снег
Artist=Прах
Album=Тени зимы
Tracknumber=1
Year=2019

[/more]

Register
(19) 1968_janeart, alikkon, Aresson, kim666, metaljosue, morbidangelo, oldvarg, robertho777, Rosen, senecazm, Shadechaser, SilentNidhogg, VALERY, varlam4, vasiljev_sergej, wanderer73, wreak, YarG, Сварог Барг,

10 Pages V   1 2 3 > » 
- Lo-Fi Version Support form
Copyrights and abuse reports form
Time is now: 10th August 2020 - 23:26:37