Welcome Guest ( Log In | Register )

История благодарностей участнику Kazoth ::: Спасибо сказали: 8295 раз(а)
Дата поста: В теме: За сообщение: Спасибо сказали:
Jan 24 2021, 17:57:21 Exsedum Morcerin - Dwelling In The Unconsciousness (2017)


*Artist: Exsedum Morcerin
*Album: Dwelling In The Unconsciousness
*Year: 2017
*Genre: Black Metal
*Country: United States
*Format: mp3@CBR320kbps
*Size: 71MB

Tracklist:
1. A Nords Psychotic Journey 05:45
2. False Stories of Elite Status 06:35
3. Bestowed Mystical Uprising 04:37
4. Dwelling in the Unconsciousness 08:34
5. Just Punishment from a Goddess 04:15
******************************
Total playing time: 29:46



[more=Technical info]
Input File: Exsedum Morcerin - Dwelling In The Unconsciousness - 02 False Stories Of Elite Status.mp3
Channels : 2
Sample Rate : 44100
Precision : 16-bit
Duration : 00:06:36.04 = 17465276 samples = 29702.9 CDDA sectors
File Size : 15.9M
Bit Rate : 321k
Sample Encoding: MPEG audio (layer I, II or III)
Comments :
Title=False Stories Of Elite Status
Artist=Exsedum Morcerin
Album=Dwelling In The Unconsciousness
Tracknumber=2
Year=2017

[/more]

Register
(12) AlexSmith, atavist, bOOLty, infiltrator, kim666, Marek, Olethros, Rosen, Taakeferd, varlam4, vasiljev_sergej, wreak,
Jan 24 2021, 17:53:10 Excrementum Luciferi - Nos Inducas Tuum Fetidness [demo] (2013)


*Artist: Excrementum Luciferi
*Album: Nos Inducas Tuum Fetidness [demo]
*Year: 2013
*Genre: Black Metal
*Country: United States
*Format: mp3@CBR320kbps
*Size: 54MB

Tracklist:
1. Defecration (Intro) 01:58
2. The Great God Pain 03:30
3. Procession to the Primordial Mound (The Final Cult) 06:16
4. Nos Inducas Tuum Fetidness 05:29
5. Protoplasmic Genesis 04:22
******************************
Total playing time: 21:35



[more=Technical info]
Input File: Excrementum Luciferi - Nos Inducas Tuum Fetidness - 02 The Great God Pain.mp3
Channels : 2
Sample Rate : 44100
Precision : 16-bit
Duration : 00:03:30.09 = 9264881 samples = 15756.6 CDDA sectors
File Size : 8.52M
Bit Rate : 324k
Sample Encoding: MPEG audio (layer I, II or III)
Comments :
Title=The Great God Pain
Artist=Excrementum Luciferi
Album=Nos Inducas Tuum Fetidness
Tracknumber=2
Year=2013

[/more]

Register
(10) infiltrator, kim666, Olethros, Rosen, smysl, Taakeferd, VALERY, varlam4, vasiljev_sergej, wreak,
Jan 23 2021, 22:14:37 Новости Black-направления
ЦИТАТА(GTrooper @ Jan 23 2021, 23:48:25) *
Ты о чем? Я переиздания последние не слушал, если че.

Оно не последнее, а аж конца 90-х

ЦИТАТА(GTrooper @ Jan 23 2021, 23:48:25) *
Это ремастеринг для винилового переиздания в том числе.

Если это аналоговый ремастеринг будет (в чем я сильно сомневаюсь) то может быть в этом и будет что-то полезное....
(1) WOLAND,
Jan 23 2021, 21:30:41 Новости Black-направления
ЦИТАТА(assonik @ Jan 23 2021, 23:29:12) *
SATYRICON сообщили о том, что провели ремастеринг первых двух альбомов, Dark Medieval Times и The Shadowthrone

Кому это нужно?
(5) ent404, infiltrator, mondlicht, Paatddal, rimfrost,
Jan 23 2021, 19:32:56 Element Of Eclipse - Heretikvlt Manifesto (2015)


*Artist: Element Of Eclipse
*Album: Heretikvlt Manifesto
*Year: 2015
*Genre: Black Metal
*Country: United States
*Format: mp3@CBR320kbps
*Size: 114MB

Tracklist:
1. Fornication ov Paradise (The Lady and the Flame) 01:40
2. The Devil's Vendetta (Defiling the Echelon ov God) 05:42
3. Unholy Terror (Aberrational Evangelism) 05:43
4. HeretiKvlt Manifesto (Light Bearer Alliance) 03:21
5. Angel ov Repugnance (Complete Transmutation ov the Worm) 05:01
6. Solve et Coagula (The Measureless Becometh) 02:26
7. Prometheus Unbound (Lethal Illumination) 04:50
8. Deadly Equinox (Exorcism ov Hemispherical Division) 04:50
9. Plague Star Apocalypse (Fresh Fever from the Skies) 05:33
10. The Azoth Formula (Alchemical Warfare) 05:55
11. The Dreaming Abyss (Ordo Obscurum) 03:26
******************************
Total playing time: 48:27



[more=Technical info]
Input File: Element Of Eclipse - HeretiKvlt Manifesto - 04 HeretiKvlt Manifesto (Light Bearer Alliance).mp3
Channels : 2
Sample Rate : 44100
Precision : 16-bit
Duration : 00:03:17.63 = 8715351 samples = 14822 CDDA sectors
File Size : 7.98M
Bit Rate : 323k
Sample Encoding: MPEG audio (layer I, II or III)
Comments :
Title=HeretiKvlt Manifesto (Light Bearer Alliance)
Artist=Element Of Eclipse
Album=HeretiKvlt Manifesto
Tracknumber=4
Year=2015

[/more]

Register
(14) AlexSmith, atavist, infiltrator, kim666, kimkayoung, Olethros, rickzammuto, Rosen, Taakeferd, VALERY, varlam4, vasiljev_sergej, WOLAND, wreak,
Jan 23 2021, 19:29:09 Element Of Eclipse - Divine Masque Revelation (2014)


*Artist: Element Of Eclipse
*Album: Divine Masque Revelation
*Year: 2014
*Genre: Black Metal
*Country: United States
*Format: mp3@CBR320kbps
*Size: 131MB

Tracklist:
1. Sanctum Regnum (Intro) 01:44
2. Embers to Rekindle (Rebel Awakening) 05:21
3. Will ov a Magus (Blasphemors Execrations) 05:30
4. Vanquish the Firmament (Conjuring ov the Secret Gate) 05:07
5. The Cyclic Apocalypse Is the Creation 02:45
6. Ceremony ov Isis (Mistress ov Constellations) 05:29
7. Abstract Transcendence (Me from Myself to Banish) 06:03
8. Wrath ov the Fireborn (Hear Thou, the Voice ov Fire) 05:11
9. The Splendid Lights and Bloodstained Celestel Spheres 02:43
10. Occultum Astrum Luminous (Path ov the Adeptus) 05:15
11. Pneumatic Philosophus (Spirit ov the Self-initiated) 05:56
12. Ancient Winds Escape the Cosmic Machine 03:35
******************************
Total playing time: 54:39



[more=Technical info]
Input File: Element Of Eclipse - Divine Masque Revelation - 02 Embers to Rekindle (Rebel Awakening).mp3
Channels : 2
Sample Rate : 44100
Precision : 16-bit
Duration : 00:05:16.88 = 13974496 samples = 23766.1 CDDA sectors
File Size : 12.8M
Bit Rate : 324k
Sample Encoding: MPEG audio (layer I, II or III)
Comments :
Title=Embers to Rekindle (Rebel Awakening)
Artist=Element Of Eclipse
Album=Divine Masque Revelation
Tracknumber=2
Year=2014

[/more]

Register
(3) AlexSmith, kimkayoung, varlam4,
Jan 23 2021, 18:13:57 Matriarkathum - Curse You All Men! [demo] (2020)
Так и до Tolerastic Black Metal недалеко)
(1) nsk2008,
Jan 16 2021, 22:01:20 Dísablót - Ii [demo] (2015)


*Artist: Dísablót
*Album: Ii [demo]
*Year: 2015
*Genre: Black Metal
*Country: United States
*Format: mp3@CBR320kbps
*Size: 37MB

Tracklist:
1. The Charnel House 05:17
2. Suicide in Hate 04:28
3. Devoid of Color and Light 06:05
******************************
Total playing time: 15:50



[more=Technical info]
Input File: Dísablót - Demo II - 01 The Charnel House.mp3
Channels : 2
Sample Rate : 44100
Precision : 16-bit
Duration : 00:05:16.60 = 13961840 samples = 23744.6 CDDA sectors
File Size : 12.7M
Bit Rate : 321k
Sample Encoding: MPEG audio (layer I, II or III)
Comments :
Title=The Charnel House
Artist=Dísablót
Album=Demo II
Tracknumber=1
Year=2020

[/more]

Register
(13) infiltrator, kim666, Olethros, Pathologistov, randumbum, Rosen, SilentNidhogg, stub888, Taakeferd, VALERY, varlam4, vasiljev_sergej, wreak,
Jan 16 2021, 21:41:08 Druid - The Ways Of Thule [ep] (2020)


*Artist: Druid
*Album: The Ways Of Thule [ep]
*Year: 2020
*Genre: Black Metal
*Country: United States
*Format: mp3@CBR320kbps
*Size: 47MB

Tracklist:
1. Look to the Iron Gates 08:08
2. Kali Yuga 07:43
3. Gothi 04:00
******************************
Total playing time: 19:51



[more=Technical info]
Input File: Druid - The Ways Of Thule - 01 Look To The Iron Gates.mp3
Channels : 2
Sample Rate : 44100
Precision : 16-bit
Duration : 00:08:08.91 = 21560843 samples = 36668.1 CDDA sectors
File Size : 19.6M
Bit Rate : 321k
Sample Encoding: MPEG audio (layer I, II or III)
Comments :
Title=Look To The Iron Gates
Artist=Druid
Album=The Ways Of Thule
Tracknumber=1
Year=2020

[/more]

Register
(19) aleon, caro, kim666, Morgoth666, nemx, Olethros, randumbum, Raw1488, robertho777, Rosen, SaintVitus, SilentNidhogg, SSBandera, stub888, Taakeferd, VALERY, varlam4, vasiljev_sergej, wreak,
Jan 16 2021, 21:24:21 Dracolich - Dracolich (2020)


*Artist: Dracolich
*Album: Dracolich
*Year: 2020
*Genre: Black Metal
*Country: United States
*Format: mp3@CBR320kbps
*Size: 75MB

Tracklist:
1. The Sun Breaks Through 01:01
2. Leaving It All Behind 02:55
3. Where I Lost it All 01:35
4. Mountain Forest 02:45
5. What Lurks in the Night 04:08
6. Bring Out Your Dead 01:35
7. Necrocunt 02:07
8. Imprisoned by Sorrow 02:20
9. Depths Uncharted 02:25
10. Into the Deep Dark Caverns 01:45
11. Frigid Wastes of the Northlands 03:13
12. Destined to Reign 02:37
13. Fabled Riches Lost Within Perilous Seas 02:37
******************************
Total playing time: 31:03



[more=Technical info]
Input File: Dracolich - Dracolich - 02 Leaving it all Behind.mp3
Channels : 2
Sample Rate : 44100
Precision : 16-bit
Duration : 00:02:55.08 = 7721116 samples = 13131.1 CDDA sectors
File Size : 7.12M
Bit Rate : 325k
Sample Encoding: MPEG audio (layer I, II or III)
Comments :
Title=Leaving it all Behind
Artist=Dracolich
Album=Dracolich
Tracknumber=2
Year=2020

[/more]

Register
(17) AlexSmith, Amadeus, atavist, caro, infiltrator, kim666, multizwilling, obituarydark, Olethros, Rosen, SilentNidhogg, stub888, Taakeferd, thenecromancer, VALERY, vasiljev_sergej, wreak,
Jan 16 2021, 20:09:50 Drachenord - Passage I (2013)


*Artist: Drachenord
*Album: Passage I
*Year: 2013
*Genre: Black Metal
*Country: United States
*Format: mp3@CBR320kbps
*Size: 74MB

Tracklist:
1. Envisioned 03:50
2. The Order 04:23
3. Archon 06:01
4. Fate 03:14
5. Passage I 10:16
6. The Vision Key 03:38
******************************
Total playing time: 31:22



[more=Technical info]
Input File: Drachenord - Passage I - 02 The Order.mp3
Channels : 2
Sample Rate : 44100
Precision : 16-bit
Duration : 00:04:23.54 = 11621982 samples = 19765.3 CDDA sectors
File Size : 10.6M
Bit Rate : 322k
Sample Encoding: MPEG audio (layer I, II or III)
Comments :
Title=The Order
Artist=Drachenord
Album=Passage I
Tracknumber=2
Year=2013

[/more]

Register
(16) atavist, caro, infiltrator, kim666, Morgoth666, Olethros, randumbum, robertho777, Rosen, SilentNidhogg, stub888, Taakeferd, VALERY, varlam4, vasiljev_sergej, wreak,
Jan 16 2021, 19:27:17 Black Metal в лицах (1) Occultas,
Jan 16 2021, 18:33:23 Dignitas - Thanatropism (2016)


*Artist: Dignitas
*Album: Thanatropism
*Year: 2016
*Genre: Black Metal
*Country: United States
*Format: mp3@CBR320kbps
*Size: 104MB

Tracklist:
1. Cryptic Mosaic 07:39
2. Rotting Nonetheless 06:11
3. No Happy 07:44
4. Apoptosis 02:24
5. Once Haver 07:29
6. Half Dead With a Shit Heart 12:18
******************************
Total playing time: 43:45



[more=Technical info]
Input File: Dignitas - Thanatropism - 01 Cryptic Mosaic.mp3
Channels : 2
Sample Rate : 44100
Precision : 16-bit
Duration : 00:07:39.86 = 20279738 samples = 34489.4 CDDA sectors
File Size : 18.5M
Bit Rate : 322k
Sample Encoding: MPEG audio (layer I, II or III)
Comments :
Title=Cryptic Mosaic
Artist=Dignitas
Album=Thanatropism
Tracknumber=1
Year=2016

[/more]

Register
(17) AlexSmith, atavist, Bolitho, infiltrator, kim666, Olethros, randumbum, Rosen, SilentNidhogg, smysl, SSBandera, stub888, Taakeferd, VALERY, varlam4, vasiljev_sergej, wreak,
Jan 13 2021, 21:29:25 Phlebotomized - Deformation Of Humanity (2019)
Не ожидал, что они такой мощный альбом выдадут! Мне даже больше Скайконтакта понравился.
(1) WOLAND,
Jan 13 2021, 20:39:05 Scour - Massacre [single] (2019)


*Artist: Scour
*Album: Massacre [single]
*Year: 2019
*Genre: Black Metal
*Country: United States
*Format: mp3@CBR320kbps
*Size: 6MB

Tracklist:
1 . Massacre (Bathory cover) 02:32
******************************
Total playing time: 2:32



[more=Technical info]
Input File: Scour - Massacre.mp3
Channels : 2
Sample Rate : 44100
Precision : 16-bit
Duration : 00:02:32.07 = 6706287 samples = 11405.2 CDDA sectors
File Size : 6.31M
Bit Rate : 332k
Sample Encoding: MPEG audio (layer I, II or III)
Comments :
Title=Massacre (Bathory cover)
Artist=Scour
Album=Massacre
Tracknumber=01
Year=2019

[/more]

Register
(9) caro, infiltrator, Olethros, Rosen, Sanctus, varlam4, vasiljev_sergej, Wail, wreak,
Jan 9 2021, 16:35:36 Demvr - In The Room [ep] (2019)


*Artist: Demvr
*Album: In The Room [ep]
*Year: 2019
*Genre: Black Metal
*Country: United States
*Format: mp3@CBR320kbps
*Size: 65MB

Tracklist:
1. In the Room 02:08
2. Through the Glass 09:53
3. The Hills Are Bare 08:37
4. The Forest Calls Your Name 05:15
******************************
Total playing time: 25:53



[more=Technical info]
Input File: Demvr - In The Room - 02 Through the Glass.mp3
Channels : 2
Sample Rate : 44100
Precision : 16-bit
Duration : 00:09:53.35 = 26166823 samples = 44501.4 CDDA sectors
File Size : 23.8M
Bit Rate : 321k
Sample Encoding: MPEG audio (layer I, II or III)
Comments :
Title=Through the Glass
Artist=Demvr
Album=In The Room
Tracknumber=2
Year=2019

[/more]

Register
(13) infiltrator, kim666, Olethros, Rosen, SilentNidhogg, smysl, Taakeferd, VALERY, varg-38ru, varlam4, vasiljev_sergej, Wail, wreak,
Jan 9 2021, 16:27:17 Demonry - Demo [demo] (2020)


*Artist: Demonry
*Album: Demo [demo]
*Year: 2020
*Genre: Black Metal
*Country: United States
*Format: mp3@CBR320kbps
*Size: 20MB

Tracklist:
1. Baphodemon 05:29
2. Satanic Flesh 02:56
******************************
Total playing time: 8:25



[more=Technical info]
Input File: DEMONRY - DEMO - 01 BAPHODEMON.mp3
Channels : 2
Sample Rate : 44100
Precision : 16-bit
Duration : 00:05:30.00 = 14552868 samples = 24749.8 CDDA sectors
File Size : 13.3M
Bit Rate : 322k
Sample Encoding: MPEG audio (layer I, II or III)
Comments :
Title=BAPHODEMON
Artist=DEMONRY
Album=DEMO
Tracknumber=1
Year=2020

[/more]

Register
(14) Bekkerev, infiltrator, Olethros, Rosen, SilentNidhogg, smysl, Taakeferd, VALERY, varg-38ru, varlam4, vasiljev_sergej, Vitald, Wail, wreak,
Jan 8 2021, 23:07:38 Vulvacroma - Promo 2001 [demo] (2001)
Register
(3) Storky, thenecromancer, varg-38ru,
Jan 8 2021, 22:59:17 Deildegast - Lost Histories [demo] (2011)


*Artist: Deildegast
*Album: Lost Histories [demo]
*Year: 2011
*Genre: Black Metal
*Country: United States
*Format: mp3@CBR320kbps
*Size: 54MB

Tracklist:
1. Intro 04:54
2. Triumph 03:24
3. Reverted to Burnt Soil 05:57
4. Trapper's Lament 06:11
5. Idumæa 02:10
******************************
Total playing time: 22:36



[more=Technical info]
Input File: Deildegast - Lost Histories - 02 Triumph.mp3
Channels : 2
Sample Rate : 44100
Precision : 16-bit
Duration : 00:03:24.79 = 9031019 samples = 15358.9 CDDA sectors
File Size : 8.24M
Bit Rate : 322k
Sample Encoding: MPEG audio (layer I, II or III)
Comments :
Title=Triumph
Artist=Deildegast
Album=Lost Histories
Tracknumber=2
Year=2011

[/more]

Register
(11) infiltrator, kim666, Olethros, Rosen, SilentNidhogg, Storky, VALERY, varg-38ru, varlam4, Wail, wreak,
Jan 8 2021, 22:45:14 Degrader & Verwulf Tyrant - Baptised In Witches Urine [split] (2020)


*Artist: Degrader & Verwulf Tyrant
*Album: Baptised In Witches Urine [split]
*Year: 2020
*Genre: Black Metal | Black Metal
*Country: United States | United States
*Format: mp3@CBR320kbps
*Size: 38MB

Tracklist:
1. Degrader - Degrader 02:36
2. Verwulf Tyrant - Tabernacle Ablaze 04:15
3. Degrader - Lusting 05:06
4. Verwulf Tyrant - Iconoclast 04:03
******************************
Total playing time: 16:00



[more=Technical info]
Input File: 01 - Degrader - Verwulf Tyrant - Degrader - (((Baptised in Witches Urine))) - Degrader.mp3
Channels : 2
Sample Rate : 44100
Precision : 16-bit
Duration : 00:02:36.19 = 6888155 samples = 11714.5 CDDA sectors
File Size : 6.34M
Bit Rate : 325k
Sample Encoding: MPEG audio (layer I, II or III)
Comments :
Title=Degrader
Artist=Degrader
Album=Verwulf Tyrant / Degrader - (((Baptised in Witches Urine)))
Tracknumber=1
Year=2020

[/more]

Register
(12) AwaitingDawn, El_Chibo, infiltrator, kim666, robertho777, Rosen, SilentNidhogg, VALERY, varg-38ru, varlam4, Wail, wreak,
Jan 8 2021, 22:10:03 Deafest - From Light And Wind [ep] (2019)


*Artist: Deafest
*Album: From Light And Wind [ep]
*Year: 2019
*Genre: Acoustic
*Country: United States
*Format: mp3@CBR320kbps
*Size: 34MB

Tracklist:
1. Alpine Pond in Moonlight 03:25 instrumental
2. The Gale in the Valley 03:54 instrumental
3. Wildflowers in the Sun and Breeze 04:43 instrumental
4. Last Light upon Icy Peaks 02:00 instrumental
******************************
Total playing time: 14:02



[more=Technical info]
Input File: Deafest - From Light and Wind - 01 Alpine Pond in Moonlight.mp3
Channels : 1
Sample Rate : 44100
Precision : 16-bit
Duration : 00:03:25.33 = 9055185 samples = 15400 CDDA sectors
File Size : 8.37M
Bit Rate : 326k
Sample Encoding: MPEG audio (layer I, II or III)
Comments :
Title=Alpine Pond in Moonlight
Artist=Deafest
Album=From Light and Wind
Tracknumber=1
Year=2019

[/more]

Register
(5) Cartman223, infiltrator, Olethros, Strygaldwir, Vassago06,
Jan 8 2021, 21:46:25 Dead Peasants - Whimper [ep] (2013)


*Artist: Dead Peasants
*Album: Whimper [ep]
*Year: 2013
*Genre: Black Metal
*Country: United States
*Format: mp3@CBR320kbps
*Size: 31MB

Tracklist:
1. Whimper of Genocide Drones 01:24
2. Serpent Child 10:18
3. Dust Praise 01:14
******************************
Total playing time: 12:56



[more=Technical info]
Input File: Dead Peasants - Whimper - 02 Serpent Child.mp3
Channels : 2
Sample Rate : 44100
Precision : 16-bit
Duration : 00:10:18.28 = 27266016 samples = 46370.8 CDDA sectors
File Size : 24.8M
Bit Rate : 321k
Sample Encoding: MPEG audio (layer I, II or III)
Comments :
Title=Serpent Child
Artist=DEAD PEASANTS
Album=Whimper
Tracknumber=2
Year=2013

[/more]

Register
(10) infiltrator, kim666, Olethros, Rosen, SilentNidhogg, VALERY, varg-38ru, varlam4, Wail, wreak,
Jan 8 2021, 21:35:23 Dead To Earth - Dte 2004​-​2007 [compilation] (2007)


*Artist: Dead To Earth
*Album: Dte 2004​-​2007 [compilation]
*Year: 2007
*Genre: Black Metal
*Country: United States
*Format: mp3@CBR320kbps
*Size: 162MB

Tracklist:
1. Hence...Your Fear...(Weltschmerz I) (2004 demo) 12:59
2. ...and the Summer Would Never Be Again...(Weltschmerz II) (2004 demo) 11:39
3. Weltschmerz I (2006-07-22 Full Band Rehearsal) 12:36
4. Weltschmerz II (2006-07-22 Full Band Rehearsal) 10:37
5. Land of No Hope (2007-02-04 demo) 08:35
6. WE11 demo (solo demo, instrumental mix, 2007-02-23) 03:41
7. Untitled (solo demo, instrumental mix, 2007-02-22) 08:21
******************************
Total playing time: 1:08:28



[more=Technical info]
Input File: Dead To Earth - DTE 2004-2007 - 06 WE11 demo (solo demo, instrumental mix, 2007-02-23).mp3
Channels : 2
Sample Rate : 44100
Precision : 16-bit
Duration : 00:03:41.27 = 9757963 samples = 16595.2 CDDA sectors
File Size : 9.02M
Bit Rate : 326k
Sample Encoding: MPEG audio (layer I, II or III)
Comments :
Title=WE11 demo (solo demo, instrumental mix, 2007-02-23)
Artist=Dead To Earth
Album=DTE 2004-2007
Tracknumber=6
Year=2007

[/more]

Register
(16) craP_cillA, dermarsoran, foreverisforgotten, infiltrator, kim666, Olethros, Reverend, Rosen, supremo, Taakeferd, VALERY, varg-38ru, varlam4, vasiljev_sergej, Wail, wreak,
Jan 8 2021, 21:16:10 Dead Forest - Remembrance Of Cold [demo] (2020)


*Artist: Dead Forest
*Album: Remembrance Of Cold [demo]
*Year: 2020
*Genre: Black Metal
*Country: United States
*Format: mp3@CBR320kbps
*Size: 78MB

Tracklist:
1. Eclipse of the Wintermoon 04:25
2. Start the Fire 05:00
3. The River 04:11
4. We All Fall Like Snow 08:10
5. Remembrance of Cold 10:04
******************************
Total playing time: 31:50



[more=Technical info]
Input File: Dead Forest - Remebrance of Cold - 03 The River.mp3
Channels : 2
Sample Rate : 44100
Precision : 16-bit
Duration : 00:04:11.76 = 11102396 samples = 18881.6 CDDA sectors
File Size : 10.2M
Bit Rate : 325k
Sample Encoding: MPEG audio (layer I, II or III)
Comments :
Title=The River
Artist=Dead Forest
Album=Remebrance of Cold
Tracknumber=3
Year=2020

[/more]

Register
(16) foreverisforgotten, infiltrator, kim666, Olethros, randumbum, robertho777, Rosen, SilentNidhogg, Taakeferd, thenecromancer, VALERY, varg-38ru, varlam4, vasiljev_sergej, Wail, wreak,
Jan 8 2021, 17:31:46 Dark Watcher - Dark Watcher [ep] (2019)


*Artist: Dark Watcher
*Album: Dark Watcher [ep]
*Year: 2019
*Genre: Black Metal
*Country: United States
*Format: mp3@CBR320kbps
*Size: 68MB

Tracklist:
1. Scalp Hunter 08:04
2. Garroters 05:33
3. Outsiders 06:03
4. Buffalo 08:33
******************************
Total playing time: 28:13



[more=Technical info]
Input File: Dark Watcher - Dark Watcher - 02 Garroters.mp3
Channels : 2
Sample Rate : 44100
Precision : 16-bit
Duration : 00:05:33.45 = 14704925 samples = 25008.4 CDDA sectors
File Size : 13.4M
Bit Rate : 322k
Sample Encoding: MPEG audio (layer I, II or III)
Comments :
Title=Garroters
Artist=Dark Watcher
Album=Dark Watcher
Tracknumber=2
Year=2019

[/more]

Register
(16) foreverisforgotten, infiltrator, kim666, Olethros, Ostinato, randumbum, robertho777, Rosen, SilentNidhogg, Taakeferd, VALERY, varg-38ru, varlam4, vasiljev_sergej, Wail, wreak,

66 Pages V   1 2 3 > » 
- Lo-Fi Version Support form
Copyrights and abuse reports form
Time is now: 28th January 2021 - 09:15:18