Welcome Guest ( Log In | Register )

История благодарностей участнику Kazoth ::: Спасибо сказали: 7064 раз(а)
Дата поста: В теме: За сообщение: Спасибо сказали:
Sep 11 2019, 16:09:42 Лучший советчик МА - Часть 1 (Дэт) - Тур 1
Очень годная тема! Много чего не слышал из 90-х из присоветованного здесь.
(1) Deze,
Aug 14 2019, 18:19:26 Sort Vokter - Folkloric Necro Metal (1996)
Атмосферный Ильдьярн)
Классный, ненадоедающий альбом!
(1) HviteGuden,
Aug 10 2019, 17:30:23 Massemord - 12 Years Of Mass Murders (2005)


Register
(1) thenecromancer,
Aug 3 2019, 19:53:29 Vothana - Không Bao Giờ Nộp/Never To Submit (2019)
Ну да, так себе...
(1) Forrrrest,
Aug 3 2019, 18:53:49 Grima - Will Of The Primordial (2019)
За таких соотечественников не стыдно. Всё очень профессионально сделано... крутая гармошка... и все дела... Просто немного не моё)
(1) Olrak,
Jul 30 2019, 21:46:28 Various Artists - The Rape Of The Holy Trinity (Hot Records Compilation CD, Vol.1) [compilation] (1997)
Corrected. Mediafire has forgotten how to make links to files with a long name.
(2) Borderline1991, thenecromancer,
Jul 30 2019, 18:50:58 The One - I, Master (2008)


Register
(1) Skeksis,
Jul 25 2019, 18:46:10 Gorgoroth - Antichrist (1996)
По мне так замечательный альбом. Слушаю его наверно даже чаще дебютника... Может быть из-за того, что с него начал слушать Gorgoroth
(1) wolverine,
Jul 22 2019, 19:15:33 Фильм Князья Хаоса
Не берусь судить на сколько достоверно снят фильм, не знал героев лично.
...а так, с чисто художественной точки зрения довольно неплохо снято, я думал на много хуже будет...
(1) Krosis,
Jul 16 2019, 23:13:14 Hateful Tomorrow - Fates And Tragedies (2011)
Register
(1) kimkayoung,
Jul 16 2019, 13:34:44 Dark Tranquillity - Damage Done (2002)
ЦИТАТА(vosmidesijatye @ Jul 16 2019, 15:20:02) *
Ты получается тоже москвич?

Облостник)
(1) vosmidesijatye,
Jun 29 2019, 19:20:28 Bròn - Where The Leaden Dawn Meets Iron Shores (2017)
Register
(2) Blаckheart, smysl,
Jun 27 2019, 21:13:25 Momentum - Fixation, At Rest (2010)
Register
(1) tormoz,
Jun 27 2019, 21:07:17 Momentum - The Freak Is Alive (2015)
Register
(1) tormoz,
Jun 27 2019, 19:58:19 Stille Volk - Milharis (2019)
Очень нравится их дебютник. Потом они вроде поменяли стилистику... Заценим чего тут...
(1) Amadeus,
Jun 24 2019, 19:39:24 Bergthron - Uralte Gedanken [ep] (1998)
320 kbps
Register
(2) thenecromancer, Velkaarn,
Jun 13 2019, 22:24:46 Celesterre - A Blooming Spring [demo] (2014)


*Artist: Celesterre
*Album: A Blooming Spring [demo]
*Year: 2014
*Genre: Progressive/Heavy/Black/Doom Metal
*Country: Netherlands
*Format: mp3@CBR320kbps
*Size: 66MB

Tracklist:
1. Celesterre Burns in Gold 06:18
2. The Droning Earth 04:44
3. A Blooming Spring 07:16
4. Vegetation Terror 05:43
5. Dust 03:31
******************************
Total playing time: 27:32



[more=Technical info]
Input File: celesterre-02-the-droning-earth.mp3
Channels : 2
Sample Rate : 44100
Precision : 16-bit
Duration : 00:04:44.78 = 12558754 samples = 21358.4 CDDA sectors
File Size : 11.5M
Bit Rate : 323k
Sample Encoding: MPEG audio (layer I, II or III)
Comments :
Title=The Droning Earth
Artist=Celesterre
Album=A Blooming Spring
Tracknumber=2
Year=2014

[/more]

Register
(8) metala, Olethros, Rosen, stumpheavyrock, thenecromancer, VALERY, vasiljev_sergej, wreak,
May 30 2019, 19:35:35 Vaakevandring - Vaakevandring [demo] (1999)
Register
(3) IlyaDoom, kim666, thenecromancer,
May 30 2019, 19:32:43 Vaakevandring - Vaakevandring [ep] (2004)
Register
(3) IlyaDoom, thenecromancer, wendigo,
May 29 2019, 19:39:53 Hypocrisy - Penetralia (1991)

Переиздание 96-го года с двумя бонусами
320 kbps
Register
(4) avkruchinin, FullofHate, kipelov999, RUSP73,
May 20 2019, 20:44:06 Lamia Vox - Sigillum Diaboli (2013)
Register
(3) Hipgnosis, sethurius, thenecromancer,
May 20 2019, 18:34:45 Molok - Salt (2018)
ЦИТАТА(Razorbladeswaltz @ May 20 2019, 16:52:40) *
блеклый сумбур, пиликающая ][уета и перенапряженное кряхтение.

Послушай первый, если не слушал...
(1) Razorbladeswaltz,
May 9 2019, 19:33:34 Suffocation - Effigy Of The Forgotten (1991)
ЦИТАТА(111111 @ May 9 2019, 21:22:27) *
С самого начала они были весьма аккадемичны, их музыка не несёт ничего нового.

"Сэр, я вынужден попросить Вас отойти от клавиатуры"
(3) 111111, Exorcist, nekroport,
Apr 1 2019, 20:42:32 Океан Мессиобожателей на Невском, или Голосовалка за лучший альбом 2018 года
Alienation Cold - Destructive Necrotic Sun
Altar of Perversion - Intra Naos
Clandestine Blaze - Tranquility Of Death
Dead Crown - Nature Is My Temple
Elffor - Impious Battlefields
Nahtrunar - Mysterium Tremendum
Paragon Impure - Sade
Reverorum ib Malacht - Im Ra Distare Summum Soveris Seris Vas Innoble
Sorcier Des Glaces — Sorcier Des Glaces
(1) garmonbozia,
Mar 25 2019, 21:55:31 Жалобная книга Сатурналий
Благодаря Сатурналиям узнал название группы которая у меня была на кассете в дописи)
(2) Foneg, Penetralia,

60 Pages V   1 2 3 > » 
- Lo-Fi Version Support form
Copyrights and abuse reports form
Time is now: 16th September 2019 - 15:05:08