Welcome Guest ( Log In | Register )

История благодарностей участнику Kazoth ::: Спасибо сказали: 7258 раз(а)
Дата поста: В теме: За сообщение: Спасибо сказали:
Nov 17 2019, 15:53:34 Rhadamantys - Labyrinth Of Thoughts (1995)

320 kbps
Register
(2) Synthaeon, Terrorizer,
Nov 16 2019, 20:17:38 Metallica - ...And Justice For All (1988)
ЦИТАТА(Aresson @ Nov 16 2019, 15:30:59) *
http://www.infmedserv.ru/sites/default/fil...age/infarkt.jpg
это всё из-за отсутвия баса

Нет, он сам по себе говёный
(1) Фо,
Nov 15 2019, 21:05:08 Metallica - ...And Justice For All (1988)
ЦИТАТА(Aresson @ Nov 9 2019, 12:19:23) *
на этом альбоме лучшее всё Металлики. Кроме баса 1488.gif

Звук тут тоже дерьмовый...
(1) Фо,
Nov 14 2019, 20:29:52 The Deathtrip - Demon Solar Totem (2019)
Блин, ну как так можно записываться в 21-м веке? Где басы то вообще?
(2) garmonbozia, ripper33,
Nov 14 2019, 19:16:25 Reverorum Ib Malacht - Im Ra Distare Summum Soveris Seris Vas Innoble (2018)
Register
(1) smes,
Nov 10 2019, 17:34:39 Лучший советчик МА - Часть 3 (Трэш) - Тур 2, Рейтингование
А заливать кто-нибудь будет всем скопом?
(2) Deze, hammer,
Nov 10 2019, 11:57:17 Лучший советчик МА - Часть 3 (Трэш) - Тур 1, Общий сбор
ЦИТАТА(Deze @ Nov 10 2019, 13:52:14) *
А тем временем Казот не нашел, что посоветовать, поэтому мы с чистой совестью идём в рейтинговочный тур dwarf-1.gif

Это я с чистой совестью пропустил, а не посоветовал какой-нибудь муйни))
(2) Penetralia, Фо,
Nov 9 2019, 16:58:27 Лучший советчик МА - Часть 2 (Дум) - Итоги
Tacit Fury - The Invented Pain - 0,61
Autumn Rain Melancholy - Seven Steps to Infinity - 0,53

А мне эти понравились. А они на самом дне))
(1) Язва,
Nov 6 2019, 20:51:35 Дети – наше всё!
[youtube]heg8l0zspSg[/youtube]
(5) BleedingSun, Nemez, Tarelka, Utugg, Фо,
Nov 5 2019, 21:10:35 Various Artists - No Colours Records Compilation Vol. II [compilation] (1998)
Register
(4) Evilded, fuckyou666, robertho777, Wail,
Nov 5 2019, 21:09:15 Black Army Jacket & Hemlock - Black Army Jacket/Hemlock [split] (1997)
Register
(1) Evilded,
Nov 5 2019, 20:04:19 Stutthof - And Cosmos From Ashes To Dust... (2005)
Stutthof ‎– 2006 - And Cosmos From Ashes To Dust... / Through The Dark Age We Are Dreaming (Demo)

320kbps | 183 MB

Register
(5) Daale, thenecromancer, vovenom, Wail, Авел,
Nov 4 2019, 19:22:26 Nachtmystium & Zalnik - The Ancient Battlefield [split] (2001)


Register
(2) cancer1974, wendigo,
Nov 4 2019, 18:45:54 Old - Down With The Nails (2006)

320 kbps | 82 MB
Register
(3) Brann, stumpheavyrock, wendigo,
Nov 4 2019, 14:31:52 Various Artists - No Colours Records Compilation Vol. II [compilation] (1998)


*Artist: Various Artists
*Album: No Colours Records Compilation Vol. II [compilation]
*Year: 1998
*Genre: Black Metal
*Country: Many
*Format: mp3@CBR320kbps
*Size: 188MB

Tracklist:
01. Vordven - Moonlight In The Northern Sky
02. Veles - The Temple Of Internal Fire
03. Absent Silence - Code Of My Seasons
04. Sorcery - The Rite Of Sacrifice
05. Minotaur - Apocalyptic Trials
06. Graveland - Sons Of Fire And Steel (Edit)
07. Nargaroth - Herbstleyd (Different Version)
08. Hellfire - The Reaper
09. Abyssic Hate - Betrayed
10. Urgehal - Nyx
11. Suicidal Winds - Carnal Lust (Demo Song)
12. Absurd - Vampire (Unreleased)
13. Joyless - Isn't It Nice? (Unmixed)
14. Falkenbach - Winternight (Demo Version)
15. Furthest Shore - ...Until The Bitter End
******************************
Total playing time: 1:13:42

[more=Extended info]+ сканы[/more]

[more=Technical info]
Input File: 03. Absent Silence - Code of my seasons.mp3
Channels : 2
Sample Rate : 44100
Precision : 16-bit
Duration : 00:04:25.00 = 11686632 samples = 19875.2 CDDA sectors
File Size : 10.6M
Bit Rate : 320k
Sample Encoding: MPEG audio (layer I, II or III)
Comments :
Title=Code Of My Seasons
Artist=Absent Silence
Album=No Colours Records Compilation Vol. II
Tracknumber=03/15
Year=1998
Genre=Black Metal

[/more]

Register
(10) craP_cillA, fuckyou666, FUDEDOR, peppuzzo, Rosen, soulskinner681, stumpheavyrock, VALERY, vasiljev_sergej, Герб,
Nov 4 2019, 14:07:17 Black Army Jacket & Hemlock - Black Army Jacket/Hemlock [split] (1997)


*Artist: Black Army Jacket & Hemlock
*Album: Black Army Jacket/Hemlock [split]
*Year: 1997
*Genre: Powerviolence/Grindcore | Black Metal
*Country: United States | United States
*Format: mp3@CBR320kbps
*Size: 50MB

Tracklist:
Black Army Jacket:
1. Fortune Cookie 01:29
2. Paint 01:54
3. Double Failure 01:00
4. Lying Between The Tigris And The Euphrates 01:11
5. Surrender To Sensation 01:11
6. Hot Date 00:29
7. The Last Day Of The Rest Of Your Life 01:04
8. Crooked Mouth 01:11
9. Magnets 00:24
Hemlock:
10. Glorious Is The Beast (Intro) 01:23
11. We Attack, We Fight, We Win 03:56
12. The Disease Of Lady Elizabeth 06:31
******************************
Total playing time: 21:43

[more=Technical info]
Input File: Hemlock - Split with Black Army Jacket - 11 - We Attack, We Fight, We Win.mp3
Channels : 2
Sample Rate : 44100
Precision : 16-bit
Duration : 00:03:56.66 = 10436662 samples = 17749.4 CDDA sectors
File Size : 9.52M
Bit Rate : 322k
Sample Encoding: MPEG audio (layer I, II or III)
Comments :
Title=We Attack, We Fight, We Win
Artist=Hemlock
Album=Black Army Jacket / Hemlock
Tracknumber=11
Year=1997
Genre=Black Metal

[/more]

Register
(4) FUDEDOR, Rosen, vasiljev_sergej, Zhelezjaka,
Nov 3 2019, 19:15:23 Лучший советчик МА - Часть 2 (Дум) - Тур 2, Рейтингование
ЦИТАТА(Emm Human @ Nov 3 2019, 20:18:20) *
переключать стрелки.

переводить
(1) garmonbozia,
Nov 3 2019, 17:41:07 Various Artists - No Colours Records [compilation] (1996)
Register


...а хотя эта компиляция не такая и бесполезная, тут есть бонус-трек с виниловой версии дебютного альбома Falkenbach
(5) Evilded, fuckyou666, FUDEDOR, robertho777, soulskinner681,
Nov 3 2019, 17:16:51 Various Artists - No Colours Records [compilation] (1996)


*Artist: Various Artists
*Album: No Colours Records [compilation]
*Year: 1996
*Genre: Black Metal
*Country: Many
*Format: mp3@CBR320kbps
*Size: 170MB

Tracklist:
1. Dimmu Borgir - Over Bleknede Blaner Til Dommedag
2. Dimmu Borgir - Stien
3. Veles - My Pagan Fatherland (Evil Power's Night)
4. Forgotten Woods - The Velvet Room
5. Graveland - Intro / In The Glare Of Burning Churches
6. Graveland - The Night Of The Fullmoon
7. Graveland - And The Horn Was Sounding Far Away (Unmixed Advanced Track)
8. Falkenbach - Heathenpride
9. Falkenbach - The Heralder (Unmixed Advanced Track)
10. Urgehal - Bloodhunt
11. Urgehal - Conjuring The Hordes Of Blasphemy
12. Urgehal - Dethronation Of God
******************************
Total playing time: 1:12:47

[more=Extended info]Бесполезная компиляция. Для коллекционеров) Сканы прилагаются...[/more]

[more=Technical info]
Input File: 02. Dimmu Borgir - Stien.mp3
Channels : 2
Sample Rate : 44100
Precision : 16-bit
Duration : 00:02:02.05 = 5382361 samples = 9153.68 CDDA sectors
File Size : 4.89M
Bit Rate : 320k
Sample Encoding: MPEG audio (layer I, II or III)
Comments :
Title=Stien
Artist=Dimmu Borgir
Album=No Colours Records Compilation
Tracknumber=2
Year=1997

[/more]

Register
(17) 1968_janeart, craP_cillA, dulak, fuckyou666, gwar, heinz88, Moonshtook, morbidangelo, multizwilling, robertho777, Rosen, soulskinner681, thenecromancer, VALERY, vasilisk, vasiljev_sergej, Герб,
Nov 3 2019, 14:37:32 Hemlock - Crush The Race Of God [ep] (1998)


Register
(2) thenecromancer, Wail,
Oct 31 2019, 19:40:52 Midnight Odyssey - Biolume Part 1 - In Tartarean Chains (2019)
Как-то без интереса прослушал. Все те же приемы и ходы. Запоминающихся мест практически нет. Может не в настроение попал, надо еще раз переслушать...
(1) Krosis,
Oct 29 2019, 19:50:07 Батюшка - Молитвы (2019)
По ходу на коленях сидит молодой Пушкин...
(1) garmonbozia,
Oct 27 2019, 19:57:53 Лучший советчик МА - Часть 2 (Дум) - Тур 2, Рейтингование
ЦИТАТА(Snowblind @ Oct 27 2019, 21:08:54) *
Nattvindens Gråt - A Bard's Tale за название автоматом 0

А что не так с названием?
(1) plfan93,
Oct 27 2019, 18:41:31 Лучший советчик МА - Часть 2 (Дум) - Тур 2, Рейтингование
(EchO) - Devoid Of Illusions 0
Aberrancy - Kill the People (demo) 1
Abstrakt Algebra - Abstrakt Algebra 0
Abysmal - The Pillorian Age 2 (даже диск имеется))
Autumn Rain Melancholy - Seven Steps to Infinity 1
Black Oath - Ov Qliphoth And Darkness 0
Ceremonium - Into The Autumn Shade 1
Crypt Sermon - Out of the Garden 0
Deathkings - All That Is Beautiful 0
Decomposed - Hope Finally Died 1
Desire - Infinity (A Timeless Journey Through An Emotional Dream) 2
Destroyer of Light - Mors Aeterna 1
Doomshine - Thy Kingdoom Come 0
Ecthalion - In The Embrace Of Nocturnity (demo) 1
Eleven Drops To Sink Into - A Shelter From Time (EP) 0
Enchantment - Dance The Marble Naked 0
Godsend - As the Shadows Fall 0
Hybernoid - The Last Day Begins 0
Insanity Reigns Supreme - and Darkness Drowned the Land Divine 1
Lachrimatory - Transient 1
Lamented Souls - The Origins Of Misery (demos) 0
Living Sorrow - Red Mourning Sky 3
Lumen Oceani - Errabundus Eram Regno Tenebrarum 1
Maleficium - This Illusion Of Humanity 1
Memento Mori - Life, Death And Other Morbid Tales 0
Mental Home - Black Art 0
Moon of Sorrow - Crystal Emotions 0
Mordor - Odes (demo) 1
Mourn - Mourn 0
Nattvindens Gråt - A Bard's Tale 1
Nightly Gale – Imprint 0
Painful Memories - Memorial To Suffering (demo) 0
Quercus - Verferum 3 (Главным образом за потрясающе красивый последний трэк! Главное открытие этого тура для меня)
S.C.A.L.P - Through Eternity 1
Serpent - In The Garden Of Serpent 0
Tacit Fury - The Invented Pain 2
The Doomsday Cult - Language of Misery (demos) 0
The Drowning - Fall Jerusalem Fall 0
The Red Widows - Fuzzifixion 0
Unsilence - Transfiguration (EP) 0
Walk Through Fire - Furthest From Heaven 1
Weedruid - Into The Acid Swamp 0
Who Dies In Siberian Slush - Intimate Death Experience 2
Wormphlegm - Tomb Of The Ancient King 1

Жирным выделил что слышал раньше...
(2) mirotvorets, Язва,
Oct 25 2019, 17:21:06 Midnight Odyssey & Aeon Winds - Aeon Odyssey [split] (2013)
Register
(1) Skeksis,

61 Pages V   1 2 3 > » 
- Lo-Fi Version Support form
Copyrights and abuse reports form
Time is now: 22nd November 2019 - 20:54:48