Welcome Guest ( Log In | Register )

История благодарностей участнику svndvst ::: Спасибо сказали: 2676 раз(а)
Дата поста: В теме: За сообщение: Спасибо сказали:
Mar 16 2018, 10:25:07 Raison D'être & Troum - XIBIPIIO. In And Out Of Experience [collaboration] (2017)
[youtube]M0JmqGUXytA[/youtube]
(1) thenecromancer,
Mar 5 2018, 20:31:45 Новости Black-направления
18 мая релиз переиздания Dødheimsgard - Satanic Art 1998 года + 2 бонус трека



source: https://burningshed.com/store/peaceville/do..._satanic-art_cd
(3) BlackSmog, infiltrator, yuratroll,
Feb 25 2018, 11:44:55 Leviathan & Crawl - Leviathan/Crawl [split] (2018)
Crawl - недурственный такой атмосферный блэкосладж получился, нагнетает headcrab.png Надо ещё обмазаться.

Ну а Белоголовый - это такой одаренный зверь из которого вылазят только годные душевные треки.
(1) Chasm,
Feb 25 2018, 11:28:24 Dimmu Borgir - Interdimensional Summit [ep] (2018)
Эпичное гавно пробудило аж самого Ктулху.
(3) HA7tur, Kwaad, Paatddal,
Feb 22 2018, 22:54:48 Anna Von Hausswolff - The Miraculous (2015)


*Artist: Anna Von Hausswolff
*Album: The Miraculous
*Year: 2015
*Genre: Experimental Rock/Neoclassical Darkwave/Dark Folk
*Country: Sweden
*Format: mp3@CBR320kbps
*Size: 109MB

Tracklist:
1. Discovery 08:45
2. The hope of only empty men 03:10
3. Pomperipossa 02:12
4. Come wander with me/Deliverance 10:49
5.En ensam vandrare 02:55
6. An oath 03:01
7. Evocation 03:07
8. The Miraculous 09:59
9. Stranger 05:28
******************************
Total playing time: 49:26



[more=Extended info][youtube]TU07z8N1V40[/youtube][/more]

[more=Technical info]
Input File: 07. Evocation.mp3
Channels : 2
Sample Rate : 44100
Precision : 16-bit
Duration : 00:03:07.76 = 8280304 samples = 14082.1 CDDA sectors
File Size : 7.65M
Bit Rate : 326k
Sample Encoding: MPEG audio (layer I, II or III)
Comments :
Title=Evocation
Artist=Anna von Hausswolff
Album=The Miraculous
Tracknumber=7
Year=2015
Genre=Experimental Rock/Neoclassical darkwave/Dark Folk

[/more]

Register
(16) Angry_Chair, BERZERK, Bruce, Cartman223, DMIYUR, Forest Silence, Fryz, Ghostb, helvetestoner, infiltrator, Jurmagund, Mist13Signifier, Ostinato, VALERY, veselchak_u, zoog,
Feb 22 2018, 22:53:04 Anna Von Hausswolff - Ceremony (2012)


*Artist: Anna Von Hausswolff
*Album: Ceremony
*Year: 2012
*Genre: Experimental Rock/Neoclassical Darkwave
*Country: Sweden
*Format: mp3@CBR320kbps
*Size: 143MB

Tracklist:
1. Epitaph Of Theodor 05:25
2. Deathbed 08:38
3. Mountains Crave 03:35
4. Goodbye 06:16
5. Red Sun 03:17
6. Epitaph Of Daniel 03:10
7. No Body 02:33
8. Lithurgy Of Light 05:01
9. Harmonica 04:22
10. Ocean 05:44
11. Sova 03:24
12. Funeral For My Future Children 04:42
13. Sun Rise 04:52
******************************
Total playing time: 1:00:59



[more=Extended info][youtube]uABaTw73PFU[/youtube][/more]

[more=Technical info]
Input File: 06. Epitaph of Daniel.mp3
Channels : 2
Sample Rate : 44100
Precision : 16-bit
Duration : 00:03:11.05 = 8425481 samples = 14329 CDDA sectors
File Size : 7.75M
Bit Rate : 325k
Sample Encoding: MPEG audio (layer I, II or III)
Comments :
Title=Epitaph of Daniel
Artist=Anna von Hausswolff
Album=Ceremony
Tracknumber=6
Year=2012
Genre=Experimental Rock/Neoclassical Darkwave

[/more]

Register
(12) Angry_Chair, BERZERK, Cartman223, DMIYUR, Forest Silence, Fryz, Ghostb, helvetestoner, infiltrator, Jurmagund, Mist13Signifier, VALERY,
Feb 22 2018, 13:46:17 Anna Von Hausswolff - Dead Magic (2018)
ЦИТАТА(Ghostb @ Feb 22 2018, 13:40:59) *
По-моему, тут есть и то, и другое, Lisa Gerrard вообще частенько мерещится. Крутой альбом, неоднократно буду переслушивать. С предыдущими, впрочем, не знаком.


Предыдущие тоже хороши, но на этом планка повыше явно. Если не затуплю, то залью и их.
(4) BERZERK, Forest Silence, Ghostb, infiltrator,
Feb 21 2018, 22:53:59 Anna Von Hausswolff - Dead Magic (2018)
ЦИТАТА(garmonbozia @ Feb 21 2018, 22:39:37) *
моск исполнительницы скушан человеколебядями и прочими инопланетянами.


То есть ты тонко намекнул на Jarboe врёмён Swans и прочие ДедКэнДэнс'ы 1488.gif
(3) garmonbozia, Ghostb, infiltrator,
Feb 21 2018, 21:08:36 Новости Black-направления
Blut Aus Nord который не-Blut Aus Nord:

Memoria Vetusta - Empyreus is in the works.

But it won't be released by Blut Aus Nord..

source:

То есть можно предположить, что благость эта вылезет под вывеской Children of Mäani / The Eye / Vlad / Yərûšəlem. Зачем - хз, одному б-гу известно.
(2) infiltrator, vosmidesijatye,
Feb 20 2018, 21:47:14 Anna Von Hausswolff - Dead Magic (2018)


*Artist: Anna Von Hausswolff
*Album: Dead Magic
*Year: 2018
*Genre: Experimental Rock/Neoclassical Darkwave
*Country: Sweden
*Format: mp3@CBR320kbps
*Size: 116MB

Tracklist:
01. The Truth, The Glow, The Fall 12:08
02. The Mysterious Vanishing of Electra 06:09
03. Ugly and Vengeful 16:18
04. The Marble Eye 05:19
05. Källans återuppståndelse 07:27
******************************
Total playing time: 47:21



[more=Extended info]"The great pipe organ you’re hearing is a 20th century instrument located in Marmor Kirken, "The Marble Church", Copenhagen."

[youtube]Nre0hcDz5TI[/youtube][/more]

[more=Technical info]
Input File: 04. The Marble Eye.mp3
Channels : 2
Sample Rate : 44100
Precision : 16-bit
Duration : 00:05:18.88 = 14062740 samples = 23916.2 CDDA sectors
File Size : 12.9M
Bit Rate : 322k
Sample Encoding: MPEG audio (layer I, II or III)
Comments :
Title=The Marble Eye
Artist=Anna Von Hausswolff
Album=Dead Magic
Tracknumber=4
Year=2018
Genre=Experimental Rock/Neoclassical darkwave

[/more]

Register
(21) avkruchinin, BERZERK, Cartman223, DMIYUR, Forest Silence, garmonbozia, grimmstone, helvetestoner, icingsugar, infiltrator, Jurmagund, kefka, NappyRob, nsmetalhead, Ostinato, Sanc, sarcophagus, thenecromancer, tOmV, winterfury, yuratroll,
Feb 9 2018, 13:02:42 Новости Black-направления
KOSMÍSKUR HRYLLINGUR, a collaborative effort between Skáphe and Wormlust, is set to be released later this year by Fallen Empire Records and Mystískaos on CS, LP and Digital.

Artwork by Metastazis and Sindre Foss Skancke.

(8) acerbus, BlackSmog, garmonbozia, infiltrator, NorthernResistance, Premature_Devotion, technoboy69, vosmidesijatye,
Feb 8 2018, 12:46:20 Новости Black-направления
[youtube]AFDbZVDfqg4[/youtube]
(2) infiltrator, Premature_Devotion,
Dec 30 2017, 11:28:15 Watter - This World (2014)


*Artist: Watter
*Album: This World
*Year: 2014
*Genre: Psychedelic/Krautrock
*Country: United States
*Format: mp3@CBR320kbps
*Size: 106MB

Tracklist:
1. Rustic Fog 07:02
2. Lord I Want More 02:14
3. Small Business 13:32
4. Bloody Monday 04:22
5. Seawater 12:50
6. This World 06:44
7. Digital Camo 06:21
******************************
Total playing time: 53:05



[more=Extended info][youtube]wkvNjLSfmZ4[/youtube][/more]

[more=Technical info]
Input File: 02 Lord I Want More.mp3
Channels : 2
Sample Rate : 44100
Precision : 16-bit
Duration : 00:02:14.83 = 5946135 samples = 10112.5 CDDA sectors
File Size : 5.42M
Bit Rate : 322k
Sample Encoding: MPEG audio (layer I, II or III)
Comments :
Title=Lord I Want More
Artist=Watter
Album=This World
Tracknumber=2
Year=2014

[/more]

Register
(6) Angry_Chair, Diflock, gikaki, marilin, snot, SyncestrA,
Dec 14 2017, 21:00:25 Lussuria - Standstill (2017)


*Artist: Lussuria
*Album: Standstill
*Year: 2017
*Genre: Dark Ambient/Industrial/Experimental
*Country: United States
*Format: mp3@CBR320kbps
*Size: 509MB

Tracklist:
1. Tree Of Marble 6:59
2. Mirror Stage 7:08
3. Aegri Somnia 7:36
4. The Fourth Cardinal Weighted Down 8:04
5. Viaticum, Spear Dance, Companion Note 14:02
6. Acanthus Leaves, Of Rage And Denial, Lashes 13:58
7. To Pale Shelter 14:24
8. Slow Scorch 4:42
9. Dust Will Blow 4:03
10. Stolen Door 4:54
11. Laughter Of The Heights 4:49
12. Silent Replies Silent Questions 4:54
13. Rosary Glide 4:53
14. Natura Liberari I-III 13:36
15. Twilight Red 9:42
16. Midnight Office 5:14
17. Spiritual Bypass 4:24
18. The Face Of Two 9:33
19. Cliff In The Red Tidal Wave 14:55
20. Your Voice To Arise As Incense 14:44
21. Lambarene 6:19
22. Archaic Revival 5:04
23. Sitting Room 3:17
24. The Waiting 4:52
25. Postmortem Gaze 4:15
26. In The Flashing Whites Of Eyes 4:19
27. Deconsecration 3:46
28. Fogbound 9:09
29. De Svarta Porten 14:07
******************************
Total playing time: 3:47:42

Preview 1

[more=Extended info]Viaticum, Spear Dance, Companion Note 20.gif [/more]

[more=Technical info]
Input File: 01 - Tree of Marble.mp3
Channels : 2
Sample Rate : 44100
Precision : 16-bit
Duration : 00:06:59.75 = 18510887 samples = 31481.1 CDDA sectors
File Size : 16.9M
Bit Rate : 321k
Sample Encoding: MPEG audio (layer I, II or III)
Comments :
Title=Tree of Marble
Artist=Lussuria
Album=Standstill
Tracknumber=1
Year=2017
Genre=Electronic

[/more]

Register
(2) garmonbozia, sarcophagus,
Dec 14 2017, 20:36:23 Ancestral Voices - Divination (2017)


*Artist: Ancestral Voices
*Album: Divination
*Year: 2017
*Genre: Ambient/Tribal/Techno/Experimental
*Country: United Kingdom
*Format: mp3@CBR320kbps
*Size: 190MB

Tracklist:
1. Divination 11:17
2. Galdr 06:45
3. Geomancy 06:46
4. Rites 05:11
5. Transcendence 10:48
6. Forn Sidr 06:23
7. Yggia 07:38
8. Futhark 04:42
9. Hieratic 05:55
10. Cleromancy 05:49
11. Alu 04:53
12. Inscriptions 05:15
13. Revelation 03:02
******************************
Total playing time: 1:24:24



[more=Technical info]
Input File: 01. Divination.mp3
Channels : 2
Sample Rate : 44100
Precision : 16-bit
Duration : 00:11:17.29 = 29868357 samples = 50796.5 CDDA sectors
File Size : 27.4M
Bit Rate : 324k
Sample Encoding: MPEG audio (layer I, II or III)
Comments :
Title=Divination
Artist=Ancestral Voices
Album=Divination
Tracknumber=1
Year=2017

[/more]

Register
(1) Corpuscul,
Dec 14 2017, 20:29:09 Ancestral Voices - Yantra [ep] (2016)


*Artist: Ancestral Voices
*Album: Yantra [ep]
*Year: 2016
*Genre: Ambient/Tribal/Techno/Experimental
*Country: United Kingdom
*Format: mp3@CBR320kbps
*Size: 62MB

Tracklist:
1. Yantra 7:49
2. Eiyani 6:59
3. Priests Of MU 6:39
4. Jadian Sun 6:04
******************************
Total playing time: 27:31



[more=Technical info]
Input File: 01 Yantra.flac
Channels : 2
Sample Rate : 44100
Precision : 16-bit
Duration : 00:07:49.62 = 20710129 samples = 35221.3 CDDA sectors
File Size : 36.1M
Bit Rate : 615k
Sample Encoding: 16-bit FLAC
Comments :
ALBUM=Yantra
ARTIST=Ancestral Voices
CATALOGNUMBER=HOROEX1
DATE=2016
GENRE=Dubstep
GENRE=Ambient
LABEL=Samurai Horo
MUSICBRAINZ_ALBUMID=ce62ccae-a0fa-4da2-83e6-10d4a69cabc9
MUSICBRAINZ_ALBUMSTATUS=Official
MUSICBRAINZ_ALBUMTYPE=EP
MUSICBRAINZ_ARTISTID=3ce1e01a-df79-44f1-904d-16a984465e7a
MUSICBRAINZ_RELEASEGROUPID=3a89944a-f30e-4dfa-8e74-625cff5c26ec
MUSICBRAINZ_TRACKID=59abe81c-b8f5-48a6-a27f-aeddc5e8147f
ORIGINAL RELEASE DATE=2016-12-09
ORGANIZATION=Horo
TITLE=Yantra
TRACKTOTAL=4
TRACKNUMBER=1

[/more]

Register
(2) Corpuscul, Mormo,
Dec 7 2017, 23:27:13 Prurient - Rainbow Mirror (2017)
Отбитейший персонаж. Обмазываюсь потихоньку всяким у него. Здесь Falling In The Water понравилось, затягивает. Lussuria из этого трио тоже помнится интересные треки сочиняет.
(1) Infidel,
Nov 24 2017, 20:26:35 Godflesh - Post Self (2017)
Старичок радует, вон уже на небеса крылья пакует. Parasite, Mortality Sorrow, Be God мощные треки.

Register


11. Parasite ALTERNATIVE (BONUS) 04:09
12. The Cyclic End DUB (BONUS) 07:08
13. In Your Shadow JK FLESH Reshape (BONUS) 06:08
(7) acerbus, AndreFrancis, Angry_Chair, bm666l, Jurmagund, METALHUNTER, Zhelezjaka,
Nov 10 2017, 13:54:57 Новости Black-направления
ЦИТАТА(rimfrost @ Nov 10 2017, 14:03:49) *
В сети появились треки с новой епишки от норвегов One Tail, One Head - Firebirds b/w Prowess (2017)

[youtube]t3APOV9e3SI[/youtube]


Второй трек - Prowess бесподобен. Местами слышатся психоделические пассажи Virus.

One Tail, One Head - это та банда, которая делает мало, но крайне хорошо.
(1) Valdmaar,
Nov 2 2017, 23:01:42 OAKE - Sentiment Of Callousness [ep] (2017)


*Artist: OAKE
*Album: Sentiment Of Callousness [ep]
*Year: 2017
*Genre: Dark Ambient/Industrial/Experimental
*Country: Germany
*Format: mp3@CBR320kbps
*Size: 55MB

Tracklist:
01. Alog 6:43
02. Apath 5:02
03. Abul 6:06
04. Anhedon 8:18
******************************
Total playing time: 26:09



[more=Extended info]
Anhedon banana.gif headcrab.png

"Sentiment of Callousness was written over a one-and-a-half year period of total collapse, characterized by disconnection between the world within and the perception of the world outside.

Each of the tracks embodies feelings experienced during this time - from dark to bright, sluggish to energetic, alive to dead, real to unreal, and the self to the other."[/more]

[more=Technical info]
Input File: 01 Alog.mp3
Channels : 2
Sample Rate : 44100
Precision : 16-bit
Duration : 00:06:42.18 = 17736138 samples = 30163.5 CDDA sectors
File Size : 16.2M
Bit Rate : 321k
Sample Encoding: MPEG audio (layer I, II or III)
Comments :
Title=Alog
Artist=OAKE
Album=Sentiment Of Callousness EP
Tracknumber=01
Year=2017
Genre=electronic

[/more]

Register
(2) lucifix, spiritualdecay666,
Oct 27 2017, 23:29:53 Arktau Eos - Catacomb Resonator (2017)


*Artist: Arktau Eos
*Album: Catacomb Resonator
*Year: 2017
*Genre: Ritual Dark/Drone Ambient
*Country: Finland
*Format: mp3@CBR320kbps
*Size: 70MB

Tracklist:
1. Catacomb Resonator 37:15
******************************
Total playing time: 37:15

[more=Technical info]
Input File: Arktau Eos - Catacomb Resonator.mp3
Channels : 2
Sample Rate : 44100
Precision : 16-bit
Duration : 00:37:12.00 = 98431200 samples = 167400 CDDA sectors
File Size : 89.2M
Bit Rate : 320k
Sample Encoding: MPEG audio (layer I, II or III)
Comments :
Title=Catacomb Resonator
Artist=Arktau Eos
Album=Catacomb Resonator
Tracknumber=1
Year=2017
Genre=26

[/more]

Register
(15) Black Cat, Boozer, garmonbozia, gena, Haunting, Hell_Is_Here, Hyperborea, Infidel, lucifix, marilin, Mist13Signifier, Ostinato, princeshr, RUSP73, spiritualdecay666,
Sep 29 2017, 08:01:45 Grave Pleasures - Motherblood (2017)


*Artist: Grave Pleasures
*Album: Motherblood
*Year: 2017
*Genre: Post-Punk/Deathrock
*Country: Finland
*Format: mp3@CBR320kbps
*Size: 77MB

Tracklist:
01. Infatuation Overkill 3:07
02. Doomsday Rainbows 3:41
03. Be My Hiroshima 3:47
04. Joy Through Death 3:49
05. Mind Intruder 3:47
06. Laughing Abyss 3:35
07. Falling For An Atom Bomb 3:16
08. Atomic Christ 4:58
09. Deadenders 3:56
10. Haunted Afterlife 3:04
******************************
Total playing time: 37:00

[more=Extended info]

ex-Beastmilk

[youtube]Zr2oG9g22SQ [/youtube]

[youtube]A-OxW0KcyoQ [/youtube]

[youtube]xvdnT4esPzQ[/youtube][/more]

[more=Technical info]
Input File: 01 - Infatuation Overkill.mp3
Channels : 2
Sample Rate : 44100
Precision : 16-bit
Duration : 00:03:06.06 = 8205422 samples = 13954.8 CDDA sectors
File Size : 7.56M
Bit Rate : 325k
Sample Encoding: MPEG audio (layer I, II or III)
Comments :
Title=Infatuation Overkill
Artist=Grave Pleasures
Album=Motherblood
Tracknumber=01
Year=2017
Genre=Rock

[/more]

Register
(20) Angry_Chair, Boozer, Buregon, garml2, garmonbozia, Henmik, kauyumari, kolar666, metala, muskatnuss, Narasimha, Ostinato, sksxxx, soulskinner681, Tular, Un4given, wolverine, xska, yuratroll, Zenial,
Sep 27 2017, 14:24:02 Новости Black-направления
Здесь можно послушать тречОК Apostasis с грядущего Blut Aus Nord - Deus Salutis Meae:

http://www.nocleansinging.com/2017/09/27/b...e-of-apostasis/
(5) Baudolino, garmonbozia, GTrooper, Infidel, suseka,
Sep 26 2017, 18:55:54 Pact Infernal - MONAD XXV [ep] (2017)


*Artist: Pact Infernal
*Album: MONAD XXV [ep]
*Year: 2017
*Genre: Dark Ambient/Tribal/Experimental
*Country: United States
*Format: mp3@CBR320kbps
*Size: 57MB

Tracklist:
01. Nitimur In Vetitum 5:41
02. Cor Aut Mors 6:10
03. Sapere Aude 5:43
04. Capax Infiniti 7:11
******************************
Total playing time: 24:45



[more=Technical info]
Input File: Pact Infernal - MONAD XXV - 01 Nitimur In Vetitum.mp3
Channels : 2
Sample Rate : 44100
Precision : 16-bit
Duration : 00:05:41.11 = 15042863 samples = 25583.1 CDDA sectors
File Size : 13.8M
Bit Rate : 323k
Sample Encoding: MPEG audio (layer I, II or III)
Comments :
Title=Nitimur In Vetitum
Artist=Pact Infernal
Album=MONAD XXV
Tracknumber=01/4
Year=2017
Genre=Techno

[/more]

Register
(4) milosdjor, Ostinato, RUSP73, Абигор,
Sep 22 2017, 23:38:33 Pact Infernal - The Descent (Chapters I & II) (2016)


*Artist: Pact Infernal
*Album: The Descent (Chapters I & II)
*Year: 2016
*Genre: Dark/Tribal Ambient/Experimental
*Country: United States
*Format: mp3@CBR320kbps
*Size: 98MB

Tracklist:
1. Circle I [Limbo] 04:27
2. Circle II [Lust] 05:03
3. Circle III [Gluttony] 04:00
4. Circle IV [Greed] 05:20
5. Circle V [Anger] 05:52
6. Circle VI [Heresy] 05:40
7. Circle VII [Violence] 06:25
8. Circle VII [Fraud] 05:24
9. Circle IX [Treachery] 01:13
******************************
Total playing time: 43:24



[more=Extended info]label:Samurai Horo[/more]

[more=Technical info]
Input File: 09 Circle IX (Treachery).mp3
Channels : 2
Sample Rate : 44100
Precision : 16-bit
Duration : 00:01:13.36 = 3235088 samples = 5501.85 CDDA sectors
File Size : 4.24M
Bit Rate : 463k
Sample Encoding: MPEG audio (layer I, II or III)
Comments :
Title=Circle IX [Treachery]
Artist=Pact Infernal
Album=The Descent (Chapters I & II)
Tracknumber=9/9/9
Year=2016
Genre=Electronic
Discnumber=1/1/1

[/more]

Register
(4) gena, Ostinato, RUSP73, stub888,

19 Pages V   1 2 3 > » 
- Lo-Fi Version Support form
Copyrights and abuse reports form
Time is now: 15th October 2019 - 03:13:28