Welcome Guest ( Log In | Register )

История благодарностей участнику mirotvorets ::: Спасибо сказали: 2004 раз(а)
Дата поста: В теме: За сообщение: Спасибо сказали:
Yesterday, 20:02:40 Лучший советчик МА - Часть 6 (Хеви) - Итоги
ЦИТАТА(Anger @ Apr 3 2020, 21:41:44) *
а прог куда делся?


Ты же французов Technical Groove Metal собирался советовать, а просидел в бане.
(1) Deze,
Yesterday, 09:45:13 Лучший советчик МА - Часть 6 (Хеви) - Итоги
Diviner - Realms of Time, за который топил, в призёрах, вполне я довольный. Всем, кто плюсанул JD спасибо 9.gif

(3) infiltrator, Lux, Yarri,
Yesterday, 08:48:10 Conception - State Of Deception (2020)
Вчера погонял не репите, может и хорошо, что альбом такой короткий, ничего лишнего.

FLAC

Register
(2) SAPOGi, serjred,
Apr 2 2020, 11:39:10 Conception - State Of Deception (2020)


*Artist: Conception
*Album: State Of Deception
*Year: 2020
*Genre: Progressive Metal
*Country: Norway
*Format: mp3@CBR320kbps
*Size: 94MB

Tracklist:
1. in: Deception 01:46
2. Of Raven and Pigs 04:45
3. Waywardly Broken 04:38
4. No Rewind 03:11
5. The Mansion 04:35
6. By the Blues 03:59
7. Anybody out There 05:25
8. She Dragoon 04:56
9. Feather Moves 06:04
******************************
Total playing time: 39:19



[more=Technical info]
Input File: 02. Of Raven and Pigs.mp3
Channels : 2
Sample Rate : 44100
Precision : 16-bit
Duration : 00:04:45.69 = 12599105 samples = 21427 CDDA sectors
File Size : 11.4M
Bit Rate : 320k
Sample Encoding: MPEG audio (layer I, II or III)
Comments :
Title=Of Raven and Pigs
Artist=Conception
Album=State of Deception
Tracknumber=02/09
Year=2020
Discnumber=01/01

[/more]

Register
(24) ace73pq, andgrek28, cancer1974, chipsgott, Corpuscul, daemonarch, Faust_Vulkan_16, Herrant, infiltrator, kimkayoung, metala, okarodb, Olethros, Paradayz, Rhoads, samokot, SAPOGi, serjred, Shadowman, StoneTemple, TROR, Yarri, yuratroll, скептик,
Apr 1 2020, 11:00:11 Лучший советчик МА - Часть 666 (Тру-блэк)
О! У меня ещё есть отличный кандидат на Козлоблек тру номер один

Register
(1) Deze,
Apr 1 2020, 08:04:01 Лучший советчик МА - Часть 666 (Тру-блэк)
Чуяла моя душенка подобный подвох, вчера вечером не зря Bestial Warlust слушал,первый раз за десять лет.

Штоб все человеки здохли.
Sect Pig - Self Reversed [ep] (2015)
[youtube]Nq0Zl8cVNrQ[/youtube]

(1) Chasm,
Mar 28 2020, 17:10:24 Morbid Angel - Altars Of Madness (1989)
Мой номер один во всей их дискографии. Умели они на этом альбоме периодически погружать слушателя в холодную тёмную бездну, поддерживая голову и не позволяя ей полностью сгинуть во мраке. Вот эти замедляющие, убийственные моменты после динамичного запила, просто сдирают кожу заживо. Мизерная доля клавишных в нужных местах создаёт нужные акценты, это - истинный триумф тени на фоне проходящих более менее мелодичных "жизнерадостных" моментов родом из трэшевого наследия.

Альбом с невероятной концентрацией идей, взрыв которых реализовался в (повлиял на) целые стили и направления.
pray.gif
(4) FullofHate, Golodomor, THROWER666, Фо,
Mar 28 2020, 16:51:03 Лучший советчик МА - Часть 6 (Хеви) - Тур 2, Рейтингование

Вообще, девочки, принимающие участие в метал вечеринке вполне себе вменяемые, в отличие от натуральных мальчиков, снижающих баллы за неформатность.
(2) Deze, infiltrator,
Mar 28 2020, 08:46:09 Кто какие альбомы ждёт? Albums you are waiting for
Oranssi Pazuzu New album “Mestarin kynsi” is out April 17th, 2020 on Nuclear Blast Records!

Ulcerate album "Stare Into Death And Be Still", out on April 24th 2020.
(2) atom72, infiltrator,
Mar 26 2020, 14:10:51 Лучший советчик МА - Часть 6 (Хеви) - Тур 2, Рейтингование
ЦИТАТА(atom72 @ Mar 26 2020, 16:04:21) *
Deze, моё восприятие метал музыки достаточно сильно отличается от большинства по причине того что я начинал именно с электронной музыки, через техно пришёл к эмбиенту, через него к индастриалу, дабу и нойзу, и только через них к металу.

И всё это до

ЦИТАТА(atom72 @ Mar 26 2020, 16:00:19) *
помню как лет в 14 мне друг посоветовал послушать Число зверя...

Ну ты монстр!

У меня наоборот всё произошло - через метал - индастриал - электроника - эмбиент.
(2) Deze, Tular,
Mar 21 2020, 10:32:15 Catatonic Effigy - Putrid Tendency (2019)


*Artist: Catatonic Effigy
*Album: Putrid Tendency
*Year: 2019
*Genre: Experimental/Avant-Garde Death Metal/Noise/Post Metal
*Country: Australia
*Format: mp3@CBR320kbps
*Size: 146MB

Tracklist:
1.Putrid Density 10:11
2.Gravitational Lensing 05:39
3.Garakku 03:14
4.Supernova Remnant 12:54
5.Time Dilation 07:56
6.Putrid Destiny 10:42
******************************
Total playing time: 50:36



[more=Extended info]Artwork, Design – Adam J Bragg
Composed By – Marston* (tracks: 2, 5, 6), Caratti* (tracks: 1, 3, 6), Domene* (tracks: 4, 6)
Drums, Percussion – Michael Caratti
Electric Bass [Six String Electric Bass], Synth [Synths], Recorded By, Mixed By, Mastered By – Colin Marston
Electric Guitar [Seven String Electric Guitar], Electronics – Álvaro Domene

More info:https://www.discogs.com/Catatonic-Effigy-Putrid-Tendency/release/14323673

[youtube]L4CEAiD77wM[/youtube][/more]

[more=Technical info]
Input File: 02. Gravitational Lensing.mp3
Channels : 2
Sample Rate : 44100
Precision : 16-bit
Duration : 00:05:39.22 = 14959646 samples = 25441.6 CDDA sectors
File Size : 13.6M
Bit Rate : 320k
Sample Encoding: MPEG audio (layer I, II or III)
Comments :
Title=Gravitational Lensing
Artist=Catatonic Effigy
Album=Putrid Tendency
Tracknumber=2
Year=2019

[/more]

Register
(8) as71, atom72, Dirt_ORFEY, Doooomed, infiltrator, kimkayoung, Olethros, Ostinato,
Mar 20 2020, 07:37:33 Альбом 2019 года в жанре technical / progressive death. Тур1
A Million Dead Birds Laughing - To the Ether [2019]
Anachronism - Orogeny [2018] 
Blackwater Burial - The Prison of Belief [2019]
Blood Incantation - Hidden History of the Human Race [2019]
Body Harvest - Parasitic Slavery [2019] 
Carcariass - Planet Chaos [2019] 
Ceremony of Silence - Outis [2019]
Deivos - Casus Belli [2019]
Demiurgon - The Oblivious Lure [2019]
Dimaeon - Void [2019] 
Disentomb - The Decaying Light [2019]
Equipoise - Demiurgus [2019]
Fields of Elysium - In Ancient Contemplation [2019] 
Flub - Flub [2019]
Fractal Universe - Rhizomes Of Insanity [2019]
Godeater - All Flesh is Grass [2019] 
Hath - Of Rot and Ruin [2019] 
Horror God - Cursed Seeds [2019] 
Human - Alizarin Refraction [2019]
Iapetus - The Body Cosmic [2019]
Inanimate Existence - Clockwork [2019]
Kaleikr - Heart of Lead [2019]
Myelin Sheath - Self Titled (Part 1,2) [2018]
Nile - Vile Nilotic Rites [2019] 
Omnerod - Arteries [2019] 
Omophagia - 646965 [2019] 
Order Ov Riven Cathedrals - Thermonuclear Sculptures Blackness [2019]
Reasoning Reflections - Saṃsāra [2019]
Sinners Bleed - Absolution [2019] 
Svet Kant - The Visage Unbiased [2019]
Teeth - The Curse of Entropy [2019]
The Odious - Vesica Piscis [2019] 
The Ritual Aura - Velothi [2019]
Vielikan - Back to the Black Marsh  [2019] 
Vinsta - Drei Deita [2019] 
Wait - We Are in Transit [2019] [EP]
Warforged - I: Voice [2019]
(1) Язва,
Mar 19 2020, 18:11:39 Svet Kant - The Visage Unbiased (2019)


*Artist: Svet Kant
*Album: The Visage Unbiased
*Year: 2019
*Genre: Technical/Progressive Death Metal
*Country: Ireland
*Format: mp3@CBR320kbps
*Size: 118MB

Tracklist:
1.Delirium (Introitus) 01:41
2.The Throne 05:39
3.Labyrinths (of Scorn) 03:51
4.A Gaze Indifferent to Your Suffering 05:22
5.Circular 04:17
6.Faceless Being 06:12
7.An Overlapping of Feelings (part I, II, III) 07:44
8.The Cogs of Envy 04:46
9.Personae Contra Natura 07:20
10.Sea of Planets 05:07
******************************
Total playing time: 51:59



[more=Extended info][youtube]GkLImSrwJIM[/youtube]

[youtube]D1z9DmX-y00[/youtube][/more]

[more=Technical info]
Input File: 02. The Throne.mp3
Channels : 2
Sample Rate : 44100
Precision : 16-bit
Duration : 00:05:39.46 = 14970054 samples = 25459.3 CDDA sectors
File Size : 13.6M
Bit Rate : 320k
Sample Encoding: MPEG audio (layer I, II or III)
Comments :
Title=The Throne
Artist=Svet Kant
Album=The Visage Unbiased
Tracknumber=2/10
Year=2019
Genre=Metal
Discnumber=1/1

[/more]

Register
(14) chipsgott, Corpuscul, infiltrator, maochen, metala, Olethros, Ostinato, samokot, SatanicPanzer, terron, VALERY, yuratroll, Луч, Язва,
Mar 17 2020, 15:23:23 Лучший советчик МА - Часть 6 (Хеви) - Тур 2, Рейтингование
ЦИТАТА(Фо @ Mar 16 2020, 22:09:02) *
На самом деле, это очень интересно!


Наука и жизнь, техника молодёжи, искатель - всё журналы ежемесячники, прочитывались с интересом.
Помню, одиссея 2001 Кларка начали в ТМ публиковать и после начала романа в первом номере, прикрыли.
(2) infiltrator, Фо,
Mar 16 2020, 17:58:40 Лучший советчик МА - Часть 6 (Хеви) - Тур 2, Рейтингование
ЦИТАТА(Фо @ Mar 16 2020, 13:46:20) *
астрофизикой с детства увлекаюсь, в лет 10 как прочёл "Астрономия" Дины Моше.

Фо, это подозрительно.

[youtube]2wlHBPBZtF4[/youtube]

(2) infiltrator, plfan93,
Mar 12 2020, 18:21:16 Лучший советчик МА - Часть 6 (Хеви) - Тур 2, Рейтингование
Упомянуты, как обычно, наиболее заинтересовавшие композиции.

ABBand - Grizzly  - 1 Хитовый хэппи-метал.
Apocrypha - The Forgotten Scroll  - 1 Broken Dream с шикарным фридмановским соло зарешал. Во время трешевой голосовалки прослушивал сольник Tony Fredianelli, а вот и его группа, и да, Area 54 уже оч хороший трэш - медленнее, качёвее и с вырвиглазными хардовыми соло. В этом - неоклассического шреда сверх меры.
Arkham Witch - Legions Of The Deep  - 0 В Kult of Kutulu явно перебор, нельзя столько Древних одним заклинанием вызывать, они все в одну трещину Между Мирами не пролезут.
Artch - Another Return  - 0 Where I Go - неплохая баллада. В Metal Life ожидал какого нибудь прорыва, напротив, проседания динамики всё испортили. Хороший вокал, средний материал. Для разового прослушивания.
Dawnbringer - Into the Lair of the Sun God  - 0 Profound Lore Records релиз. Послушал их предыдущий, там больше блэка и ещё каких то примесей, меньше в вокале Моторхеда, и чуть поменее скучный. Совсем не пошёл альбом. Одна вещь - закрывашка запомнилась.
Diviner - Realms of Time  - 3 The Earth, the Moon, the Sun выделил бы, хотя - весь альбом хорошие вещи. Продолжительность композиций немаленькая для данного формата, предполагает некоторую развернутость и раскрытие темы, что, собственно и получилось у ребят - структура композиций усилена интерлюдиями, переходами, сложными бриджами . Высокий уровень, хороший лид вокал, хоровые распевки, несколько гитарных линий, отличные соло. В целом стабильно хорошая работа. Не совсем в рамках формата, некоторая замудренность мелодий и риффовки напомнила Nevermore.
Doctor Butcher - Doctor Butcher  - 2 Так-так, Олива и Кэффри в одном флаконе, точнее - в пакете. Примите, распишитеь. Очень хороший жесткий и кумарный хэви. Lost In The Dark отлично.
Dreadnaught - Dreadnaught - 1 Reflections в трёх частях несколько не вяжется с материалом остальным, мелодически более интересные моменты чем в остальных вещах. Есть некоторые заигрывания с альтернативой. Плюс за некоторую схожесть вокала с Forbideen. Минус за примитивную мелодику.
E.S.T. - Проба пера  - 1 Запомни, Катюша... Цепляющие мелодии, простые запоминающиеся тексты. Да - шансон, да - русский и такой родной. Проба Пера - это дурная энергетика во славу анархии. 91й год - распад СССР, павловская реформа, августовский путч, целая эпоха.
Excalibur - One Strange Night  - 1 Sick and Tired на архивах указан как инструментал, ошибка. Вдохновляющий тяжелый рок, риффы хэви, вокал глэмовый. Дорога, дальний путь, прошлое позади, чуть грустеца, в целом позитивно, и очень хорошо исполнено.
Gravestone - Back To Attack  - 1 Break Out ничего так - по ван-халленовски. Suicide - тоже хорошо.
Gun Barrel - Outlaw Invasion - 0 Соляков нет, материал раздолбайский, лениво так поют, всё у них хорошо, чувствуется. Здоровый розовощёкий хэви метал, глазу не за что зацепиться, сферическая, гладкая форма.
Hunters - Break The Rules - 0 Москвичи решили нарушить правила, но не все, а только противоречащие принципам исполнения хелловин-метала.
Katana - Heads Will Roll  - 0 Asia in Sight ничё так. В Германии более подходящие для меня тыквы растут. Шведские тыквы какие-то совсем мелкие и приторные, климат гётеборгский неблагоприятно действует.
Kryptos - The Coils Of Apollyon  - 0 Скучное мелодичное пилево.
Ligeia - Gloria  - 1 Без эмоций но и без соплей хотя бы.
Metalucifer - Heavy Metal Chainsaw  - 0 Не понял восхищений. Какой то упоротый примитив, суетливый и крикливый. От гитаристов, которых зовут Elizablumi, Elizaveat, Elizabigore и странно выглядещего вокалиста я бы не ожидал ничего, кроме традиционного хэви. Попырил их Тевтонскую аттаку, там более вменяемо.
Midnight Priest - Aggressive Hauntings  - 0 Вторичный традиционный хэви / пауэр метал.
Moahni Moahna - Temple Of Life  - 2 Амбициозным я бы назвал такой подход, оправдан в том, что альбом запоминается. Классические хардовые мелодические решения . Очень много Rainbow. Сколько же народа они на сессию использовали. 22 человека кроме основного состава трудились - натуральный оркестр с дирижером. Вспомнил старый советский мультик про слонёнка Фантика из за названия - «Штуша-Кутуша, Штуша-Кутуша, Штуша-Кутуша — страшный зверь»…
MP - Bursting Out  - 0 Fight For Your Love - лучший трек. Клишированный пауэр-аккордовый не серьёзный алко-метал.
Night Viper - Exterminator  - 1 All That Remains. Не моё, но чую, тётка голосярой столбы плавит.
Pokolgép - Totális Metál  - 0 Вообще кошмар. Самый ноль-ноль, послушал новые альбомы, т.ж. cамое, что-то с корнями в народной музыке, и древних нативных ритмах.
Sabotage - Rumore Nel Vento (Extended version 2008 of demo 1984)  - 0 Вокал на итальянском, на нём же только Тото Ктулхтуньо призывать. Криворуко как то, почти как Армяншкаф, только здесь это не к месту.
Sacred Blade - Of the Sun and Moon  - 3 Moon. Видно, что вещи в разное время писались. Хэви метал для ботанов, мудрёный и нудный? Дайте два!
Saintsbleed - The Mighty Monster  - 1 Inhabitants from Earth, Atlantis, Rise of the Psycho конечно-да. Группа образована в 97м, двое самых стойких участников выпускают альбом в 2009м, да ещё на своем лейбле - красавчеки парни, истинно тевтонская выдержка. Мрачная эпическая тяжесть в среднм темпе.
Satan's Hallow - Satan's Hallow  - 0 Железная Дева с головой Доро Пеш.
Skullview - Legends of Valor  - 2 Заинтересовал прямо со смелой восьмиминутной открывашки. Тяжелый эпичный стафф в неплохом звуке, сложные постановки, тревожный мелодизм, бешеное Землетрясение на вокале. Уникальная стилистика на грани эктремального мрачного металла с принесением технических аспектов в жертву пространственного звучания. Большой такой альбом, с размахом. Следующий альбом тоже подключил, тестирую под нагрузкой.
The Spirit Cabinet - Hystero Epileptic Possessed  - 0 Попытки в оккультный дум саботирует участник у микрофона, играющий на руку конкурентам от ортодоксальных конфессий.Фу-фу-фу так петь.
Thunder and Lightning - In Charge of the Scythe  - 1 У одного-участника=майка Illogicist. Несмотря на дибильные рожи есаулов на фотках, нормальный мелодично копытный галоп держит эскадрон.
Tyrant - Mean Machine  - 0 Банда легендарная, собирался прослушать. Послушал ещё их 88ой, он более отмороженный и видимо его фэны не приняли, мне понравился, холодный такой, безпристрастно-безысходный альбом с лиричексим настроением и, прости госпади, клавишными. В посоветованном - скучно становится уже от последующей темы, пока они ещё не доиграли предыдущую. Grapes of Wrath c натяжкой.
Vastator - Machine Hell  - 1 Reminiscence норм. Модерновый ломаный агрессивный козло-блэкспид. Вокал подходящий техно трэшу, в целом голосит сильно, хотя и перебирает в высоте. Caleuche странная вещь начинается с мелодии, с которой закончилась вещь Overkill II (The Nightmare Continues), под конец кода на перкуссии и после неё мелодия из Finally Free Дримов, я конечно за здоровое пи"женье идей, но не таких же ярких мелодий.
Vulvagun - Cold Moon Over Babylon - 0 Heart Of The Mountain небезнадёжна. Ствол этот - прямой, как кишка в заряженном состоянии.
Wizzard - Songs of Sins and Decadence  - 1 Angel de la Barthe хорошо. Вокал напомнил Сентенсед. Настоящий, чистый душой и честный в тончайших проявлениях зла в реальности, мелодичный финский анхоли-метал.
X-Wild - Savageland  - 1 Вот уж эти попытки то Кэндлмесс, то Алчемист под вывеской др. юрлица протащить, налоговые органы сатаны всё равно обнаружат и разберутся, да-да, они разберутся!111. У этих экс-Раннинг Вайлд - героический потенциал и правильные эпические отступления.
Новый Завет - Изгоняющий Дьявола  - 0 Холли метал. А вот вокалисту надо было бы принять обет молчания. В противном случае у слушателей возникает желание оскопить себе моск.

Тройки услышаны впервые.
(5) Deze, infiltrator, Penetralia, plfan93, Tular,
Mar 9 2020, 12:34:43 Лучший советчик МА - Часть 6 (Хеви) - Тур 2, Рейтингование
ЦИТАТА(Deze @ Feb 28 2020, 02:04:49) *
Skullview - Legends of Valor youtube


Качество звука на ютубе этого великолепного альбома просто возмутительное и вынуждает призвать толпу пьяных троллей наcрать под дверь господину Wanderley Costa. Рекомендую слушать этот альбом из подборки в нормальном качестве. На ютубе качество реально 96 кбит или меньше.
(4) Deze, Exorcist, infiltrator, plfan93,
Mar 6 2020, 06:56:18 Лучший советчик МА - Часть 6 (Хеви) - Тур 2, Рейтингование
Вот такое кто помнит . smile1.gif Нормально - память напрягать .

Register
(2) Alexis The Best, infiltrator,
Mar 5 2020, 17:44:17 Лучший советчик МА - Часть 6 (Хеви) - Тур 2, Рейтингование
ЦИТАТА(Deze @ Mar 5 2020, 18:36:46) *
Короче, Круиз - да! Забыл.


Deze, ты вспомнил, а поздно - уже пантеон советского хэви метал представили как монотеистический с Арией единой во главе 1488.gif
(3) Alexis The Best, infiltrator, Un4given,
Mar 5 2020, 12:51:23 Лучший советчик МА - Часть 6 (Хеви) - Тур 2, Рейтингование
Фо, с творчеством Арии после Героя Асфальта знаком настолько, чтобы представлять, что они из себя слепили и из чего, и за сколько времени. Из той эпохи Круиз просто для меня интереснее исходя из высокого профессионализма участников изначального состава, и качественного материала, сейчас же идёт речь о том, что другие тоже были. И не хуже Арии в отношении оригинальности материала. Тяжелый день - психоделия, ты прав, и к тому же вязкая тягучая и с долей экспериментала, c удовольствием переслушал. А кто у нас клепал - ВЛКСМ, у них - капитализм, какая разница, спрос рождает предложение. А этот миф о руке партии - при желании можно где угодно углядеть эту руку.

(2) Alexis The Best, infiltrator,
Mar 5 2020, 11:38:07 Лучший советчик МА - Часть 6 (Хеви) - Тур 2, Рейтингование
тоже подкину годноты

[youtube]O3qv5uXWGQY[/youtube]
[youtube]wtBloxwiNl4[/youtube]

[youtube]webaQzTuOxc[/youtube]



(2) Alexis The Best, infiltrator,
Mar 3 2020, 17:10:24 Ævangelist - Nightmarecatcher (2020)
Что-то здесь не то, элементы действительно есть от Портал, или из тела Абруптум, сравнивать же нелегко антропоморфное звучание, ориентированное на какую либо традицию, с этой музыкальной составляющей к вызыванию из двухмерных пространств Шрастра его обитателей, или прекрасных созвучий, передающих атмосферу произведений Лавкрафта.
Так или иначе, Матрон ещё ни разу не повторился - в разные периоды тяготения и влияния менялись. Пытаясь представить себе архитектуру или хотя бы геометрию оранжерей, в которых произрастают плоды его вдохновения, фантазия терпит неудачу, а мысль теряется и уплывает.
(1) NOMIDIMON,
Feb 29 2020, 16:07:36 Ævangelist - Nightmarecatcher (2020)


*Artist: Ævangelist
*Album: Nightmarecatcher
*Year: 2020
*Genre: Experimental Death/Black Metal
*Country: Finland
*Format: mp3@CBR320kbps
*Size: 119MB

Tracklist:
1.I: The Origin and End of All: Pain of the Fallen 17:34
2.II: Ceremony of Decomposition of Bodies 12:39
3.III: In the Vomb of the Chaos, Source of Life Energy 22:23
******************************
Total playing time: 52:36



[more=Technical info]
Input File: 02. Ceremony of Decomposition of Bodies.mp3
Channels : 2
Sample Rate : 44100
Precision : 16-bit
Duration : 00:12:39.11 = 33476795 samples = 56933.3 CDDA sectors
File Size : 30.5M
Bit Rate : 321k
Sample Encoding: MPEG audio (layer I, II or III)
Comments :
Title=II: Ceremony of Decomposition of Bodies
Artist=ÆVANGELIST
Album=Nightmarecatcher
Tracknumber=2
Year=2020

[/more]

Register
(48) 666days, ANGELUSARCHDAEMON, ASkyThatBurns, atavist, BERZERK, BlackTroll, cryptal, deadterror, Der_Hexer, eternald, Evgen79, Evilded, Fryz, fuoco, gena, Hell_Is_Here, Hipgnosis, Infidel, infiltrator, Irimias, kimkayoung, laTERNentrager, Leshiy666, Lux, marilin, MMMMM, multizwilling, nikolay81, NOMIDIMON, Olethros, Ostinato, Radek, randumbum, Rosen, sacredserenity, SilentNidhogg, stub888, tim47, Tino, toly1917, tOmV, unas.slayer.of.gods, VALERY, varlam4, vasiljev_sergej, vyacheslav, wreak, wtk.412,
Feb 28 2020, 19:46:27 Dejuvenation - Perceiving The Transcendental (2013)
Критических недочётов нет в записи, не говоря о материале и исполнении. Понравился альбом уже по первому прослушиванию, неожиданные ходы, ритмические сбивки, древние Ингибиторы, приплывшие из пустот Вселенной, дабы запустить Алгоритм дефрагментации человеков, композиционная структура несколько хаотичная, не последовательная headcrab.png очень здорово, когда в музыке присутствует элемент саспенса, причем в следующий момент времени неизвестно заранее, какой рифф будет сыгран, и куда развитие идеи пойдёт, и как будет применен Ядерный Суппозиторий, очень важно, в чьи руки он попадет, не известно, в руки ли, и добрые или злые.

Альбом конструктор, головоломка, можно предположить, что некоторые темы можно рандомно менять местами и я так только за такой Аномальный Эффект параллельного существования в различных измерениях, в каждом из которых последовательность музыкальных тем индивидуальна.

Смена ритма, скачки настроений, псай эмбиентные клавиши и аннигилирующие мозг завернутые темы, всё как прописано в мануале к прогрессивному техно-космическому девайсу. Положительный заряд - понравился звук гитар, плотный и разборчивый, хороший, вменяемый и приятный вокал, что уже большая редкость для русскоговорящих групп. Проблемы со звуком ударки, как уже говорилось, для группы, не имеющей ударника, уже подвиг - так сносно хотя бы забить партии. Гитаристы хорошие, без ненужного академизма, уверенно и грамотно играют. Идеи свои у ребят были, и откровенных заимствований не обнаружено, оригинальность - это хороший плюс. Всем, кто любит навороченный, мозголомный, умный прог-дет, можно вещь рекомендовать.

Каким progressive power, интересно, получился.
(1) Foneg,
Feb 27 2020, 13:52:09 Parasophisma - A Variable Invariability Varied In Dependency On Variations Caused By The Invariability Of Invariability Remains The Same When All The Variations Of Fractals Of Delight Have Be
320 mail
Register
(1) A.L.Rapsod,

23 Pages V   1 2 3 > » 
- Lo-Fi Version Support form
Copyrights and abuse reports form
Time is now: 4th April 2020 - 13:05:12