Welcome Guest ( Log In | Register )

История благодарностей участнику mirotvorets ::: Спасибо сказали: 5333 раз(а)
Дата поста: В теме: За сообщение: Спасибо сказали:
Jun 25 2022, 15:01:45 Final Light - Final Light (2022)
Альбом много мрачнее прошлогоднего Perturbator. Ни одного светлого тона. На странице BC хорошо расписано, Кент : это не только плод сотрудничества между мной и одним из моих любимых музыкантов, но и очень уникальный и единственный в жизни. Влияние COL на Perturbator очевидно. В 19м году был выпущен ремикс на совместную композицию Cygnus - Cult of Luna & Julie Christmas
(2) as71, Ghostb,
Jun 25 2022, 11:04:07 Final Light - Final Light (2022)
те же параметры

Register
(1) yuratroll,
Jun 25 2022, 10:09:17 Final Light - Final Light (2022)
Final Light is the collaborative project between James Kent (Perturbator) and Johannes Persson from Cult of Luna.

[youtube]h0TC4I_SImg[/youtube]

[youtube]L7-O236KrJE[/youtube]
(2) Ghostb, Shadowman,
Jun 25 2022, 09:53:13 Final Light - Final Light (2022)


*Artist: Final Light
*Album: Final Light
*Year: 2022
*Genre: Darksynth/Post-Metal
*Country: France
*Format: mp3@CBR320kbps
*Size: 115MB

Tracklist:
1.Nothing Will Bear Your Name 6:09
2.In the Void 8:58
3.It Came With the Water 7:17
4.Final Light 8:33
5.The Fall of a Giant 6:49
6.Ruin to Decay 10:14
******************************
Total playing time: 48:00



[more=Extended info]Final Light is the collaborative project between James Kent (Perturbator) and Johannes Persson from Cult of Luna.[/more]

[more=Technical info]
Input File: 02. In the Void.mp3
Channels : 2
Sample Rate : 44100
Precision : 16-bit
Duration : 00:08:58.18 = 23733782 samples = 40363.6 CDDA sectors
File Size : 21.7M
Bit Rate : 322k
Sample Encoding: MPEG audio (layer I, II or III)
Comments :
Title=In the Void
Artist=Final Light
Album=Final Light
Tracknumber=2
Year=2022

[/more]

Register
(28) aleon, Altkiller, artscald, as71, caro, Chasm, csgmnk, dermarsoran, Ghostb, guidanner, LiarOfAngmar, metala, nemx, oldvarg, Olethros, Ostinato, Reverend, robertho777, rydra88, sagratan, scrollbar, Shadowman, stormhatt, VALERY, vpetrov, whitebros, wreak, Zash,
Jun 23 2022, 08:27:18 Negative Plane - The Pact (2022)
Отрицательный План выдыхает тёмные недружелюбные пары аналогового кумара в стенах старой церкви накануне детского праздника. Психо, Туман или Хелловин сквозь стеклянный экран из уютного кресла, старые знакомые картины, в которые погружаешься, когда устаешь от скорости течения реальности. Просмотр некоторых фильмов ужасов из прошлого века может показаться таким затянутым, если не любишь погружаться в психоделию растянутого момента, смакуя медленное развитие плодов фантазии на грани реализма. Изящества и оригинального волшебства явно не столь много, топорная эстетика более всего выражена в однообразных приёмах и в ставке на ностальгию. Выразительных средств достаточно и в конце ты знаешь, что герои, перемазанные кровью соблюдут все положенные атрибуты, а по ходу повествования будут сказаны все известные банальности и будет много криков. И всё это было и содержание предсказуемо, тем не менее в него хочется погружаться.

Вижу здесь вдохновение и новый взгляд на творчество кумиров, исходя из опыта и собственных наработок. И так как сейчас из нашего мира смотрятся старые фильмы, так же NP под впечатлением Celtic Frost, Manilla Road, Candlemass и Messiah из эпохи, прошедшей через опыт взаимодействия c массой аллюзий, излагают свое расширенное восприятие прошлого. Делают это свежо, интересно, с развитием истории, отраженной в прекрасной осмысленной лирике и таинственном сюжете, а простор хронометража гипнотических погружных вещей  используется эффективно для проработки мелких деталей.

Альбом трудно вписать в какие то определенные рамки, у группы свое видение мира и стиль вполне узнаваем и уникален. Структуры песен необычны и хаотичны, звук плывет, вокал обработан Колодцем Дьявола, специальным эффектом, доступным только адептам темного USBM, ударные же напоминают звуком неожиданный стук в дверь в полночь перед днем Всех Святых. Все недочеты звука и приемов управляемы и исполнены в том виде, в котором задуманы. Команда тщательно потрудилась над Пактом с Многоточием, слушать плоды работы, последовавшей после десятилетия молчания, как минимум - можно не один раз. Таков План. 
(2) Daale, ent404,
Jun 21 2022, 09:24:51 King Diamond - Abigail II: The Revenge (2002)
ЦИТАТА(Faust_Vulkan_16 @ Jun 21 2022, 11:59:56) *
Полез в кладовку за диском, чуть не упал с лестницы fear.gif
Альбом звучит хорошо, но как-то пролетел незаметно.
Голос, риффы, мелодии на месте, но все какое-то скучноватое, не цепляет.


О, да. Даймонда в кладовке слушать - атмосфернее.
1488.gif
(1) Faust_Vulkan_16,
Jun 19 2022, 09:26:43 White Ward - False Light (2022)
Для личного пользования рекомендую понятие "этанол". И приятней, и обиняков, всяких непоняток - не допускается. alkash.gif
(1) Daale,
Jun 18 2022, 17:54:47 Bekor Qilish - Throes Of Death From The Dreamed Nihilism (2022)


*Artist: Bekor Qilish
*Album: Throes Of Death From The Dreamed Nihilism
*Year: 2022
*Genre: Progressive Death/Black Metal
*Country: Italy
*Format: mp3@CBR320kbps
*Size: 64MB

Tracklist:
1.Cryptic Hatred 04:32
2.Self-Destructed Destruction 03:41
3.Verminous Barrier 02:16
4.Ocean Of Malice 04:41
5.Total Infection 04:46
6.Wretched Dawn 07:05
******************************
Total playing time: 27:01



[more=Extended info]Written, performed and recorded by Andrea Bruzzone

Warr-guitar solo on "Ocean Of Malice" by Colin Marston (Krallice, Gorguts, Behold...the Arctopus)
Guitar Solo on "Self-Destructed Destruction" by Gabriele Gramaglia (Cosmic Putrefaction, Vertebra Atlantis, Turris Eburnea)
Guitar solo on "Total Infection" by Samuele Boni (Landscape Of Zeroes)
Drums on "Cryptic Hatred" by Eugene Ryabchenko (Fleshgod Apocalypse, Banisher, Castrum, Locracy)
Drums on "Self-destructed Destruction" by Romain Goulon (Sadist, Necrophagist)

Mixed and mastered by Mauro Scarfia
Sound design by Mauro Scarfia and Andrea Bruzzone[/more]

[more=Technical info]
Input File: 05. Total Infection.mp3
Channels : 2
Sample Rate : 44100
Precision : 16-bit
Duration : 00:04:47.00 = 12656700 samples = 21525 CDDA sectors
File Size : 11.6M
Bit Rate : 324k
Sample Encoding: MPEG audio (layer I, II or III)
Comments :
Title=Total Infection
Artist=BEKOR QILISH
Album=Throes Of Death From The Dreamed Nihilism
Tracknumber=5
Year=2022

[/more]

Register
(25) AlexSmith, artscald, caro, chipsgott, Daale, dermarsoran, Diocletian, grimoir, Ignativs, kimkayoung, Marek, Mencae77, metala, Olethros, OmegaBlade696, Reducer, SatanicPanzer, SilentNidhogg, stumpheavyrock, supremo, thenecromancer, VALERY, Vitald, wreak, yuratroll,
Jun 18 2022, 10:51:38 Esoctrilihum - Consecration Of The Spiritüs Flesh (2022)
Токсичный воинственный комбатант Е вдрызг разносит утверждения о своей атмо импотенции.
War Metal во всем величии нуклеоидного эквивалента
. true_black.gif

FLAC
Register


просто мп3
Register
(12) AndreFrancis, isvili, Lux, Marek, Mencae77, nemx, Occultas, Olethros, Spunkynut, Surt, WOLAND, wreak,
Jun 18 2022, 09:27:58 Esoctrilihum - Consecration Of The Spiritüs Flesh (2022)


*Artist: Esoctrilihum
*Album: Consecration Of The Spiritüs Flesh
*Year: 2022
*Genre: Black/Death Metal
*Country: France
*Format: mp3@CBR320kbps
*Size: 95MB

Tracklist:
1.Spiritüs Flesh 05:17
2.Thertrh 05:14
3.Shohih 06:59
4.Tharseîdhon 04:19
5.Scaricide 06:27
6.Sydtg 05:28
7.Aath 07:03
******************************
Total playing time: 40:47



[more=Technical info]
Input File: 02. Thertrh.mp3
Channels : 2
Sample Rate : 44100
Precision : 16-bit
Duration : 00:05:14.43 = 13866363 samples = 23582.2 CDDA sectors
File Size : 12.7M
Bit Rate : 324k
Sample Encoding: MPEG audio (layer I, II or III)
Comments :
Title=Thertrh
Artist=ESOCTRILIHUM
Album=Consecration of the Spiritüs Flesh
Tracknumber=2
Year=2022

[/more]

Register
(53) 5earcher, AlexSmith, alikkon, anotherandomofo, artscald, Ash_1980, caro, CletusVII, Cyrci, dermarsoran, GorAtheist, grimoir, Gylve, hellbibber, Ignativs, Infidel, judaz, kim666, madera, marilin, Mencae77, metala, metaljosue, Mist13Signifier, nadin85, nemx, Occultas, Old Vyaine, Orgasmik, Ostinato, Pinhead666, plfan93, Reverend, rimfrost, robertho777, sabr, SadistikSlayer, Scuns, SilentNidhogg, smes, stormhatt, stub888, supremo, TheVoidReturned, Trelledorn, VALERY, vasiljev_sergej, WOLAND, wreak, xska, Yorker, yuratroll, Авел,
Jun 17 2022, 19:47:57 Charlie Griffiths - Tiktaalika (2022)
Есть некоторые установки от Haken, эклектики и отвяза поболее, поэкспериментальнее материал, поле охвата посмелее, что ли, диапазон от пригрувленного прога до Инструмента через POS, PW, FW и массу других инфлюенций, померещится такое - даже Радиохед услышал. Масса вкусноты и пасхалок для пресветлого продупления. И я его хватаю сразу, конечно из-за того, что этот мужик был соучредителем первого альбома Linear Sphere.

FLAC 24bit/44.1kHz

Register
(3) Ignativs, Olethros, wreak,
Jun 12 2022, 11:12:30 Gardenjia - Invictvs (2022)
ЦИТАТА(mittal @ Jun 11 2022, 23:20:59) *
Музыка инспирирована творчеством DsO, хотя сабж с ними в сравнение не идёт.


Какой то процент есть, но больше Gorguts, у которого хватает отсылок к современной композиции и вообще классике, которой вдохновлялись и Лемэй, и Галассо. И учитывая то, что в предыдущих работах автор прямо указывал на использование музыки классических композиторов и современных авторов - в Навсикая от Дзё Хисаиси, например. Да и здесь есть в опиcании на странице упоминания посвящений список. Так что, конечно, DSO имеется, но это только малая часть конструкции, видимая неопытному слушателю и являющаяся частью большого трепетного преклонения перед современной и классической академической музыкой.
з.ы. Много в мыслях саундскейпов Фриппа с агармоничной фюжн-математикой Холдсворта, кстати витает.

ЦИТАТА(mittal @ Jun 11 2022, 23:20:59) *
Я при всём желании так и не смог здесь вычленить не то, что мелодию, а сколько-нибудь оформленную структуру, при этом и сложного ничего не услышал. Просто лязг и грохот без мыслей. Впрочем, у него и джент был такой же пустопорожний.


Ну не смог - и не смог, что ж поделать. Сочувствую. За линейными мелодиями здесь не стояли.
(1) HelenVaughan,
Jun 11 2022, 12:18:28 VoidCeremony - At The Periphery Of Human Realms [demo] (2022)
Philippe Tougas у нас на борту.

FLAC

Register
(5) aesteticvice, Occultas, quarantine, thenecromancer, troll_swamp,
Jun 11 2022, 12:04:13 Gardenjia - Invictvs (2022)


*Artist: Gardenjia
*Album: Invictvs
*Year: 2022
*Genre: Black Metal
*Country: Italy
*Format: mp3@CBR320kbps
*Size: 132MB

Tracklist:
1.Amore e Morte 04:24
2.Those painful bonds around me 04:11
3.Extasy and rupture 03:53
4.Archetypes of mass destruction 03:44
5.I've found your ruin and I've build a temple on it 04:59
6.A Satana 03:56
7.The host of the angels 09:19
8.Pilgrims of the black heart 07:08
9.Human limbs symmetrical sculptures 06:25
10.Trascendent tidal heights aesthetic 09:51
******************************
Total playing time: 57:50




[more=Technical info]
Input File: 02. Those Painful Bonds Around Me.mp3
Channels : 2
Sample Rate : 44100
Precision : 16-bit
Duration : 00:04:11.65 = 11097941 samples = 18874 CDDA sectors
File Size : 10.1M
Bit Rate : 322k
Sample Encoding: MPEG audio (layer I, II or III)
Comments :
Title=Those Painful Bonds Around Me
Artist=GARDENJIA
Album=Invictvs
Tracknumber=2
Year=2022
Genre=Metal
Discnumber=1

[/more]

Register
(21) AlexSmith, alikkon, Altkiller, artscald, caro, kim666, kimkayoung, Mencae77, nemx, Olethros, plfan93, Reverend, robertho777, SilentNidhogg, stormhatt, supremo, thenecromancer, VALERY, wreak, yuratroll, Zer0,
Jun 11 2022, 11:42:45 Artificial Brain - Artificial Brain (2022)
ЦИТАТА(vosmidesijatye @ Jun 10 2022, 22:17:00) *
Да какая разница что там какой то там РИМ пишет...Больно нужен он много кому. Музыку хорошую слушайте и наслаждайтесь ею, а все это тэгодгочество нафиг никому не нужно, только время теряете обсуждая это все...


Тэгологи на риме в принципе, демократичны и обозначения жанров и стилей там адекватные - их тегами удобно пользоваться для поиска новой музыки и, в общем, они назвали вещи своими именами, тем, что уже давно сложилось в отдельную нишу. Классификационная реорганизация полезна, может, какие непонятки вылезут. Black Metal обошли почему то, но он и так суров и диссонантен по природе. Продолжаем наблюдение.


ЦИТАТА(mittal @ Jun 10 2022, 23:24:21) *
У Металлики на 86-88 полно сбивок. Правомерно ли называть их стиль Dissonant Thrash Metal?


Нет, сбивки или ритмические заполнения, брейки, смены ритма и сложные рисунки - это достаточно для того чтобы был указан Djent Progressive Metal в дополнительных жанрах, что там и есть.
(1) Ghostb,
Jun 10 2022, 19:41:40 Artificial Brain - Artificial Brain (2022)
Вследствие стагнации идей самое время принятию новых ярлыков. А вот как вы думаете AB - это BDDM или МDDM hmm.gif
А так самое время выходу такого альбома - пустого по содержанию и с кучей приглашённых спецов, но зато это же DDM.
В общем, несколько раз прогнал. Услышал только шебуршание свеженькой этикетки. В топку года.
(1) mittal,
Jun 7 2022, 08:31:22 Stratovarius - Nemesis (2013)
Интересно то, что Stratovarius всегда обходились в заполнении вокальных областей одним Котипелто (рассматриваем период с ним, ранние — это совсем другая группа), обходились припевами с небольшим добавлением хорового многоголосия, как необходимым действом. И на этой работе он справляется в одиночку. Для группы, играющей в таком ортодоксальном стиле, требующем бережного отношения к новациям, хорошо, что делят сочинение между всеми участниками группы. Во-первых, чтобы заинтересовать творческим процессом всех музыкантов, во вторых - чтобы вносить разнообразие, создавать смещённый акцент на ту или иную инструментальную или вокальную партию. В зависимости от того, что основная мелодическая линия ведется басом, выделены лиды синтезаторов или преобладает романтическая баллада с яркой вокальной партией, и соответственно, можно определить, кто основной автор композиции.

Гитарист Matias Kupiainen ранее встречался в группе Fist in Fetus, необычном экстремальном prog death проекте с влиянием неоклассики. Та ещё штучка на любителя. У него самые напористые ап лифтинговые телеги 1-4, 6, 9, 11— хэдбэнгинг с мошем и повышенной мощностью запоминающихся мотивов. В его риффах преобладают модерново грувовая ломота и полиритмия. То, что начали прог добавлать в теги на этом альбоме - его вина и заслуга. Клавишник Jens Johansson может многое, очень сильный джазовый музыкант. Умеет такое, что в Страте он на полном расслабоне, сильно не выпендривается и делает работу. Написанные им вещи сильны в плане детальной проработки симфонического инструментария и разнообразия аранжировок. Порра даёт басс ин да хаус, его гитара поёт и стены кафедрального собора лучатся светом в шумном промышленном пригороде. Вокалист сопроводил альбом расслабоном  — красивый медляк If the Story Is Over для сборника Romantic Collection - сердечный, душевный и ориентирован на прекрасных дам.

В целом, отличающийся альбом от череды канонических стилевых опусов и в том числе от последующего. Прогрессивной и футуристической альтернативной концепцией с достижением новых высот оптимистичного космологического драконоведения с массой композиционных нюансов. Множеством прекрасных мелодий, неожиданных поворотов, перепаханных сэмплами и движущихся поперек ритма электро-индустриальных эффектов. Невероятной техникой и общим уровнем мастерства группы, в которой тащат — все в общем зачёте. Это прекрасная командная работа в окультуривании и прогрессивном подходе к селекции в традиционном разведении единорогов и выход за границы видимого мелодичного финского Power-Metal.
(1) vosmidesijatye,
Jun 4 2022, 18:14:10 Elenium - Eccentric Souls Anatomy (2009)
mp3 320 kb/s
Register
(2) dermarsoran, kimkayoung,
Jun 4 2022, 10:05:25 Hornwood Fell - Sgr A (2022)


*Artist: Hornwood Fell
*Album: Sgr A
*Year: 2022
*Genre: Avant-Garde Black/Death Metal
*Country: Italy
*Format: mp3@CBR320kbps
*Size: 92MB

Tracklist:
1.I O- 06:59
2.II O- 05:35
3.III O- 04:16
4.IV O- 07:28
5.V O- 10:19
6.VI O- 05:07
******************************
Total playing time: 39:44



[more=Technical info]
Input File: 05. V O-.mp3
Channels : 2
Sample Rate : 44100
Precision : 16-bit
Duration : 00:10:19.48 = 27319024 samples = 46460.9 CDDA sectors
File Size : 24.9M
Bit Rate : 321k
Sample Encoding: MPEG audio (layer I, II or III)
Comments :
Title=V O-
Artist=Hornwood Fell
Album=Sgr A
Tracknumber=5
Year=2022

[/more]

Register
(23) AlexSmith, alikkon, artscald, caro, chipsgott, Dante_D, dermarsoran, garml2, kimkayoung, Mencae77, metala, MMMMM, Olethros, Ostinato, robertho777, SilentNidhogg, stormhatt, stub888, supremo, VALERY, vasiljev_sergej, wreak, yuratroll,
May 30 2022, 09:21:17 Katharos XIII - Chthonian Transmissions (2022)
ЦИТАТА(ondrazevsi @ May 29 2022, 23:06:41) *
Thank you for the lossless release, but the site doesn't seem to open... Could you perhaps upload it elsewhere, please?



Register


Register
(4) AndreFrancis, Dante_D, ondrazevsi, SatanicPanzer,
May 29 2022, 11:59:42 Serapis - Vita Et Mors (2022)
ЦИТАТА(kefka @ May 14 2022, 08:45:27) *
*Genre: Death Metal


Это интересная EP-шка. Стиль Progressive Death Metal - было бы правильнее указать. То что Австрия - насторожило и оказалось, что действительно - Graf "Ghyuliach" Gyula - выходец из Сербии. Дюже здесь национального южного колорита добавлено, уж никак не на Австрию ориентированного. Бодрый разнообразный материал, затехниченный и с атмосферой хоровода.
(1) AHBAnep,
May 28 2022, 18:21:12 Decapitated - Cancer Culture (2022)
Начиная с 2006го года альбома их слушаю, ранние детовые альбомы суховаты и прямоваты для меня. После Blood Mantra предполагал, что Вацлав двинется в сторону умеренного приторможенного атмосферика по типу Nest и Blindness, разуплотняющих  вещей из того альбома, достаточно продолжительных,чтобы назвать их и погружными. Ан нет - скипидару подлили и, видимо, не судьба, чувак не отказался от скоростного высокотехничного скила, его использования по всему пространству выпускаемого материала.

Сразу недостатки - токсичный бабий вокал, агармоничный Флинн (который держит пиво у текущего певца Обезглавленных) - это новое. И ставшее уже привычным — синтетическая, неживая ударка, невразумительный бас. Работу за всех выполняют гитарист с вокалистом, что достаточно традиционно. Несколько напрягает движение тандема в сторону упрощения и доступности, некоторых тревожных сигналов благодушия в настроении. Хочешь или нет, динамики альбому не занимать - энергия хлещет через край. Техника неприлично крутая, звук идеальный. Шикарные соло разной степени надругательства над инструментом. Обилие взрывных, виртуозных риффов, искусно орнаментированных лихими размерами и сложными фразировками просто с избытком компенсирует все недостатки. А ещё здесь есть Just A Cigarette и умопомрачительное мракобесное соло в Suicidal Space Programme. Композиции довольно неоднородны и по стилевому наполнению, и только почерк красной линией проходит — узнаваемая манера Вацлава.

Обычно команды начинают снижать темп с возрастом. Не тот случай — у Decapitated океан злобной весёлой энергетики. Почему то захотелось заслушать старый Фир Фактори и поздний Напалм Дет. И я не то чтобы часто такую музыку употребляю, но это тот случай, когда каждый альбом жду с нетерпением.
(1) 6666666,
May 28 2022, 11:40:10 Katharos XIII - Chthonian Transmissions (2022)
FLAC, 24bit Lossless
Register


(9) aesteticvice, Ash_1980, Dante_D, Evilded, Olethros, ondrazevsi, qwninja, Requiescat, wreak,
May 28 2022, 09:36:06 Katharos XIII - Chthonian Transmissions (2022)


*Artist: Katharos XIII
*Album: Chthonian Transmissions
*Year: 2022
*Genre: Doom Metal/Post-Metal/Dark Jazz
*Country: Romania
*Format: mp3@CBR320kbps
*Size: 142MB

Tracklist:
1.Neurastenia 14:25
2.The Golden Season 10:09
3.Sine Materia 04:55
4.Chthonian Transmissions 13:20
5.From the Light of Flesh 10:26
6.Okeanos 08:40
******************************
Total playing time: 1:01:55



[more=Technical info]
Input File: 02. The Golden Season.mp3
Channels : 2
Sample Rate : 44100
Precision : 16-bit
Duration : 00:10:09.58 = 26882390 samples = 45718.4 CDDA sectors
File Size : 24.6M
Bit Rate : 322k
Sample Encoding: MPEG audio (layer I, II or III)
Comments :
Title=The Golden Season
Artist=Katharos XIII
Album=Chthonian Transmissions
Tracknumber=2
Year=2022
Genre=Metal

[/more]

Register
(26) alikkon, andreikun, artscald, as71, Ash_1980, autumnwood, avather, BlackTroll, caro, dromord, Hell_Is_Here, HMHamster, kefka, kimkayoung, metaljosue, Olethros, qwninja, Reverend, robertho777, Shadechaser, Un4given, VALERY, varlam4, wreak, yuratroll, дивин,
May 26 2022, 14:31:56 Decapitated - Cancer Culture (2022)
ЦИТАТА(BleedingSun @ May 26 2022, 17:06:17) *
не ожидал от дебютника (14ти летних пацанов!)


На момент выпуска демо-97 Витёк, самый юный имел 13 лет. Жоско, конечно . К полноформату - уже 16 лет было.
(1) BleedingSun,

48 Pages V   1 2 3 > » 
- Lo-Fi Version Support form
Copyrights and abuse reports form
Time is now: 6th July 2022 - 08:01:32