Welcome Guest ( Log In | Register )

История благодарностей участнику mirotvorets ::: Спасибо сказали: 3022 раз(а)
Дата поста: В теме: За сообщение: Спасибо сказали:
Jan 16 2021, 21:25:31 Лучший советчик МА - Часть 13 (Солянка) - Тур 2, Рейтингование
ЦИТАТА(Aresson @ Jan 15 2021, 13:40:19) *
я пока в начале алфавита)


А куда Арессон делся? Некорректные комбинации букв из алфавита составлял?



(1) Deze,
Jan 16 2021, 13:05:39 Combat Astronomy - Ultra Vire (2020)


*Artist: Combat Astronomy
*Album: Ultra Vire
*Year: 2020
*Genre: Avant-Garde/Industrial Metal/Free Jazz/Drone
*Country: United States
*Format: mp3@CBR320kbps
*Size: 103MB

Tracklist:
1.Wounds Bind Freely 07:17
2.Bullshit Satori 06:28
3.The Serpent Escalator 05:53
4.Radiation Demon 06:36
5.Ultra Vires 04:01
6.Veil of Dimensions 05:27
7.Codex 137 07:20
******************************
Total playing time: 43:02



[more=Technical info]
Input File: 02. Bullshit Satori.mp3
Channels : 2
Sample Rate : 44100
Precision : 16-bit
Duration : 00:06:28.18 = 17118650 samples = 29113.4 CDDA sectors
File Size : 15.6M
Bit Rate : 321k
Sample Encoding: MPEG audio (layer I, II or III)
Comments :
Title=Bullshit Satori
Artist=Combat Astronomy
Album=Ultra Vires
Tracknumber=2
Year=2020
Genre=Other

[/more]

Register
(5) as71, gena, infiltrator, kimkayoung, Olethros,
Jan 7 2021, 14:28:15 Лучший советчик МА - Часть 13 (Солянка) - Тур 2, Рейтингование
Ages Gone - Ages Gone  - 3 Безбашенный экстрим прог с влияниями Пэттона, Pungent Stench, киносемплами (монолог про музыку из Сталкера, часто встречающийся у исполнителей), хип-хопом и техническим совершенством Spastic Ink, вот это да, солянка. Zappaх безумия. Ух, Жарра посреди зимы! Очень ценный совет.

Amogh Symphony - The Quantum Hack Code  - 3 Индийский фокусник с экспериментальной прог фюжн формой, оборудованной электронной надстройкой, связавшей устное повествование и выразительный инструментал в красноречивый саундтрек. Хорошо известный и заслушанны до дыр альбом.

Anna Pest - The Ocean Calls Me Home (EP)  - 2 Мелодичный, энергичный альбом - да, почему бы и не да.

Azure Emote - The Gravity of Impermanence - 3 Знакомился тогда же, когда и со своим кандидатом в прог тур. Что ж, артистичная, аристократическая мозголомня. Вокалист также знаком по Divine Rapture. Музыка и идеи норм - минус за невнятный пластмассовый звук с электронными ударными на переднем плане. Тем не менее высший балл.

Beyond - Reassemble  - 0 Разреженный материал и посредственное исполнение, благодушный альбом. Crawl, Dead World, Soulstorm более качественно оголяют нерв и водят по нему холодным заостренным лезвием.

Black Boned Angel - The End  - 2 Знал эту группу из сплита с Надей. Этот альбом когда то помотал, не впечатлившись. Вещи три . Можно отзываться обо всех. Что ж, рандомная последовательность аккордов - не лучший способ построения в открывающей композиции. Во второй вещи уже получше - спонтанная диссонирующая импровизация в никуда. В III будем не просто гудеть, а применим цикличность и нагнетание атмосферы. И клавишные. По итогу номер один совсем мимо. За вторую и третью - два балла.

Braindance - Redemption  - 3 Дарквейв атмосфера, танцевальные ритмы под иллюзорные семплы, вычурная гипнотическая гитара и прекрасные вокалы. Мой кандидат, не пропущенный в готику.

Brainoil - Brainoil  - 1 Заезженные идеи, не без проблесков.

Burlak - Burlak - 0 Непотребство какое то.

Buzzard - Churp!!!  - 2 Альбом действительно недооценен. 93 год. Веер музыкальных идей на джазовой базе.

Cementerio - Luna Hiena  - 1 Оккультный злой хард кор с национальным колоритом. Да, и нормально играет басист, не пойму, почему его так называют.

Crucible - Scars Of The Hardened  - 1 Пантеры небольшой паттерненок пантерёнок. Не хватает соляков крутых от Даррела.

Dead World - The Machine  - 3 Известен ранее. Классика. Та, качественная механика из девяностых, когда гитарный звук издавался гитарами, а Тибери c Манном ещё в садик ходили.

Depressive Age - Electric Scum  - 1 Как дань определенному периоду группы, альтернативному, послушал. Понятно то, что это как раз тот депрессивный этап, такое, бывало и лучше.

Dunsmuir - Dunsmuir  - 1 Раздолбайский хэви с приятным вокалом.

Endorphins - Where Evil Lies - 0 Музыкальные идеи образца 83-го Слейер. Ну звук погрязнее.

Ewigkeit - Conspiritus  - 2 Знал. Мне у них Radio Ixtlan по душе. Хороший альбом, лиричный, насколько этого можно в индустриальную музыку внести. Рецензент на риме упомянул Пинк Флойд. Не знаю, мне больше Killing Joke слышится.

Gack - Fix  - 1 Оценка Без оценки оценки.

Gardenjia - Arkestral - 3 Очень рад здесь встретить своих фаворитов . Всё их творчество котирую. После первых альбомов где был ещё и саксофонист в составе, музыку рулит один человек, талантливый гитарист. Так и не смог выбрать, что из альбомов сюда засоветовать. Раффаель ни разу не повторился. И что он дальше замутит, никому не известно. На подходе фюнерал дум альбом под другим названием и что то типа етериал вейв.

Hebosagil - Colossal  - 2 Попырил название альбома. Понравилось. Саунд и атмосфера погружные, динамика и темп тектонического движения земной коры.

Journal - Unlorja  - 2 Давно известен, головоломка для любителей музыкальных конструкторов. Мат метал с заходами на территории кора. Что то похожее на Ever Forthright, The Safety Fire.

Kognitiv Tod - Howls From The Void - 0 Никакого экспериментального рока не услышал, ничем не примечательный рочёк.

Korovakill - Waterhells  - 2 По прежнему два балла. Не хватает градуса накала, такого, что есть в Chryst. Ранее слышал.

Legalize Crime - Beat The Law - 0 Несерьезный стеб. Не моё.

Mammothwing - Morning Light - 2 Дьявольский фузз.

Mur - Brutalism  - 1 Есть органичные слияния блэка со сладжем, элементов разных энергетических уровней - Inter Arma, Regarde Les Hommes Tomber, Сobalt, Downfall of Gaia, интересные атмосферные продукты, хоть я и не особый фэн такого, но здесь имеем любительские метания между блэком и пост--хардкором. Я округляю до один.

Neptunian Maximalism - Éons  - 2 В рамках рассылки I Voidhunger получил уведомление, поняв что продолжительность не для рабочей недели и прослушивания на бегу, отложил на время. Что ж, погружная трансовая церемония, местами так подвисающая в мертвой точке, что уже до боли хочется перемоткой вывести этот маятник из состояния равновесия. Соединены масса стилей и влияний - масштабность , два ударника, вымышленный язык. Ну хорошо, хорошо, особенно на концертных выступлениях они классно, с душой и сакральной восприимчивостью к свету гудят. От формата далеко, прорыв для I Voidhunger и выход за рамки метальных рамок - лейбл теперь тоже выпускает материал, сродни коллегам из Thirsty Ear, Tzadik, Cuneiform, может у них сейчас что то поменялось, лет пятнадцать назад релизы этих фирм забирались вслепую, по обмену.

No Made Sense - The Epillanic Choragi  - 1 Ранее слышал. Когда стремление играть наворочено мешает нормально мочить сладж.

öOoOoOoOoOo - Samen  - 1 Слащавая альтернатива подпортила впечатление. Известный ранее альбом.

Oozepus ‎- Your Limit (EP)  - 1 На память приходят первые такие ЭВМ, массивный, неповоротливый Godflesh на срипучих подшипниках.

Planet AIDS - Apokalyptik AIDS (EP)  - 2 Хорошо, но мало.Можно было бы эту вешь всё же развить минут до шестидесяти. Что ж, нас таким не испугаешь, мы уже Wormphlegm слушали. Сам подумывал что нибудь такое типа Hjarnidaudi, Drug Honkey или Zaraza вбросить, сыграло человеколюбие.

Servants Of The Apocalyptic Goat Rave - Queen Of Darkness  - 3 Вводить в гипноз пациента и внушать ему сатанинские идеи, это очень профессионально, господа, и делать это лучше всего под задорный темный транс и мелодии старого доброго блэк метала. Сатанизация-цифровизация, наше всё, нет ничего страшнее и мрачнее блэка на основе холодного бездушного индустриального ритма. Не рейвил ранее эту технологию. Рекомендую.

Shemales From Outta Space Of Death - Das Virus Ist Der Fetisch  - мои Шмели
Фиолетовый заяц от жары занемог. Занят он поиском места.
Где зарыть источник бесконечных тревог. Голосова-лок мертвое тело.

Берегись. Жа-ла. Стальных Шме-лей!
Тех, что летят. За-са-дить. На-со-вавшим но--лей! dwarf-1.gif


Spaceking - The Piper At The Gates Of Stone  - 2 Темы лирики - молчаливое созерцание.

Speedblow - Fields Of Doom  - 0 Вульгарно, не понравилось.

Stangala - Klañv  - 2 Упоротый мистический дум.

The Cyan Velvet Project - The Towers And The Blizzard  - 2 Артистично, вдохновенно, с душой, вложенной в механическую куклу.

The Hedons - Tomb Of Stars - 1 Махровая саббатовщина.

Umbah - Enter The Dagobah Core - 2 Из всего их многочисленного творчества слышал этот альбом ранее. Впечатляет. Но дальше желания знакомиться не вызывает. По экспериментам с киберграйндом всё же интереснее PSUDOKU, Genghis Tron.

Vodun - Possession  - 1 Не моё, придумано и подано профессионально.
(12) as71, Bloodn Lord, Daale, Deze, ent404, infiltrator, Old Vyaine, plfan93, randyhermit, Tular, Un4given, xax,
Jan 1 2021, 13:17:18 Лучший советчик МА - Часть 13 (Солянка) - Тур 2, Рейтингование
Все мы на форум за музыкой ходим и
и кто её любит сильней порой спорим.
Новых открытий, новых имен. Дет метал услышав, ищем готику в нем.
В поля Нефилима не лезь Самаэль. Септику Флэшу лучше виски налей.

Всратку латентную увидев вдали лучше дарквейва в бокал навали
В прошлом году мы оставили пост, фолк металом создан в голове фон.
Простите такой оксюморон, но не прошел по запырам Дарк Трон.

Всех с новым годом, скажем двадцать двадцать пока.
Хоть наши ряды поредели слегка. Будем по прежнему слушать олдскул.
Пинать модернятину, спорт метал и Tool.
Старые группы станут ближе, родней. Эй! Наверху, Чаку водки налей!

Я вас друзья от души поздравляю, Мы выжили! Мы слушали прог и мы победили!
С новыми нотами в музыкальной шкале. Бокалы наполнены так выпьем скорей.
С новыми группами, с годом Быка, к советам друзей присмотреться пора. crazy.gif

Наливай!

9.gif 9.gif 9.gif
(6) Alexis The Best, Bloodn Lord, ent404, infiltrator, Tular, металлист,
Dec 30 2020, 06:26:26 Лучший советчик МА - Часть 13 (Солянка) - Тур 2, Рейтингование
ЦИТАТА(hammer @ Dec 29 2020, 21:08:26) *
Распробовал? 1488.gif


Альбом поинтереснее, и побрутальнее солянки на думовом бульоне . Не знаю ,на какие вкусовые особенности Un4given указывал и с чем сравнивал. Я, пожалуй, ошибся, указав фантазию богатой.
(1) Johnix,
Dec 28 2020, 11:59:49 Лучший советчик МА - Часть 13 (Солянка) - Тур 2, Рейтингование
Alexis The Best, фуф, качай опять.
(3) Alexis The Best, Deze, infiltrator,
Dec 28 2020, 08:08:41 Лучший советчик МА - Часть 13 (Солянка) - Тур 2, Рейтингование
А теперь более привычный многим

Register


Начиная с индастриала попроще - около половины незнакомых альбомов.
(2) Alexis The Best, infiltrator,
Dec 26 2020, 20:44:20 Esoteric - A Pyrrhic Existence (2019)
Совершенно верно. И то, что Esoteric начиная с Maniacal Vale добавляют светлые тона в цветовую гамму, лишь усугубляет ощущение присутствия тьмы в полотне, на контрасте передаваемых оттенков.
Рука мастера ставит акценты в необходимых местах, а опасность выплывающего внезапно диссонирующего аккорда тем сильнее, чем расслабленнее слушатель в неге дружественных благозвучных гармоний.
(1) Bloodn Lord,
Dec 26 2020, 19:45:46 Esoteric - A Pyrrhic Existence (2019)
ЦИТАТА(WOLAND @ Dec 26 2020, 20:07:12) *
Да это парадокс . .

ЦИТАТА(WOLAND @ Dec 26 2020, 20:07:12) *
Немного или зажрались или расслабились .


Напряженность в музыке совсем не расслабленная и то, что они стали свою дисгармонию облекать в композиционно правильные формы, свидетельствует лишь о повышении точности настроек.

ЦИТАТА(WOLAND @ Dec 26 2020, 20:07:12) *
должна наоборот приобретать больше Эзотеричности


куда уж более .
(1) FunZombie,
Dec 26 2020, 17:03:33 Cyrax - Experiences (2020)
Навороченый ломаный прог с заходами в авангардный метал и джаз-рок. Сложная, полная необъяснимых смелых ходов, музыка на грани экспериментальных дебрей.
(1) cesar,
Dec 24 2020, 13:28:34 Лучший советчик МА - Часть 13 (Солянка) - Тур 1, Общий сбор
ЦИТАТА(ent404 @ Dec 24 2020, 15:05:17) *
сапог намазанный вазелином? по логике вещей, еще как соскользнет и с ноги тоже.
небольшая ремарочка: сапоги вообще то гуталином мажут, и выглядит хорошо и держится отлично!


Держится отлично - спроси у Восьмидесятые - он уже гуськом бегает.
(2) infiltrator, plfan93,
Dec 23 2020, 20:24:27 Лучший советчик МА - Часть 12 (МДМ) - Тур 2, Рейтингование
ЦИТАТА(FunZombie @ Dec 23 2020, 22:07:09) *
Бывают стереотипы от тех, кто в теме: например, от металлистов, которые слушали много и долго. Бывают стереотипы от тех, кто не в теме: например, от людей с академическим музыкальным образованием, любителей классической музыки, которые краем уха услышали что-то метальное.


Нет, стереотип характеризует представляемое, и будет отличаться от действительного. И по мере погружения в тему будет уменьшаться .
(2) Deze, Exorcist,
Dec 22 2020, 18:08:17 Лучший советчик МА - Часть 13 (Солянка) - Тур 1, Общий сбор
Понятно, что всяк сюда входящий рискует получить аудио копроинъекцию, и будет русская рулетка. Думаю, кто соизволил поучаствовать в таком сомнительном нетрадиционном мероприятии, осознает, ибо незнание не освобождает. Около половины альбомов упомянутых знакомы, так что не сотставит труда ознакомиться с остальными. Вообще пофиг, будут группы делиться или нет, пробовать на зуб буду всё.

Солянка - за#бис, всем - пис.
(4) Daale, FunZombie, infiltrator, Tular,
Dec 22 2020, 07:03:17 Лучший советчик МА - Часть 13 (Солянка) - Тур 1, Общий сбор
ЦИТАТА(Deze @ Dec 21 2020, 22:12:46) *
Интересно, что на РИМе этого альбома - единственного из всех! - нету. Но судя по тэгам остальных альбомов тут прог-метал с джентом. Врут, не?


Слежу за ними давно, буквально на прошлой неделе смотрел на риме было всего три альбома. Кто то с ареи наверное остальные прописал там. Но и сейчас не хватает Machina Dei, ..Of Lambs And The Machine и Arkestral, кто их там постит, фиксани.

ЦИТАТА(Deze @ Dec 21 2020, 22:12:46) *
Если джента много - засчитаю smile4.gif


Джент это не то, что на альбоме, да, Раффаель использует этот прием, но только в контексте использования семиструнки, скорее, математический прог/фюжн с кибер прослойкой.

ЦИТАТА(Deze @ Dec 21 2020, 22:12:46) *
UPD2. Используя личный админресурс и правило двух рукопожатий, выяснил, что альбом создавалася в очень мутных условиях и является мутным от рождения. Берём не глядя! smile4.gif


9.gif
Мутный, да.
(1) Bloodn Lord,
Dec 21 2020, 12:07:40 Лучший советчик МА - Часть 13 (Солянка) - Тур 1, Общий сбор
ЦИТАТА(as71 @ Dec 21 2020, 14:05:52) *
Тогда вот, это точно должно подойти:
The Nephilim - 1996 Zoon
[youtube]https://www.youtube.com/watch?v=Ycl8D-lBZOY[/youtube]


Самаелем обзовут и нулей наставят. 1488.gif
(3) Deze, FunZombie, infiltrator,
Dec 21 2020, 10:51:33 Лучший советчик МА - Часть 13 (Солянка) - Тур 1, Общий сбор
ЦИТАТА(Deze @ Dec 21 2020, 12:35:20) *
Journey - Unlorja (Dirt_ORFEY)


Journal же
(1) Deze,
Dec 20 2020, 15:26:19 Gardenjia - Egosvm (2020)
Register


(4) infiltrator, kimkayoung, Metalass, turbinus2010,
Dec 19 2020, 16:09:25 Gardenjia - Egosvm (2020)


*Artist: Gardenjia
*Album: Egosvm
*Year: 2020
*Genre: Progressive Black Metal
*Country: Italy
*Format: mp3@CBR320kbps
*Size: 126MB

Tracklist:
01....and god wept 06:55
02.Trisagium 05:07
03.Ignis 04:37
04.I 02:32
05.Theurgicam Disciplinam 05:14
06.Goēteia 04:41
07.Defixio 03:23
08.II 02:42
09.Gemente 04:14
10.U-r 04:52
11.Hýbris 06:08
12.III 02:20
******************************
Total playing time: 52:45





[more=Technical info]
Input File: 02. Trisagium.mp3
Channels : 2
Sample Rate : 44100
Precision : 16-bit
Duration : 00:05:07.43 = 13557619 samples = 23057.2 CDDA sectors
File Size : 12.4M
Bit Rate : 323k
Sample Encoding: MPEG audio (layer I, II or III)
Comments :
Title=Trisagium
Artist=GARDENJIA
Album=EGOSVM
Tracknumber=2
Year=2020

[/more]

Register
(18) AlexSmith, Bloodn Lord, csgmnk, infiltrator, Marek, Metalass, Occultas, Olethros, randumbum, Rosen, SilentNidhogg, supremo, VALERY, varlam4, vasiljev_sergej, Yngwarr, yuratroll, Сварог Барг,
Dec 19 2020, 15:41:24 Arsafes - Ratocracy (2014)


*Artist: Arsafes
*Album: Ratocracy
*Year: 2014
*Genre: Industrial/Progressive Metal
*Country: Russian Federation
*Format: mp3@CBR320kbps
*Size: 135MB

Tracklist:
01. Behold the Hydrogen Dominator (Intro) 02:16
02. E.T.F.M. 03:13
03. Against the Legions 04:02
04. Piranha Pool (As Borders Collide) 05:05
05. 20 Days 05:34
06. American War Machine 06:33
07. Dog Eat God 04:54
08. Faith 06:11
09. I Am the People, the Mob 01:35
10. Species Selector 02:41
11. Divine 14:05
******************************
Total playing time: 56:09





[more=Extended info]Roman Arsafes Vocals, Guitars, Bass, Programming, Lyrics, Songwriting

Anna Hel Vocals (track 2)
Aleksandra Radosavljević Vocals (tracks 3, 11)
Jakub Żytecki Guitars (lead, track 6)
Jay Haze Dee Vocals (backing, track 7)
David "Maxim" Micić Guitars (lead, track 8)
Chela Rhea Spoken word (track 9)
Alexander Smirnov Drums[/more]

[more=Technical info]
Input File: 02. E.T.F.M..mp3
Channels : 2
Sample Rate : 44100
Precision : 16-bit
Duration : 00:03:13.89 = 8550725 samples = 14542 CDDA sectors
File Size : 8.82M
Bit Rate : 364k
Sample Encoding: MPEG audio (layer I, II or III)
Comments :
Title=E.T.F.M.
Artist=Arsafes
Album=Ratocracy
Tracknumber=2
Year=2014

[/more]

Register
(10) as71, chipsgott, gwar, infiltrator, metala, Olethros, Rosen, varlam4, Yngwarr, Сварог Барг,
Dec 19 2020, 14:57:30 Shemales From Outta Space Of Death - Das Virus Ist Der Fetisch (2014)


*Artist: Shemales From Outta Space Of Death
*Album: Das Virus Ist Der Fetisch
*Year: 2014
*Genre: Deathcore/Nintendocore/8-Bit/Experimental
*Country: Germany
*Format: mp3@CBR320kbps
*Size: 74MB

Tracklist:
01.Terraforming 01:42
02.Youporn hat mein Gehirn gefickt 02:38
03.The Rapist Killer Task Force 02:09
04.Mutterkuchenschlacht 03:25
05.Swedish Girls Are Gorejizz 03:06
06.Anonymous 01:43
07.New Achievement Unlocked, Forever Alone 03:30
08.Kreutzberg–Jakob Disease 02:27
09.Roids 02:59
10.D-E-S-T-R-O-Y 04:29
11.Der Zeche prellende Übermensch 02:17
12.Sternenbilder 03:20
13.Nackt, zugekokst und ohne Führerschein 04:10
******************************
Total playing time: 37:55





[more=Extended info]Roman Patzke - Guitar, Production, Vocals
Julian Meinert - Vocals
Droids Official Video[/more]

[more=Technical info]
Input File: 02. Youporn Hat Mein Gehirn Gefickt.mp3
Channels : 2
Sample Rate : 44100
Precision : 16-bit
Duration : 00:02:38.64 = 6996200 samples = 11898.3 CDDA sectors
File Size : 6.41M
Bit Rate : 323k
Sample Encoding: MPEG audio (layer I, II or III)
Comments :
Title=Youporn Hat Mein Gehirn Gefickt
Artist=Shemales from outta Space of Death
Album=Das Virus ist der Fetisch
Tracknumber=2
Year=2014
Genre=Deathcore | Nintendocore | 8-bit | Electronic | Experimental

[/more]

Register
(8) as71, chipsgott, craP_cillA, DiegoMassakre, gwar, infiltrator, Olethros, Rosen,
Dec 17 2020, 14:49:57 Лучший советчик МА - Часть 12 (МДМ) - Тур 2, Рейтингование
ЦИТАТА(SAPOGi @ Dec 17 2020, 16:41:32) *
Ты им лекцию про изоляционные свойства материалов прочитал? crazy.gif


В этом туре про Ebony Tears рассказал, бесполезно, они только про резину услышали, хихикают, как идиоты и нолики рисуют.
(2) Deze, infiltrator,
Dec 16 2020, 19:59:54 Лучший советчик МА - Часть 12 (МДМ) - Тур 2, Рейтингование

M8R8K,
Нет, а ты?
(2) Deze, infiltrator,
Dec 16 2020, 18:53:22 Лучший советчик МА - Часть 12 (МДМ) - Тур 2, Рейтингование
ЦИТАТА(Daale @ Dec 16 2020, 20:11:14) *
Друже, не могу согласиться с данной претензий, если честно. В плане продакшна тут все довольно неплохо. Я даже не буду делать скидку на то, что все далал сам музыкант (как этот самый продакшн, так и запись инструментов как таковую), но просто не могу согласиться. Видал и хуже, значительно.


Хуже не берем, это не имеет предела. Здесь стиль не тот и техниека исполнения на уровне приличном. Требуется хороший звук для максимального кайфа от нюансов игры и музыки. Качнул флак, знаешь, в два ноль такой плоский невыразительный звук с попиленными частотами может только ленивый нарулить. Хотя, конечно сейчас компрессией жмут всё нещадно, реалии времени и война громкостей. Мне звук не нравится, гитара задушенная, пластиковая ударка на переднем плане, допускаю что он умышленно такого добивался, мне просто не хватает мощщи в такой записи.


ЦИТАТА(Tular @ Dec 16 2020, 20:23:38) *
mirotvorets,
сегодня дошли руки последний Oranssi Pazuzu послушать. Они как-то попроще будут crazy.gif


Что они будут 1488.gif

ЦИТАТА(M8R8K @ Dec 16 2020, 20:19:38) *
Джентльменам, которые ставят мидвинтеру ноль либо один балл требую наливать исключительно безалкогольное пиво.


Это что на аватарке твоей? Фу гадость.
(2) Daale, infiltrator,
Dec 16 2020, 18:07:59 Лучший советчик МА - Часть 12 (МДМ) - Тур 2, Рейтингование
FunZombie, ты не правильно понял . Я не говорил про атмосферу книги, имелся в виду, конечно, тип людей из того мира, сильные благородные "герои, завоевавшие космос". Советские люди той эпохи светлых идеалов. Реальность Ефремова. Книгу тоже читал лет в десять, по ночам не спал потом, страшно было. Электрические твари впечатляли.
(2) FunZombie, infiltrator,
Dec 16 2020, 17:33:13 Лучший советчик МА - Часть 12 (МДМ) - Тур 2, Рейтингование
A Canorous Quintet - Silence of the World Beyond  - 0
Каркающий Мунин бодро и задорно докладывает, что в королевстве уже средний балл зашкаливает. Гномы шлют советы, расставляют оцс-приоритеты. Эльфы борются за легализацию мелоблэк-ориентации. Бывший фей Ленни теперь фея-Лана - по итогам рейтингования. A Canorous Quintet ы поют куплеты в мдм голосованиях.

A Soul Called Perdition - Into The Formless Dawn  - 0
Не воспринимаю тарахтелку, только на мелодии сосредоточишься, они уже что то другое месят. Сумбур какой то. Много действий, пользы мало.

An Abstract Illusion - Illuminate The Path  - 3
Пост романтизм прошлой эпохи, когда космос поэтапно осваивался, и будущее с освоением других миров было не за горами, идеалистический мир, в котором не было Илона Маска, а только сильные люди с высокой нравственностью из Туманности Андромеды несли высокие мысли в открытый космос. С этой ностальгической светлой ноткой воспринялся альбом. Приятные воздушные арпеджио, эфирные мелодии.

Auberon - The Tale Of Black  - 2
Sci-Fi, Fantasy, Oblivion - тематика, облаченная в натуральную оболочку, материал живой и естественный, нескучно придуман и эмоционально подан, внезапные соло в стиле Holdsworth, как вишенка на торте.

Aurora - Eos  - б/о
Мои чудики.

Autumn Leaves - As Night Conquers Day  - 1
Имеют место быть крепкие детовые риффы, пересекающиеся с мелодическими линиями, что создает ощущение баланса. Закрывашка рвет душу. Под конец сухая аскетичность приедается, я подустал, а так единичка честнозаработанная.

Blood Rainbow - Upheaval  - 1
Позитивный настрой. Совершенно хелловиновский дед метал. Не понравилась взбалмошность гитариста, взрывные свои шреды вставляющего где надо и не надо.

Bloodshot Dawn - Demons  - 1
Грувовый модерн, технично мелодично. Лучший трек  - Demons.

Brotthogg - Echoes of the Past  - 1
Хорошие соло, суховатый материал, хотя разок показался Emperor.

Compos Mentis - Fragments Of A Withered Dream  - 2
Думовые стокилометровые темы весьма кстати разбавляют неторопливой мелодикой динамичные запилы. Попало в настроение, вот иногда что то хочется ностальгически скроенного по известным заранее наброскам, без сюрпризов. Меланхолия что надо, вполне искреннее выражение подходящих для стиля эмоций. 

Crown of Autumn - Treasures Arcane  - 2
Нарядные дамы и господа манерно вышагивают торжественный полонез, убегающие в перспективу  фрески на бесконечно уходящих вверх стенах бального зала, плетутся узорами и кружат голову в высоте, величественность обстановки, порода и масть благородства.  Дыхание прошлых лет, ретро далекое от суеты двадцатого даже века, красиво увядающая эпоха, симфония погружения в неторопливую экспрессию старины.            Что то мне здесь намного большее увиделось, чем мдм, красиво границы расширили. Очень стильная музыка. Многостильная.

Dark Oath - When Fire Engulfs The Earth  - 1
Скорее "да", чем "нет", простовато, хитово, что ещё надо для приятной компании, переслушивать вряд ли буду, перематывать не захотелось, пока слушал. 

Deathless - The Time To Be Immortal  - 0
Этих Лишенных смерти, как у Кощея время не пришло, и как у него, смерть и яйца отдельно от него. И время обрести власть над смертью своей придет с нахождением яиц своих. Или отращиванием новых, что может быть доступным только в комплектации "Гидра". Тот ещё по сложности квест. Не выгребают технически в хреновейшей записи, настоящая Perdition именно здесь, совершенно обоснованно их не дооценивают.

Decameron - My Shadow  - 0
Набор тем, связи нет, немузыкально это. Что я здесь делаю, задался я вопросом, не зная, что ждет впереди. Поздняк, обратной дороги нет.

Dies Irae - Naïve  - 2
Очень популярное у металлистов название, нашел и послушал эту мелодическую прогрессию. Даже в один голос интересно, классика, умели делать, ну да ладно. Начал вспоминать, кто, точно, тов. Фанзомби упоиминал Hieronymus Bosch, действительно, гуляют голоса инструментов, в нужных местах входя в согласие, рассредоточенная такая экивоковая мелодика. ОЦС. Небольшой передых, вынириваем, хватаем ртом воздух, дальше - хуже. 

Dispatched - Terrorizer  - 0
Впереди черная полоса болезненных звуковых вакцинаций. Крепимся.

Dulcamara - Anatómicamente Imperfecto - 1
Поступил сигнал захвата флага Dark Tranquillity, попытка прорыва обнаружена, локализована и ликвидирована. Самими же музыкантами. Крепкий средний уровень. Добротно, непритязательно и неоригинально.

Ebony Tears - Tortura Insomniae  - 0
Итак, Ebony Tears - черная полоса продолжается. Им несть числа. Они идут стеной. Только истинные адепты музыкальных советов могут оценить группы с такими электрическими названиями, уж так повелось с прог тура. Остальные, наверное, не любили физику и не хотят слышать про изоляционные свойства материалов. 

Ego Fall - Inner M  - 0
Люди работают, дурных духов изгоняют, тёмных элементалей заклинают, не будем мешать, отвлекать, поспешим к следующему совету, the end is near.

Garden Of Shadows - Oracle Moon  - 3
Так, вроде предыдущие соискатели наколдовали успешно и основательно загнали легион в стадо свиней или наоборот. Тем не менее, за дело берутся сектанты селениты, и у них получается куда эффективнее создавать погружение в сказочную вселенную, описывать картину плотной насыщенной атмосферой и передавать глубину таинственного портала, в который уносит эта музыка. Великолепный абстрактный мелодик.

Gathering of Obscurity - The Pain of Humiliation - 2
Неспешный легкомысленный флёр. 

Invisius - The Spawn of Condemnation  - 1
Неплохой башкотряс. Лучший в этом заезде. Простовато, зато весело и задорно, и хотя бы понятно, за что советован.

Khrysaor - Chaos  - 2
Симфо. Техникал. Электроннная ударка. Прекрасно для отвлеченных размышлений, фоном слушается.

Lothlorien - The Primal Event  - 3
Гитара в соло постоянном переговаривающаяся с клавишными, плетя диалог, рассказывает историю драматических отношений пушек и роз. Красивую, как Корона Осени.

Lucis Absentia - Gehenna Gate  - 1
Эти на бюджетной основе, сразу минус за реализацию. Интенсивно и напористо в основном, выведенные на передний план ударные (крайне примитивные), экзальтированный вокал, но техничный шред. Высокий процент металкора, компрессированные гитары через чур, пластиковая номинально обозначенная ритм секция. Но. Техничный шред.

Malefactor - Centurian  - 0
Опять цы-па, цы-па, гоп-ца-ца. Не серьезная самодеятельность, скучные предсказуемые ходы.

Malevolence - Martyrialized  - 2
Не то чтоб мдм, дет-дум, с мелодичной базой. С первой вещи цепляет. Красивые мелодии выплывают неожиданно и удачно к месту. Композиционное разнообразие и способность находить неожиданные интересные решения.

Midvinter - At the Sight of the Apocalypse Dragon  - 1
Начнем со статистики -альбом со средней продолжительностью вещи около 8 минут, хмм, уже что то интересное. Тэги везде - блэк. Ощущение серьёзности подхода и искреннего переживания, надрыв и душевный нерв. Ребята старались. По итогу то же что с Синирой. Неплохой материал, запись - холодновата, не Рио де Жанейро.

Mourning Caress - Imbalance - 1
Среднетемповый материал, хороший вокал. Что то хэви-готичное. На волне предыдущего тура зашел по накатанной. Не моё, но что то да.

Orpheus - So It Begins... (EP) - 0
Прямолинейный и приземленный вариант. Совсем не моё. Мимо. Апд. У них потом вполне полноценные альбомы пошли. С 13 го Orpheus Omega стали. Там не то чтоб поинтереснее, но более зрелая реализация.

Sacrilege - Lost In The Beauty You Slay  - 0
Что то не серьезное. Кустарщина какая то. Мелодик не оригинальный, обыкновенный.

Searing Meadow - Corroding From Inside  - б/о
Финский фолко-что то там ниасилил

Serenity In Murder - The Eclipse  - 3
Много симфо аранжировок в сложных построениях, сделали мне хорошо. ОЦС. 10 Февраля новый альбом, надо напоминалку на послушать.

Sinira - The Everlorn  - 1
Ведь неплохой материал, особенно околодесятиминутные эпики, но качество записи просто физический дискомфорт вызывает, с трудом воспринимается такая реализация.

Templestowe - Cimmerian  - 2
Навеяло той иттерацией IF, когда они уже не играли мдм, но ещё не сильно погрузились в альту.

The Wake - Ode To My Misery  - 0
Ритмическое однообразие, эта одна вторая утомляет. Скудозвучие и тугоритмие, я бы сказал.

Unmoored - Indefinite Soul-Extension  - 1
Прогрессивный грув, отягощённый злом техникалом, без утонченной мелодики между пальцев, эпизодически только вставки мдм. Хорошие соло, многотем, не особо утонченная аранжировка, темы довольно линейны в интенсивной подаче и в основном в низком регистре. Вокал небольшой диапазон, намеренно холодно отстраненный и безымоций это наверное и есть невыразительный, что не есть плохо. сюда подходит. Так это - тот самый, из Атома. Респект. Ненавязчивые НЛО-клавишные тоже в совокупный балл вошли.

Withering Surface - Scarlet Silhouettes  - 2
Прекрасная реализация, нестандартные построения песен и уместное применение дум-детовых элементов, гармоничные клавишные, прям таки Садистом в Pitiful Emblems повеяло, такой детовый трек. Живой натуральный олдскул, так должен звучать дет в мелодичной ипостаси.

Yuzukingdom - Dadaism  - б/0
Япония - дело тонкое, хентай стайл в аудиоформате, пожалуй, тоже найдет своего ценителя. Странно, что альбом не понравился любителям хуковости и хитовости, это же здесь есть, хоть и не вполне в традиционном ключе. More Love не безнадежна, прям синтвэем повеяло.

тройки известны были кроме Serenity In Murder.
(13) Alexis The Best, Bloodn Lord, Daale, Deze, Emm Human, FunZombie, Illogicist, infiltrator, Old Vyaine, plfan93, Tular, Un4given, xax,

33 Pages V   1 2 3 > » 
- Lo-Fi Version Support form
Copyrights and abuse reports form
Time is now: 20th January 2021 - 23:17:36