Welcome Guest ( Log In | Register )

История благодарностей участнику catarac ::: Спасибо сказали: 18 раз(а)
Дата поста: В теме: За сообщение: Спасибо сказали:
Nov 2 2019, 03:05:08 Epta Astera - Feste Burg (2019)


*Artist: Epta Astera
*Album: Feste Burg
*Year: 2019
*Genre: Folk Metal
*Country: United States
*Format: mp3@CBR256kbps
*Size: 106MB

Tracklist:
1. Salve Regina 03:58
2. Noche Oscura 09:42
3. Metanoia 05:45
4. Aletheia 06:51
5. Exsurge Domine 06:08
6. Ich Kann Nicht Anders 03:00
7. Die Mordischen und Reubischen Rotten der Bawren 07:36
8. Augsburg 10:03
******************************
Total playing time: 53:03




[more=Technical info]
Input File: 04 Aletheia.mp3
Channels : 2
Sample Rate : 44100
Precision : 16-bit
Duration : 00:06:51.40 = 18142916 samples = 30855.3 CDDA sectors
File Size : 14.6M
Bit Rate : 285k
Sample Encoding: MPEG audio (layer I, II or III)
Comments :
Title=Aletheia
Artist=Epta Astera
Album=Feste Burg
Tracknumber=4/8
Year=2019
Genre=Folk Metal

[/more]

Register
(16) aviacademy, Cartman223, chipsgott, djsema4, Druidir, gwar, kimkayoung, Mogozoz, Old Vyaine, oldvarg, Olethros, Olrak, Rosen, varlam4, zhol, Сварог Барг,
Oct 31 2019, 20:20:20 Black Road - Witch Of The Future (2019)
Хаха, ты уже точно знаешь, как это будет звучать с обложки.
(1) vosmidesijatye,
Oct 31 2019, 20:17:40 Hawkwind - All Aboard The Skylark (2019)
Я ждал этого. Спасибо!
(1) vosmidesijatye,

- Lo-Fi Version Support form
Copyrights and abuse reports form
Time is now: 19th September 2020 - 19:30:38