Welcome Guest ( Log In | Register )

История благодарностей участнику Slam91 ::: Спасибо сказали: 361 раз(а)
Дата поста: В теме: За сообщение: Спасибо сказали:
Feb 28 2021, 17:49:18 Земфира - Бордерлайн (2021)
Ну, как говорится: кто ж ещё, если не 80-й. 25.gif
(3) infiltrator, karut, Phantom_Voodoo,
Feb 21 2021, 20:52:44 Lake Of Tears - Ominous (2021)
ЦИТАТА(guard @ 21st February 2021 - 20:06:55) *
Категорически не соглашусь. "Грибы" (как и "Дорога" с "Иллвиллом") были прямолинейными альбомами. Каждая песня в альбоме была напористой (по ЛоТовским меркам). На этих альбомах ЛоТ пытались выглядеть жизнерадостными.

Ну, во-первых, я всё ж не соглашусь, ибо у меня при первом прослушивании сабжа, тоже ассоциации с "Грибами и лунами" возникли. Во-вторых, на 2007-м можно вспомнить прекрасную "Planet Of The Penguins", а потом воткнуть новинку. Ну как бы и как-то вот. Мне кажется, что-то есть.
(1) Ghostb,
Feb 21 2021, 15:57:13 Lake Of Tears - Ominous (2021)
ЦИТАТА(Ghostb @ 21st February 2021 - 12:50:19) *
Так отличный альбом же.

Ну норм, но я вроде и не оспаривал подобное. Просто многие отмечают сходство по атмосфере и т.п.
(1) Ghostb,
Feb 21 2021, 09:09:41 Lake Of Tears - Ominous (2021)
ЦИТАТА(guard @ 20th February 2021 - 20:44:07) *
Я бы сказал, впервые за долгое время это возврат к корням "А Crimson Cosmos" и "Forever Autumn".

Вообще, кто слушал, в таких сравнениях немного склоняются к "Грибам и лунам", я вот заметил.
(1) Ghostb,
Feb 21 2021, 09:06:48 Гробовая Доска - Человек Не Предназначен Для Войны [single] (2021)
Что-то ни о чём. Вроде на дебютном альбоме пободрее было. А тут какое-то всё унылое.
(2) infiltrator, john73,
Feb 19 2021, 13:03:25 Новости Black-направления
[youtube]MzD-XZ5aVbA[/youtube]

Taken from: "ЦАРЮ НЕБЕСНЫЙ" / "CARJU NIEBIESNYJ" / "HEAVENLY KING"
out: 19.03.2021
Released by: witchinghour.pl

БАТЮШКА - "ЦАРЮ НЕБЕСНЫЙ" / "CARJU NIEBIESNYJ" / "HEAVENLY KING" MLP 2021

Tracklist:
ПИСЬМО I / PISMO I
ПИСЬМО II / PISMO II
ПИСЬМО III / PISMO III
ПИСЬМО IV / PISMO IV
ПИСЬМО V / PISMO V
ПИСЬМО VI / PISMO VI

music & lyrics by BATUSHKA
(3) infiltrator, kostja, NOMIDIMON,
Feb 17 2021, 19:51:17 Lake Of Tears - Ominous (2021)
ЦИТАТА(Tarelka @ Feb 17 2021, 19:33:52) *
Кстати.....

[youtube]PkcL2MyUigU[/youtube]

Очень подходящий тред для публикации их видео.
(2) Ghostb, infiltrator,
Feb 17 2021, 11:48:04 Храм Заката - Time For Love [ep] (2017)


*Artist: Храм Заката
*Album: Time For Love [ep]
*Year: 2017
*Genre: Heavy Metal
*Country: Russian Federation
*Format: mp3@CBR320kbps
*Size: 34MB

Tracklist:
01 - Time For Love
02 - По Краю Рассвета
03 - Beatiful Sin
******************************
Total playing time: 14:59

Preview 1

[more=Extended info]Группа Храм Заката образовалась в ноябре 2003 года в городе Уральске. В 2006 году группа переехала в Саратов и занялась активной музыкальной деятельностью.

Храм Заката играет в стиле compilative metal - соединение множества стилей начиная от классического металла и заканчивая альтернативой, электронной музыкой и лирикой в образах Gothic Doom и Ambient, драйвовый, энергичный коллектив с проникновенным женским вокалом, мощными рифами и неповторимой харизмой.

Состав:
Анжелика Диденко (вокал)
Константин Суетин (гитара)
Константин Гусев (бас)
Дмитрий Хазов (клавиши)
Юрий Странник (барабаны)

Официальное сообщество Вконтакте https://vk.com/hram_zakata[/more]

[more=Technical info]
Input File: 03. Beautiful Sin.mp3
Channels : 2
Sample Rate : 44100
Precision : 16-bit
Duration : 00:04:07.62 = 10920130 samples = 18571.6 CDDA sectors
File Size : 9.99M
Bit Rate : 323k
Sample Encoding: MPEG audio (layer I, II or III)
Comments :
Title=Beautiful Sin
Artist=Храм Заката
Album=Time for Love (EP)
Tracknumber=03/03
Year=2017
Genre=Heavy Power Metal

[/more]

Register
(10) after21allD, caro, HMHamster, infiltrator, Morgarten, Olethros, VALERY, varlam4, wreak, Yngwarr,
Feb 17 2021, 10:09:34 Lake Of Tears - Ominous (2021)
Альбом 10 лет готовился с великой целью: почитать комменты на МАшке.

Вчера когда релиз слушал, предвкушал как буду наслаждаться многостраничным чтивом, ибо от услышанного была закономерная реакция: смех в предвкушении бомбежа других. 25.gif

Пойду разогрею поп-корн.
(5) Ghostb, infiltrator, paganheart, Thiarnan, vosmidesijatye,
Feb 16 2021, 17:57:26 Храм Заката - Mmxxi (2021)


*Artist: Храм Заката
*Album: Mmxxi
*Year: 2021
*Genre: Heavy-Metal
*Country: Russian Federation
*Format: mp3@CBR320kbps
*Size: 155MB

Tracklist:
01. Intro
02. Lost Dead Town
03. Simulation
04. В Туманах Дней
05. Sense of a Lifetime
06. Leaving Time
07. Сын Огня
08. Russian Attack
09. Under the Moon
10. Книга Жизни
11. Земля Гроз
12. Кода
******************************
Total playing time: 1:07:12

Preview 1

[more=Extended info]Группа Храм Заката образовалась в ноябре 2003 года в городе Уральске. В 2006 году группа переехала в Саратов и занялась активной музыкальной деятельностью.

Храм Заката играет в стиле compilative metal - соединение множества стилей начиная от классического металла и заканчивая альтернативой, электронной музыкой и лирикой в образах Gothic Doom и Ambient, драйвовый, энергичный коллектив с проникновенным женским вокалом, мощными рифами и неповторимой харизмой.

Состав:
Анжелика Диденко (вокал)
Константин Суетин (гитара)
Константин Гусев (бас)
Дмитрий Хазов (клавиши)
Юрий Странник (барабаны)

Официальное сообщество Вконтакте:https://vk.com/hram_zakata[/more]

[more=Technical info]
Input File: 04 - В Туманах Дней.mp3
Channels : 2
Sample Rate : 44100
Precision : 16-bit
Duration : 00:05:56.10 = 15703922 samples = 26707.4 CDDA sectors
File Size : 14.6M
Bit Rate : 329k
Sample Encoding: MPEG audio (layer I, II or III)
Comments :
Artist=Храм Заката
Album=MMXXI
Tracknumber=04
Year=2021
Genre=Compilative Metal
Discnumber=1

[/more]

Register
(16) after21allD, Aresson, caro, Exordium, infiltrator, Olethros, postal67, randumbum, Rover, stumpheavyrock, Taakeferd, VALERY, varlam4, wreak, Yngwarr, Сварог Барг,
Feb 12 2021, 12:36:29 Humanity's Last Breath - Välde (2021)
Скачать Mediafire 320
ЦИТАТА
(1) kimkayoung,
Feb 11 2021, 18:47:40 Humanity's Last Breath - Välde (2021)


*Artist: Humanity's Last Breath
*Album: Välde
*Year: 2021
*Genre: Deathcore
*Country: Sweden
*Format: mp3@CBR320kbps
*Size: 118MB

Tracklist:
01. Dödsdans 1:34
02. Glutton 3:37
03. Earthless 4:58
04. Descent 4:27
05. Spectre 4:50
06. Dehumanize 5:23
07. Hadean 4:22
08. Tide 5:08
09. Väldet 2:57
10. Sirens 4:23
11. Futility 4:06
12. Vittring 5:34
******************************
Total playing time: 51:19

Preview 1
Preview 2

[more=Extended info]Music written, produced, mixed and mastered by Buster Odeholm at Impact Studios[/more]

[more=Technical info]
Input File: 08 Tide.mp3
Channels : 2
Sample Rate : 44100
Precision : 16-bit
Duration : 00:05:08.94 = 13624298 samples = 23170.6 CDDA sectors
File Size : 12.4M
Bit Rate : 320k
Sample Encoding: MPEG audio (layer I, II or III)
Comments :
Title=Tide
Artist=Humanity's Last Breath
Album=Välde
Tracknumber=08/12
Year=2021-21-20
Discnumber=1/1

[/more]

Register
(8) atavist, Doooomed, Femto, Lukittaz, okarodb, Olethros, WOLAND, wreak,
Feb 11 2021, 18:23:36 Гран-Куражъ - Эпохи, Герои И Судьбы (2021)
Этих любопытно послушать будет.
Вокалист же:
[youtube]KVYuJ-y-01Y[/youtube]

И даже на Евровидении спiвал когда-то. 25.gif
(2) infiltrator, Ogidni,
Feb 11 2021, 08:23:38 Epica - Omega (2021)
Вот это будет любопытно. "Rivers" очень понравилась.

UPD. Настало время первых впечатлений. Начну с плохого(для кого-то): 07 и 09 - не перепрыгнули. Это уже не та Эпика. И вообще.

Хорошее: перерыв пошёл на пользу. Немного переосмыслили, почесали репу или что там Янсен обычно чешет, когда сочиняет. 25.gif
Есть неожиданные ходы. Хоров много завезено. Немного этнической мелодики насыпали, но фрагментарно. Обязательный "эпик" оставил смешанное впечатление, но зато там есть бластбитов немного. В основе альбома, скорее среднетемп, плюс минус. Ближе к концу, найдутся и скоростные темы, но без сухой мастурбации. Вообще, до конца пока не понял куда движется группа. Показалось, что в сторону более доступной для масс музыки, но скорее всего, я жестоко ошибаюсь. Надо ещё послушать.

И да, по звуку показалось что смешали 07, 12 и 14. Вывели среднее, и реализовали. Слушаю дальше.

Кстати, Симона здесь очень хорошо поработала. Прям постаралась.
(1) Thiarnan,
Feb 10 2021, 22:20:37 Epica - Omega (Deluxe Edition) (2021)


*Artist: Epica
*Album: Omega (Deluxe Edition)
*Year: 2021
*Genre: Symphonic Metal
*Country: Netherlands
*Format: mp3@CBR320kbps
*Size: 201MB

Tracklist:
CD1:
01. Alpha - Anteludium - (1:38)
02. Abyss of Time - Countdown to Singularity - (5:20)
03. The Skeleton Key (5:06)
04. Seal of Solomon (5:28)
05. Gaia (4:46)
06. Code of Life (5:58)
07. Freedom - The Wolves Within - (5:37)
08. Kingdom of Heaven Prt. 3 - The Antediluvian Universe - (13:24)
09. Rivers (4:48)
10. Synergize - Manic Manifest - (6:56)
11. Twilight Reverie - The Hypnagogic State - (4:29)
12. Omega - Sovereign of the Sun Spheres - (7:06)

CD2 - Acoustic:
01. Rivers (Acapella) (4:34)
02. Abyss O' Time (4:13)
03. Omegacoustic (4:29)
04. El Codigo Vital (3:50)
******************************
Total playing time: 1:27:42

Preview 1
Preview 2
Preview 3

[more=Technical info]
Input File: 05. Gaia.mp3
Channels : 2
Sample Rate : 44100
Precision : 16-bit
Duration : 00:04:47.03 = 12657847 samples = 21527 CDDA sectors
File Size : 11.5M
Bit Rate : 320k
Sample Encoding: MPEG audio (layer I, II or III)
Comments :
Title=Gaia
Artist=Epica
Album=Omega
Tracknumber=05/12
Year=2021
Discnumber=1/2

[/more]

Register
(2) Aresson, matiasvoltaje,
Jan 22 2021, 12:08:43 Magnetic Storm - My Own War (2021)
ЦИТАТА(6666666 @ 22nd January 2021 - 00:31:58) *
Наверняка. Но проверить надо.

Не поленился послушать. Честно скажу, что много времени на прослушивание не тратил, ибо не так интересно было, но чисто для приличия хотя б.
Вообще, считаю грув-метал - довольно бесполезным жанром. При том, что я дико уважаю Пантеру, но вот именно из-за Пантеры и не вижу смысла в других группах в этом жанре (за ооооочень редким исключением).

Причины:

1) Пантера уже давным давно сыграла всё самое лучшее.
2) Как правило, играя подобный жанр, группы часто забывают про сам грув, про работу с ритм-секцией.
3) Сонграйтинг это вообще отдельная тема. А если ещё и приставка модерн, то вообще тушите свет. 25.gif

В сабже вроде бы всё неплохо, но я не нашёл ни одной причины, почему я мог бы послушать альбом от корки до корки. Не интересно, скучно, сухо, скупо и в принципе не нужно.
(1) Metalass,
Jan 21 2021, 12:57:57 Therion - Leviathan (2021)
ЦИТАТА(vosmidesijatye @ 21st January 2021 - 12:42:34) *
Маловат хронометраж в этот раз, мелковат... 15.gif

Что ты скажешь на это? 25.gif
(8) Deze, Druidir, infiltrator, Old Vyaine, Phlebotomized, Samaritianin, Thiarnan, Vardlokkur,
Jan 21 2021, 12:27:12 Alkonost - Ведомые Ветром (2021)
По первому прогону, альбом никакой вообще. Фоновая бубнилка, со струйками зефира. Фит с Петри - норм. Попозже ещё прогоню альбом, но чёт пока не радует...
(2) lafuma, nynax,
Jan 20 2021, 18:51:46 Д.и.в. - Ретроспектива [compilation] (2021)
ЦИТАТА(vosmidesijatye @ 20th January 2021 - 18:43:45) *
Так че там у этих фашей которые када то давно были культом, самое топовое чтобы послушать?

Что понравится по обложке. 25.gif
(5) cesar, infiltrator, karut, Old Vyaine, Shadowman,
Jan 11 2021, 15:27:41 Мария-Режина - Конец Пути (2020)


*Artist: Мария-Режина
*Album: Конец Пути
*Year: 2020
*Genre: Heavy-Metal/Hard Rock
*Country: Russian Federation
*Format: mp3@CBR320kbps
*Size: 82MB

Tracklist:
01. Топика
02. Время как стрела
03. Конец пути
04. Тревожная прогулка
05. Провинциальный джайв
06. Лето 73
07. Встреча
08. Смертельные гонки
09. Оранжевые дни
10. Старые гоблины
******************************
Total playing time: 39:33


Onerpm

[more=Extended info]Перед Вами третий полноформатный альбом ставропольской рок-группы «Мария-Режина» – «Конец пути». Аналоговый. Ритмичный. Преисполненный духом городских легенд, тёплых летних ночей и ностальгических мотивов – наверняка, каждый найдёт в нём что-то своё.

В записи участвовали:
«Мария-Режина»: музыка
Эдгар Смертин: вокал (2-10), гитара (1-10), тексты (2-10)
Владислав «Ego Underlock» Гаврилович: бас-гитара (1-8, 10)
Антон Каратов: ударные (1-8, 10)
Psybolord: клавишные (9)
Кирилл Евсеев: соло-гитара (7)
Игорь Рзаев: клавишные (4, 6), гитара (9)
«Старые гоблины»: слова и мотив – Артём Близнюков/ Эдгар Смертин
«Лето 73»: слова – Эдгар Смертин/Михаил Ваганов
В песне «Конец пути» присутствует музыкальная аллюзия на композицию Серёжи Хомина «Кинолекарства»

Holy Tube Studio: сведение и мастеринг
Revolvers-studio: запись

Автор сюжетов и символики: Эдгар Смертин
Художник: Антон Николаев

* тексты песен выложены в «обсуждениях» сообщества.

Альбом «Конец пути» не будет выпускаться на физическом носителе, но, если он крепко запал Вам в душу и Вы хотите максимально приблизить съёмку клипа (а то и выход альбома №4) – не задумываясь сбрасывайте сколько не жалко на реквизиты, указанные ниже.
По достижении недостающей суммы мы сразу же возьмёмся за дело, по всем вопросам пишете в сообщения сообщества.

Подписывайтесь на наше сообщество ВКонтакте, ждём ваших комментариев, ну и, конечно, МАКСИМАЛЬНЫЙ РЕПОСТ!!!

Реквизиты: 676280609014771188
Либо по номеру телефона: 89887003316
Ирина Валерьевна Н[/more]

[more=Technical info]
Input File: 03 - Конец Пути.mp3
Channels : 2
Sample Rate : 44100
Precision : 16-bit
Duration : 00:04:24.34 = 11657394 samples = 19825.5 CDDA sectors
File Size : 10.7M
Bit Rate : 324k
Sample Encoding: MPEG audio (layer I, II or III)
Comment : 'Genre=Other'

[/more]

Register
(19) A.L.Rapsod, Aresson, caro, dan22, Foneg, infiltrator, oldvarg, Olethros, postal67, randumbum, Rosen, Scuns, Taakeferd, VALERY, varlam4, voldemar13, wreak, Yngwarr, Сварог Барг,
Jan 3 2021, 11:01:05 Mechina - Siege (2021)
ЦИТАТА(дивин @ 3rd January 2021 - 10:35:37) *
с чего нужно начать знакомство

Во многом зависит от того, что ты ожидаешь там услышать. Но лично от себя, я бы порекомендовал начать знакомство с альбомов: 2015 - Acheron и 2016 - Progenitor.
Почему? Потому что, многие отзываются об этих альбомах, как о самых лучших. Потому что там более-менее золотой баланс между звучанием, аранжировками, наполнением всякой всячиной, ну и самый такой, относительно зрелый материал. Только слушай оригиналы, а не переиздания в составе "Compendium".
(5) Lucifer, Shadowman, дивин, Сварог Барг, скептик,
Jan 2 2021, 11:18:45 Mechina - Siege (2021)
Послушал больше половины альбома. Сплошной фимейл-войс. Ничего интересного не замечено. От слова совсем. Ни по музыке, ни по мелодиям, НИ-ЧЕ-ГО. Тиберий видимо решил обмочить себе лицо, или фанатам, или бренду своему. Печаль. Получается, два альбома к ряду уже. Но бог любит троицу, или не любит? 25.gif
(2) infiltrator, MeatWolf,
Dec 18 2020, 16:29:18 Death - Leprosy (1988)
Грибановский:
[youtube]BXr1W1qupiw[/youtube]
(1) Occultas,
Dec 15 2020, 19:13:18 Daniel Tompkins - Ruins (2020)
Альбом раз пять прослушал от корки до корки. Вот если просто слушать, целиком, то фоном вообще норм идёт. Если начинать вникать, то немного сложнее. Какие-то красивые и приятные моменты проскакивают, но в целом не сказать, что прям крепко.
(2) Bloodn Lord, Metalass,
Dec 9 2020, 11:15:43 Харизма - Делай Рок! (2020)
Какой-то... Господи, я даже не знаю как это описать. Вообщем, для тех, кто слушает музыку под пивко, тряся пузом и немытыми патлами, самое то. Ну фоном пожужжать ещё, может быть. Но не более. Поддерживаю, что начинали за здравие, а сейчас даже и сказать нечего.
(1) Ghostb,

5 Pages V   1 2 3 > » 
- Lo-Fi Version Support form
Copyrights and abuse reports form
Time is now: 3rd March 2021 - 08:50:17