Welcome Guest ( Log In | Register )

История благодарностей участнику wn129aa ::: Спасибо сказали: 76 раз(а)
Дата поста: В теме: За сообщение: Спасибо сказали:
Sep 25 2020, 09:21:49 Excruciate - Mutilation Of The Past [demo] (1990)
Register


Exclusive to this CD is the 2001 Excruciate demo track "Decepted By The Church", originally composed in 1992, as well as two songs of the early project of Excruciate members called Korgüll, "The Mortuary" and "Sabbath", written in 1990.
(3) thenecromancer, Wail, wendigo,
Jul 29 2020, 07:50:35 Beyond Shadows - Wolf's Blood [ep] (2020)


*Artist: Beyond Shadows
*Album: Wolf's Blood [ep]
*Year: 2020
*Genre: Melodic Death Metal
*Country: United States
*Format: mp3@CBR320kbps
*Size: 53MB

Tracklist:
1. Never an Answer 05:23
2. Wolf's Blood 07:08
3. Regret is my Name 05:26
4. Screaming Eyes (Go Unheard) 06:28
******************************
Total playing time: 24:25

[more=Technical info]
Input File: 01-beyond_shadows-never_an_answer-64cfa6d5.mp3
Channels : 2
Sample Rate : 44100
Precision : 16-bit
Duration : 00:05:23.39 = 14261499 samples = 24254.2 CDDA sectors
File Size : 13.1M
Bit Rate : 323k
Sample Encoding: MPEG audio (layer I, II or III)
Comments :
Title=Never an Answer
Artist=Beyond Shadows
Album=Wolf's Blood
Tracknumber=1/4
Year=2020
Genre=Death Metal

[/more]

Register
(14) AHBAnep, chipsgott, infiltrator, Mares, Mogozoz, oldvarg, Olethros, Rosen, sergsazan, stumpheavyrock, VALERY, varlam4, wreak, zhol,
Jul 19 2020, 08:05:59 Carnal Ruin - Gnosis Of Immortal Domain [compilation] (2020)


*Artist: Carnal Ruin
*Album: Gnosis Of Immortal Domain [compilation]
*Year: 2020
*Genre: Old School Death Metal
*Country: United States
*Format: mp3@VBR270kbps
*Size: 58MB

Tracklist:
1. Horrid Mass 4:02
2. Trapped In The Nethertoms 4:39
3. War Emblem 3:45
4. Pyres Of Atonement 4:09
5. Stone Circle Evocatio 4:27
6. Desperation 3:44
7. Burial Grounds 3:26
******************************
Total playing time: 28:12

[more=Extended info]Great death metal from Tampa, Florida.
This album is a compilation with the first EP "Immortal Domain" and the
demo "Gnosis of the Dead".[/more]

[more=Technical info]
Input File: 01-carnal_ruin-horrid_mass.mp3
Channels : 2
Sample Rate : 44100
Precision : 16-bit
Duration : 00:04:02.70 = 10703202 samples = 18202.7 CDDA sectors
File Size : 8.16M
Bit Rate : 269k
Sample Encoding: MPEG audio (layer I, II or III)
Comments :
Title=Horrid Mass
Artist=Carnal Ruin
Album=Gnosis of Immortal Domain
Tracknumber=1/7
Year=2020-00-00
Genre=Death Metal

[/more]

Register
(20) 555, AHBAnep, andreikun, Bzth, Hell_Is_Here, infiltrator, killingod, Lukittaz, Mist13Signifier, Olethros, pabedit, Rosen, scorpionmk, stumpheavyrock, THROWER666, VALERY, varlam4, vyacheslav, Wail, wreak,
May 29 2020, 18:51:40 Grave Digger - Fields Of Blood (2020)
QUOTE(metalboll @ May 29 2020, 13:07:37) *
Приятный Альбомчик ! Хороший


На обложке сам Уиллиам Уоллес and co (кто помнит фильм "Braveheart" 1995.г)
pray.gif
(1) maxmagmas,
Apr 29 2020, 08:38:13 Malduguns - Pēddzinis (2011)
Reuploaded for now.

Register
(3) as71, ripper33, wendigo,
Feb 28 2020, 05:11:21 Salna - Krampus Nakts (2020)
1. Снежной зимой.
2. Просыпается древний зверь.
3. Пока все тихо.
4. Krampus идет (так зовут зверя).
5. Bloody hellfest 25.gif
6. Krampus уже сдесь.
7. Наелся.
8. Растворяется как призрак.
(2) infiltrator, Samaritianin,
Feb 21 2020, 11:15:45 Guardians Of The Night - Sand Of The Styx (2019)
nono.gif
Детская копия известных детей.
Для внутреннего пользования (Япония, Ю. Корея).
(1) Metalass,
Feb 3 2020, 06:53:28 Savage Deity - Beyond The Sanctum (2017)
Sehr gut.
(1) Occultas,
Jun 7 2019, 08:20:52 Geoda - Here And Now (2019)
Приятный мелодичный прогрессив.
Жаль неможно вокал отключить.
(1) realexxx75,
Mar 22 2019, 06:15:43 Endymion - Forever Lost [ep] (2019)
Приятный музончик.
(1) Ingvar,
Jul 24 2018, 14:11:59 Jungle Rot - Jungle Rot (2018)
Узнал о них только в 2018. Все творчество переслушал. Этот альбомчик запомнится. В класику. В сборную. И на необитаемый остров. Молодцы 9.gif
(1) vosmidesijatye,
Jan 13 2018, 09:04:28 Nokturnal Mortum - Marble Moon [ep] (1997)
Nokturnal Mortum-2003-Return of the Vampire Lord-Marble Moon

Register


CBR 192
(2) Aresson, infiltrator,
Jan 12 2018, 20:07:58 Gorgon - The Spectral Voices (2000)
Register


VBR
(1) dermarsoran,
Jan 12 2018, 20:04:43 Gorgon - The Jackal Pact (1998)
Register


320
(5) dermarsoran, infiltrator, jorgeguldur, thenecromancer, vasiljev_sergej,
Jan 12 2018, 14:27:07 Vicious Crusade - Forbidden Tunes (2002)
Register


CBR 192
(1) Сварог Барг,
Jan 12 2018, 14:21:44 Аркона - Лепта (2004)
Register

VBR
(1) Aresson,
Jan 10 2018, 08:12:49 Raintime - Tales From Sadness (2005)
Register


Source..: CDDA Quality.: VBR / 44,1 / Joint-Stereo
Date....: May-02-2005 Size....: 73,4 MB
Tracks..: 08 Playtime: 41:52 min
(1) pirata,
Jan 8 2018, 08:13:12 Северные Врата - Отчизна (2000)
Register


320
(2) Aresson, fabriziomagno,
Jan 8 2018, 08:10:27 Северные Врата - На Войну (2001)
Register


320
(1) Aresson,
Dec 21 2017, 22:13:02 Aldaria - When The Time Has Come [single] (2017)
'Freedom call' clone? Let's wait for a full album.
(1) Foneg,
Nov 29 2017, 07:56:39 Starblind - Never Seen Again (2017)
Не сразу, но удалил.
(1) Storky,
Nov 10 2017, 12:07:18 Battagia - Cockroach Meat [demo] (2001)


*Artist: Battagia
*Album: Cockroach Meat [demo]
*Year: 2001
*Genre: Heavy Metal/Hard Rock
*Country: Finland
*Format: mp3@CBR192kbps
*Size: 39MB

Tracklist:
01. Suicide City 4.26
02. Sweet Darling Underground 4.41
03. Face To The Wall 3.54
04. Can't Get My Love 5.05
05. Bang Na Chang 0.33
06. Wall Of Women 5.40
07. Blind In Texas (WASP cover) 4.29
******************************
Total playing time: 28:48

[more=Extended info]Self-Released[/more]

Register
(3) Rosen, varlam4, wgs73,
Oct 29 2017, 15:56:15 Midnight - Sweet Death And Ecstasy (2017)
Неплохая банька! 25.gif
(2) infiltrator, neoatheist,
Oct 21 2017, 18:23:40 Ilium - Sirens Of The Styx: Re-Styxed (2017) (1) boby9052,
Apr 14 2015, 11:53:18 Skyforger - Senprūsija (2015)
Альбом шикарен.
На LIVE группа не по детски отжигает! Всем советую. С пивом без пива но на рокконцертах проявляется вся мощь группы.
(1) oyhra_blood,

2 Pages V   1 2 >
- Lo-Fi Version Support form
Copyrights and abuse reports form
Time is now: 1st October 2020 - 03:32:57