Welcome Guest ( Log In | Register )

История благодарностей участнику canadaspaceman ::: Спасибо сказали: 2865 раз(а)
Дата поста: В теме: За сообщение: Спасибо сказали:
Aug 3 2021, 20:05:22 Diamoth - Dead Regime [compilation] (2012)


*Artist: Diamoth
*Album: Dead Regime [compilation]
*Year: 2012
*Genre: Black Metal/Death Metal
*Country: Chile
*Format: mp3@CBR320kbps
*Size: 08MB

Tracklist:
1. Into Destruction (instrumental) (2:42)
2. The Grave of Souls (3:28)
3. Tiempos Apocalípticos (2:53)
4. Warfare Inside (4:34)
5. Solace (5:50)
6. Infection (6:37)
7. Vade Retro (4:59)
8. River of Distress (4:55)
9. Forgive and Forget (5:45)
******************************
Total playing time: 41:43

[more=Extended info]Country: Chile (Arica, Arica y Parinacota)
Formed in: 2002
Lyrical themes: Christianity, Social issues
Years active: 2002-2013, 2017-present

EAC cd rip

Catalog ID: SGR018
Label: Sanctus Gladius Records

#1-5 from the "After Darkness" EP (2011)
#6-9 from the "Vade Retro" demo (2012)


https://diamoth.weebly.com/
https://www.metal-archives.com/bands/Diamoth/63521

Compilation Appearances:
- "Warfare Inside" on Diminishing Diabolical Strongholds Vol. 2 (Unblack Metal Scene Records)
- "The Grave of Souls" on Diminishing Diabolical Strongholds Vol. 3 (Unblack Metal Scene Records)[/more]

[more=Technical info]
Input File: 01 Into Destruction (instrumental).mp3
Channels : 2
Sample Rate : 44100
Precision : 16-bit
Duration : 00:02:42.39 = 7161223 samples = 12179 CDDA sectors
File Size : 6.75M
Bit Rate : 333k
Sample Encoding: MPEG audio (layer I, II or III)
Comments :
Title=Into Destruction (instrumental)
Artist=Diamoth (Chile)
Album=Dead Regime Compilation CD
Tracknumber=01/9
Year=2012
Genre=Christian-UnBlack Metal-Death Metal
Discnumber=1/1

[/more]

Register
(1) thenecromancer,
Jul 29 2021, 21:12:43 Mordred - First Demo [demo] (1986)
Thanks to the original uploader.
I got this maybe from the Thrashmageddon site in 2008.
I added a bunch of 1985 flyers.
ULOTZO LINK
Mordred 1986 Rehearsal demo [Steve Scates-vocals] [320[
size:39.8 MB
16 minutes 43 seconds
1. Severe & Splice (3:23)
2. Mordred (3:53)
3. To There and Back (5:41)
4. Spellbound (3:46)
Register


(3) Marek, METALHUNTER, thenecromancer,
Jul 29 2021, 06:34:58 Divus Kirius - Demo [demo] (2008)
Divus Kirius (Ven) 2008 Demo [320]

https://www.metal-archives.com/bands/Divus_Kirius/127952

Found on web/internet
Thanks to the original uploader,
https://metalextremovenezolano.blogspot.com...o-2008.html?m=0
Register
(1) GorAtheist,
Jul 27 2021, 08:24:39 Thrashin' Gun - Guerra Miseria Y Dolor [demo] (2010) (1) thenecromancer,
Jul 17 2021, 23:47:39 Today Needed
QUOTE(rickzammuto @ Jul 16 2021, 18:32:22) *
This is the same guy with numerous MA accounts, entirely illegal.

They keep asking for the same releases, the wrong way, over and over and over, many of their accounts have been put in jail for decades. poster_ban.gif poster_ban.gif poster_ban.gif

yeah, i don't understand it either, because I once made a request post here for something, and people gave me shit, and told me this topic was for re-uploads only,
and new requests are to be made by creating a new request topic here in this section -> Requests
but this guy DestroWWA (or whatever his new name will be tomorrow), does anything he wants to.
(5) infiltrator, Mucupurulence, Occultas, rickzammuto, thenecromancer,
Jun 29 2021, 00:55:52 Oblivion - Quest For Power [demo] (1986)


Oblivion (US-FL) 1986 Quest for Power Demo [12''EP,2013]
Genre: Power / Speed MetaL
Country: USA (FLORIDA)
Bitrate: 320 kbps
Size: 62.0 MB
https://ulozto.net/ LINK
vinyl rip
Came with Snakepit Magazine issue 21
Release date: August 2013
Catalog ID: ANTI-GOTH 250
Label: Nuclear War Now! Productions
https://www.metal-archives.com/albums/Obliv...or_Power/480779
Recorded and mixed at London Music Studio, Tampa, Florida, in September 1986.
Produced by Oblivion.

Keith (Spiderman) Hancock - Bass
Pat (Lusty) Brown - Vocals
Eddie (Bam Bam) Molina - Drums
Mike (The Edge) Brown - Guitars

22 minutes 59 seconds

1. The Executioner (7:09)
2. Battle Warrior (4:22)
3. Winds of War (5:46)
4. Maiden of the Dungeons (5:42)
Register
(5) Necrodictator, stumpheavyrock, thenecromancer, Wail, Xtohar,
Jun 28 2021, 22:37:41 Oblivion - Quest For Power [demo] (1986)
QUOTE(Necrodictator @ Jun 25 2021, 11:10:50) *
Vinyl rip by any chance??

I have the 12" record, what bitrate do you need?
(I was going to upload it on another forum a long time, but never did)
(1) Necrodictator,
Jun 22 2021, 16:41:25 Timeghoul - 1992-1994 Discography [best of/compilation] (2012)
QUOTE(dm666 @ Oct 8 2020, 15:08:26) *
Format 2CD: mp3@320kbps+ Covers

Your link is the same as sperminator's and is the same VBR version as his. Not 320.
(3) Occultas, thenecromancer, Wail,
Jun 21 2021, 09:10:54 Dusk - Dusk (ep) (1994)
Dusk - Dusk/...Majestic Thou In Ruin [best of/compilation] (2015) [post #1858079]

https://www.metal-archives.com/albums/Dusk/..._in_Ruin/538305
Dusk - Dusk (ep) (1994)
1. Envision the Terror 03:59
2. Element of Symmetry 04:32
3. Begotten Interlude 04:09
4. Dreamscape 03:14
5. Consigned to Oblivion 05:42
6. Mourning Shadow 05:04
...Majestic Thou in Ruin (1995
7. ...Majestic Thou in Ruin 08:03
8. Paled 07:54
9. Thy Bitter Woe 09:08
10. The Transfiguration (And It Was So) 07:55

(3) JantoHadez, thenecromancer, UnholyForcesOfEvil,
May 16 2021, 21:34:13 Meathook - New Tunes !!! [ep] (2013)


*Artist: Meathook
*Album: New Tunes !!! [ep]
*Year: 2013
*Genre: Crossover/Thrash Metal
*Country: Canada
*Format: mp3@CBR128kbps
*Size: 8MB

Tracklist:
1. Killed By A Troll 02:58
2. Fire In The Bowl 03:45
3. Buds 'n' Beers 01:52
******************************
Total playing time: 8:35

[more=Extended info]Kingston, Ontario
punk-Crossover-Thrash

https://www.metal-archives.com/bands/Meathook/117737[/more]

[more=Technical info]
Input File: 01 Meathook - Killed By A Troll.mp3
Channels : 2
Sample Rate : 44100
Precision : 16-bit
Duration : 00:02:58.60 = 7876128 samples = 13394.8 CDDA sectors
File Size : 2.86M
Bit Rate : 128k
Sample Encoding: MPEG audio (layer I, II or III)
Comments :
Title=Killed By A Troll
Artist=Meathook
Album=New tunes !!!
Tracknumber=1
Year=2013

[/more]

Register
(6) boby9052, gwar, Olethros, stumpheavyrock, Wail, wgs73,
May 16 2021, 18:59:59 Meathook - Hymns Of The Divine Drunks (2011)


*Artist: Meathook
*Album: Hymns Of The Divine Drunks
*Year: 2011
*Genre: Crossover/Thrash Metal
*Country: Canada
*Format: mp3@CBR128kbps
*Size: 37MB

Tracklist:
1. Party Pooper 03:21
2. The Ben Show 03:01
3. Origin of Feces 03:29
4. Radiation Mutation 03:12
5. Zombie Attack 01:07
6. Church of Meathook 04:03
7. The Grand Collapse 05:43
8. Scumbum 03:31
9. Fat Kid on the Toilet 01:44
10. Death Dream 05:01
11. The Waltz of Madness 02:45
******************************
Total playing time: 36:57

[more=Extended info]Kingston, Ontario
punk-Crossover-Thrash

https://www.metal-archives.com/bands/Meathook/117737[/more]

Register
(8) boby9052, gwar, infiltrator, METALHUNTER, Olethros, stumpheavyrock, Wail, wgs73,
May 16 2021, 16:55:50 Meathook - Drunk In Action [ep] (2005)


*Artist: Meathook
*Album: Drunk In Action [ep]
*Year: 2005
*Genre: Crossover/Thrash Metal
*Country: Canada
*Format: mp3@CBR128kbps
*Size: 14MB

Tracklist:
1. The End Of All Things 00:39
2. In Beer We Trust 01:36
3. Night of the Living Fatties 01:24
4. Dirty Cunt Fuck Whore 00:06
5. Screaming Beavers 01:03
6. Other People are Fucking Lame 02:24
7. Party Like The Devil 02:48
8. Rank Skank 02:03
9. If Pussies Came With Teeth 02:16
******************************
Total playing time: 14:19

[more=Extended info]Kingston, Ontario
punk metal-Crossover Thrash Metal
https://www.metal-archives.com/bands/Meathook/117737[/more]

[more=Technical info]
Input File: 02 Meathook - In Beer We Trust.mp3
Channels : 2
Sample Rate : 44100
Precision : 16-bit
Duration : 00:01:36.46 = 4253930 samples = 7234.57 CDDA sectors
File Size : 1.63M
Bit Rate : 135k
Sample Encoding: MPEG audio (layer I, II or III)
Comments :
Title=In Beer We Trust
Artist=Meathook
Album=Drunk In Action
Tracknumber=2
Year=2005

[/more]

Register
(8) boby9052, gwar, infiltrator, Olethros, stumpheavyrock, Svafrlami, Wail, wgs73,
May 11 2021, 18:38:47 Vault - No More Escape (1983)
Just a quick mention, the band is from the Netherlands (Nld).
Maybe the re-release was pressed in the USA?
https://www.metal-archives.com/bands/Vault/15208
(1) Borderline1991,
May 9 2021, 20:50:28 Today Needed
QUOTE(warrr @ May 9 2021, 17:38:44) *
Hi
Can somebody reup this in 320?
Demisery - Hive Of Mutilation (2011)

Demisery (US) 2011 Hive Of Mutation [320]
size: 103 MB
Thanks to the original uploader
https://www.metal-archives.com/bands/Demisery/3540337291
ulotzo link
Register
(3) infiltrator, thenecromancer, Veggr,
May 6 2021, 17:26:32 Thy Rites
I ripped/uploaded the demo - SFM020 – Thy Rites “Summoning the Abominations Curse" CDr
https://www.metal-archives.com/albums/Thy_R...ns_Curse/207302
Thy Rites - Summoning The Abominations Curse [demo] (2008)
(1) thenecromancer,
May 5 2021, 07:10:25 Morbid Angel - Abominations Of Desolation [compilation] (1991)
Morbid Angel (US) 1986 Abominations Of Desolation [Original Mixing] (1991) [Vinyl Rip] 11 trx, vbr
Size: 106 MB
Goreque Records/Satanic Records
ulotzo Link
Thanks to the original ripper and uploader.
no idea what version I have saved, i am guessing it is the bootleg
https://www.metal-archives.com/albums/Morbi...solation/817275
42 minutes 5 seconds
1. Invocation (1:32)
2. Chapel Of Ghouls (5:28)
3. Unholy Blasphemies (4:07)
4. Angel Of Disease (5:28)
5. Azagthoth (5:48)
6. The Gate (1:04)
7. Lord Of All Fevers And Plague (4:47)
8. Hellspawn (2:32)
9. Abominations (4:15)
10. Demon Seed (2:09)
11. Welcome To Hell (4:55)
Register
(4) Golfzilla, Mucupurulence, Occultas, thenecromancer,
May 5 2021, 06:37:03 Moshlim - No Rubbish, Do It [ep] (1989)
QUOTE(traitor666 @ May 4 2021, 21:38:41) *
Re-up please! Link is dead.

Moshlim (Bel) 1989 No Rubbish, Do It!!! [EP] [5 FLAC files]
Size: 127 MB
ulotzo Link
Thanks to the original ripper and uploader. (I don't recall where I got this).
https://www.metal-archives.com/bands/Moshlim/85068
18 minutes 36 seconds
1. Moshlim (2:44)
2. Revenge (2:32)
3. Revenge (2:10)
4. No Rubbish, Do It (3:54)
5. Invasion Of The Snobs (7:16)
Register
(4) death77, thenecromancer, traitor666, Xtohar,
May 4 2021, 05:36:59 Impulse Manslaughter - He Who Laughs Last...Laughs Alone (1987)
Impulse Manslaughter 1986-88 Logical End & He Who Laughs Last...Laughs Alone & Burn One Naked and Nuke It [3 bonus trx] [2008] [320]
Size: 180 MB
Excellent thrashcore/punk/hardcore/metal.
Thanks to the original uploader.
ulozto link at the bottom

I organized it into chronological folders.
https://www.discogs.com/Impulse-Manslaughte...release/6308852
1 hour 16 minutes 20 seconds

#01-10 - 1988 Logical End
1. Drag (2:00)
2. Face It (2:52)
3. Not Quite Sure (1:02)
4. Missing Children (3:38)
5. Gimme Shelter (3:55)
6. Crimson Dreams (3:45)
7. No Deals (1:40)
8. Let Them Die (2:56)
9. Stone Dead Forever (3:56)
10. Borderline Retard (2:19)
#11-29 - 1987 He Who Laughs Last... Laughs Alone
11. Batman and the Oracle of Penile Savage (1:13)
12. Vomitheads (1:21)
13. We're All Bored Here (1:17)
14. Suffer in Silence (1:55)
15. Walls (1:41)
16. They Start the War (2:36)
17. Premature Evacuation (1:13)
18. Crimes (2:41)
19. Too Late (2:40)
20. Pills (1:13)
21. This World (4:12)
22. Sedation (1:53)
23. Cheer Up You Fucker (2:03)
24. Kein Spiel (1:59)
25. Oatmeal II (1:16)
26. 1987 Schitzoid Sam (2:52)
27. Pattonstien's Disease (2:07)
28. Piss Me Off (1:47)
#29-36 - 1986 Burn One Naked And Nuke It [7''EP]
29. Sack O'Shit (1:27)
30. Ratbag (1:37)
31. Slithis (1:05)
32. Nothing (0:53)
33. Sedation (2:12)
34. Chaos (0:36)
35. Contradiction (1:19)
36. Oatmeal (1:20)
#37-39 - 3 bonus trx
37. Media [*] (0:24)
38. Dogshit [*] (0:45)
39. Harness [*] (0:40)
Register

(1) METALHUNTER,
May 2 2021, 03:59:57 Cultes des Goules - The House At The Water [2008]
free from bandcamp
(2) thenecromancer, Селезнёв,
Apr 27 2021, 21:00:02 Misfits - Cuts From The Crypt (1999)
QUOTE(thenecromancer @ Apr 27 2021, 18:42:34) *
https://en.wikipedia.org/wiki/Cuts_from_the_Crypt
found on web, ulotzo link, 320 kbps, size: 109 MB
Register

(2) meggido1, thenecromancer,
Apr 27 2021, 20:59:46 Today Needed
QUOTE(thenecromancer @ Apr 27 2021, 18:42:34) *
https://en.wikipedia.org/wiki/Cuts_from_the_Crypt
found on web, ulotzo link, 320 kbps, size: 109 MB
Register
(1) thenecromancer,
Apr 25 2021, 18:18:41 Thy Rites - Summoning The Abominations Curse [demo] (2008)


*Artist: Thy Rites
*Album: Summoning The Abominations Curse [demo]
*Year: 2008
*Genre: Death/Black Metal
*Country: Brazil
*Format: mp3@CBR320kbps
*Size: 15MB

Tracklist:
1. Summoning the Abominations Curse 03:23
2. Bloodshed Visions 03:16
******************************
Total playing time: 6:39

[more=Extended info]EAC CD-R rip

https://www.metal-archives.com/albums/Thy_Rites/Summoning_the_Abominations_Curse/207302[/more]

[more=Technical info]
Input File: 01 Summoning the Abominations Curse.mp3
Channels : 2
Sample Rate : 44100
Precision : 16-bit
Duration : 00:03:23.72 = 8983920 samples = 15278.8 CDDA sectors
File Size : 8.20M
Bit Rate : 322k
Sample Encoding: MPEG audio (layer I, II or III)
Comments :
Artist=Thy Rites
Album=Summoning the Abominations Curse Demo CD-R
Year=2008
Genre=Black/Death Metal

[/more]

Register
(12) caro, IncendiaryMight, infiltrator, Olethros, scorpionmk, SilentNidhogg, Svafrlami, thenecromancer, varlam4, Wail, wreak, wtk.412,
Apr 24 2021, 13:04:04 Today Needed
QUOTE(Antichrist @ Apr 24 2021, 10:54:03) *

found on web
Blackdeath (Rus) 2016 - Totentanz [comp]
Size: 66 Mb
I think this is @vbr255 kbps.
Register
(3) Antichrist, infiltrator, Veggr,
Apr 24 2021, 13:03:50 Blackdeath - Totentanz [best of/compilation] (2016)
QUOTE(Antichrist @ Apr 24 2021, 10:54:03) *

found on web
Blackdeath (Rus) 2016 - Totentanz [comp]
Size: 66 Mb
I think this is @vbr255 kbps.
Register
(1) Antichrist,
Apr 20 2021, 23:15:30 Today Needed
QUOTE(Antichrist @ Apr 19 2021, 21:41:51) *

Thanks to the original uploader(s), I maybe got these off torrent(s).
re-uploaded to ulotzo
Blackdeath (Rus) 2007 Fanatical (rehearsal EP) [7 trx 192]
Size: 44.1 MB
Register

Blackdeath (Rus) 2009 Chronicles of Hellish Circles (comp) [7 trx 320]
Size: 91.8 MB
Register
(3) Antichrist, infiltrator, thenecromancer,

25 Pages V   1 2 3 > » 
- Lo-Fi Version Support form
Copyrights and abuse reports form
Time is now: 5th August 2021 - 00:14:17