Welcome Guest ( Log In | Register )

История благодарностей участнику canadaspaceman ::: Спасибо сказали: 1547 раз(а)
Дата поста: В теме: За сообщение: Спасибо сказали:
Yesterday, 16:29:50 Kreator & Sodom & Destruction & Tankard - The Big Teutonic 4 [split] (2012)
Kreator & Sodom & Destruction & Tankard`2012`The Big Teutonic 4 by necroscum @VBR
30.4 MB
14 minutes 43 seconds
1. Kreator - The Number Of The Beast (4:22)
2. Sodom - Iron Fist (2:45)
3. Destruction - The Hammer (2:37)
4. Tankard - The Prisoner (4:59)
Register
(1) thenecromancer,
Yesterday, 16:24:31 Sodom - Ausgebombt [single] (1989)
Sodom 1989 Ausgebombt (EP) @128
9.72 MB
Register
(1) thenecromancer,
Jul 4 2020, 15:21:10 Astaroth - Unholy Playground [demo] (1994)
additional link
Astaroth (us-ny) 1994 demo Unholy Playground @160 [vaalkoth's band]
Register

_________________________
(3) infiltrator, stumpheavyrock, thenecromancer,
Jun 25 2020, 18:02:42 Today Needed
QUOTE(thenecromancer @ Jun 25 2020, 18:00:54) *

Register

also, Live At Cabo Wabo '96 is a 2005 re-packaged release of A Fistful of Alice, using the UK track listing
https://en.wikipedia.org/wiki/A_Fistful_of_Alice
(2) infiltrator, thenecromancer,
Jun 17 2020, 21:39:35 The High Crusade - Main Statement (2014)


*Artist: The High Crusade
*Album: Main Statement
*Year: 2014
*Genre: Rock
*Country: United States
*Format: mp3@CBR320kbps
*Size: 38MB

Tracklist:
1. Introduction 00:45
2. Dead Weight 03:14
3. Colby's Dead 02:36
4. Take Aim 01:56
5. Slice and Dice 02:29
6. Whiskey and Caffeine 02:53
7. Automation Alley 02:31
******************************
Total playing time: 16:24

[more=Extended info]USA (Detroit,Michigan)

Adam Tatro [drummer]
Chris Plumb [Guitar and Vocals]
Rob Kaminski [Guitar and Vocals]

and from TNA Impact Wrestling -
Alex Shelley [Vocals]
Chris Sabin [Bass]
Petey Williams [Guitar]

Additional Contributions:
Kazuchika Okada: Introduction and Guitar
Matt Berger: Keys
Lara Tatro: Vocals[/more]

[more=Technical info]
Input File: 2. The High Crusade - Dead Weight.mp3
Channels : 2
Sample Rate : 44100
Precision : 16-bit
Duration : 00:03:14.41 = 8573657 samples = 14581 CDDA sectors
File Size : 7.91M
Bit Rate : 326k
Sample Encoding: MPEG audio (layer I, II or III)
Comments :
Title=Dead Weight
Artist=The High Crusade
Album=Main Statement
Tracknumber=2
Year=2020
Genre=Rock

[/more]

Register
(2) infiltrator, Olethros,
Jun 17 2020, 21:35:25 The High Crusade - It's Not What You Think (2010)


*Artist: The High Crusade
*Album: It's Not What You Think
*Year: 2010
*Genre: Rock
*Country: United States
*Format: mp3@CBR320kbps
*Size: 97MB

Tracklist:
1. Fangs Like Knives 03:14
2. Break Into Pieces 03:23
3. Whatever's Real 03:00
4. Ch. 11 03:31
5. Flight Fight 03:32
6. Fall in Line 02:24
7. The Brim 02:45
8. Tied to the Tracks 03:07
9. Woodward 04:28
10. Pay the Fine 03:42
11. Can't Be Satisfied 02:10
12. Right in the Middle 03:05
13. Leave This World 03:07
******************************
Total playing time: 41:28

[more=Extended info]USA (Detroit,Michigan)

Adam Tatro [drummer]
Chris Plumb [Guitar and Vocals]
Rob Kaminski [Guitar and Vocals]

and
from TNA Impact Wrestling -

Alex Shelley [Vocals]
Chris Sabin [Bass]
Petey Williams [Guitar][/more]

[more=Technical info]
Input File: 01 Fangs Like Knives.mp3
Channels : 2
Sample Rate : 44100
Precision : 16-bit
Duration : 00:03:14.28 = 8567880 samples = 14571.2 CDDA sectors
File Size : 7.93M
Bit Rate : 326k
Sample Encoding: MPEG audio (layer I, II or III)
Comments :
Title=Fangs Like Knives
Artist=The High Crusade
Album=It's Not What You Think
Tracknumber=1
Year=2010

[/more]

Register
(2) infiltrator, Olethros,
Jun 12 2020, 10:32:36 Tank - Power Of The Hunter (1982)
Tank (UK) - Power of the Hunter (1982) [WAV files] [Vinyl Rip]
Size: 417 MB
vinyl rip of original pressing, by me
No audio cleaning used, so you get needle drops and surface noise.
In other words for collectors only,
as you can find a much better sound on a CD or the CD boxset.

https://www.discogs.com/Tank-Power-Of-The-H...r/master/193696
https://www.metal-archives.com/bands/Tank/1038
Label: Kamaflage Records ‎– KAM LP3
Country: UK
Released: Oct 1982
41 minutes 4 seconds
A1 Walking Barefoot Over Glass
A2 Pure Hatred
A3 Biting And Scratching
A4 Some Came Running
A5 T.A.N.K.
B1 Used Leather (Hanging Loose)
B2 Crazy Horses [Osmonds cover]
B3 Set Your Back On Fire
B4 Red Skull Rock
B5 Power Of The Hunter
B6 Oh What a Beautiful Mornin' [Oklahoma! the musical, cover]
Register
(1) thenecromancer,
Jun 12 2020, 10:18:45 Ripper - ...And The Dead Shall Rise (1986)
Ripper (US-Houston,TX) 1986- ...and the Dead Shall Rise @320
101 MB
Register
(2) Lukittaz, Wail,
Jun 9 2020, 01:43:17 Hatred - Unholy Mass (Rehearsal) [demo] (1985)
Hatred (US-NJ) 1985 Reh #2 @320
size: 9.62 mb
Thanks to the original uploader
Register
(2) Ingvar, Wail,
Jun 9 2020, 01:40:49 Hatred - Rehearsal [demo] (1985)
Hatred (US-NJ) 1985 Reh #1 Unholy Mass @320
size: 12.1 mb
Thanks to the original uploader RunningWild
Register
(1) Wail,
Jun 9 2020, 01:39:48 Hatred - Demo '85 [demo] (1985)
Hatred (US-NJ) 1985 Demo#1 @192
size: 15.8 mb
Thanks to the original uploader
Register
(2) traitor666, Wail,
Jun 9 2020, 01:39:18 Hatred - Drowning In Afterbirth [demo] (1986)
Hatred (US-NJ) 1986 Demo Drowning in Afterbirth demo @vbr
size: 34.0 mb
Thanks to the original uploader
Register
(2) traitor666, Wail,
Jun 9 2020, 01:38:36 Hatred - Mindless [demo] (1987)
Hatred (US-NJ) 1987 Demo No Control [aka Mindless Demo] @320
size: 46.7 mb
Thanks to the original uploader
Register
(2) traitor666, Wail,
Jun 9 2020, 01:38:11 Hatred - Unreleased Demo [demo] (1987)
Hatred (US-NJ) 1987 Demo [3 trx @192] Metalhuhn's rip
size: 11.5 MB
Thanks to the original uploader Metalhuhn
Register

diffferent rip
Hatred (US-NJ) 1989 Unreleased Demo [4 trx@320]
size: 26.8 mb
Thanks to the original uploader
Register
(2) traitor666, Wail,
Jun 8 2020, 17:18:33 Black Death - Live At The Pop Shop, Cleveland, Ohio [bootleg] (1983)


*Artist: Black Death
*Album: Live At The Pop Shop, Cleveland, Ohio [bootleg]
*Year: 1983
*Genre: Heavy Metal
*Country: United States
*Format: mp3@CBR192kbps
*Size: 28MB

Tracklist:
1. Sin After Sin + Slay The Beast 20:22
******************************
Total playing time: 20:22

[more=Extended info]Thanks to the original uploader

single mp3

1. Sin After Sin 14:03
+
2. Slay The Beast 06:19

https://www.metal-archives.com/bands/Black_Death/665[/more]

[more=Technical info]
Input File: Black Death(US) Sin After Sin +Slay The Beast [Live,Pop Shop - Cleveland Ohio`04 - 83].mp3
Channels : 2
Sample Rate : 44100
Precision : 16-bit
Duration : 00:20:22.65 = 53918645 samples = 91698.4 CDDA sectors
File Size : 29.3M
Bit Rate : 192k
Sample Encoding: MPEG audio (layer I, II or III)

[/more]

Register
(3) Olethros, Reverend, Wail,
Jun 8 2020, 00:05:02 Kublai Khan - Live In Minneapolis [bootleg] (1987)
QUOTE(thenecromancer @ Jun 5 2020, 12:37:50) *

re-uploaded
Kublai Khan 1987-03-15 Minneapolis MN [192] ripped by strad
size: 44.9 MB
Register
(2) thenecromancer, Wail,
Jun 2 2020, 19:39:25 Butcher - Speed Zbaex [demo] (1987)


*Artist: Butcher
*Album: Speed Zbaex [demo]
*Year: 1987
*Genre: Black/Speed/Thrash Metal
*Country: France
*Format: mp3@CBR320kbps
*Size: 29MB

Tracklist:
1. Men Death Is Die 01:52
2. Love 00:50
3. Fatima Death / Life of Killers 03:00
4. Intro / Keeper of Gravestone 02:19
5. She's a Poison 0:31
6. Native Song 00:48
7. Mega Attack0 0:29
8. Bamba Death 00:25
9. Dark Sound 01:45
10. Hubbud 00:51
******************************
Total playing time: 12:50

[more=Extended info]Thanks to the original ripper and uploader, vaalkoth.

https://www.metal-archives.com/bands/Butcher/36338[/more]

[more=Technical info]
Input File: 1 - Men Death Is Die.mp3
Channels : 2
Sample Rate : 44100
Precision : 16-bit
Duration : 00:01:52.88 = 4977788 samples = 8465.63 CDDA sectors
File Size : 4.52M
Bit Rate : 320k
Sample Encoding: MPEG audio (layer I, II or III)
Comment : 'Title=1 - Men Death Is Die'

[/more]

Register
(10) Asketto, FUDEDOR, fuoco, infiltrator, marilin, Olethros, randumbum, Rosen, Svafrlami, Wail,
May 30 2020, 23:10:53 Rail - Arrival (1980)


*Artist: Rail
*Album: Arrival
*Year: 1980
*Genre: Hard Rock/Melodic Metal
*Country: United States
*Format: mp3@CBR320kbps
*Size: 85MB

Tracklist:
1. Hello 02:11
2. Yes I Am 03:38
3. Cheater 04:09
4. Backseat Lovers 03:27
5. Gangbusters 03:53
6. Make Me 03:33
7. Bandit 04:19
8. Sirens 07:05
9. Seasons of Change 04:12
******************************
Total playing time: 36:27

[more=Extended info]USA (Bellevue/Seattle, Washington)

Thanks to the original uploader Loverkiss.

https://www.discogs.com/artist/1880839-Rail-4

https://www.spirit-of-metal.com/en/discography/Rail/1

https://en.wikipedia.org/wiki/Rail_(band)
"Rail is an American rock band that achieved national fame after winning the grand prize of MTV's Basement Tapes competition in 1983. Before starting their recording career the group was well known in the Seattle area under the names "Rail & Company" and "Rail & Co."[/more]

[more=Technical info]
Input File: 06_rail_make_me_myzuka.mp3
Channels : 2
Sample Rate : 44100
Precision : 16-bit
Duration : 00:03:33.88 = 9432064 samples = 16040.9 CDDA sectors
File Size : 8.72M
Bit Rate : 326k
Sample Encoding: MPEG audio (layer I, II or III)
Comments :
Title=Make me
Artist=Rail
Album=Arrival
Tracknumber=06
Year=1980
Genre=Hard Rock / Melodic Metal

[/more]

Register
(3) infiltrator, Olethros, Wail,
May 30 2020, 17:03:16 Metallica - Beyond The Wall Of Sound [bootleg] (1987)
found on web
(Source 2 - Beyond The Wall Of Sound)
FLAC by JumpInTheFire
Register
(3) KKK1488, thenecromancer, Wail,
May 23 2020, 13:08:28 Vomit - Sickness Is Not An Experiment [demo] (1989)
Vomit (Grc) 1989 Demo #2 Sickness Is Not an Experiment [192 kbps] Athens, Greece
Thanks to the original uploader. (Even though he is an idiot).
I split the mp3 file into separate tracks.
Register

(4) metala, sacramentary, thenecromancer, Wail,
May 23 2020, 12:48:26 Devastation - Violent Termination (reissue 1996) (1987)
Devastation (TX) 1987 Violent Termination (1996 reissue, includes live tracks from The Opera House,Toronto,July3,1991.) [192 kbps]
Register
(3) infiltrator, muskatnuss, thenecromancer,
May 21 2020, 21:32:09 Jimmy Hotz - Beyond The Crystal Sea (1980)


*Artist: Jimmy Hotz
*Album: Beyond The Crystal Sea
*Year: 1980
*Genre: Progressive Rock
*Country: United States
*Format: mp3@CBR192kbps
*Size: 59MB

Tracklist:
1. Observations Of A Larger Reality 08:32
2. Night Passage 02:12
3. The Vision Ship 05:35
4. Teton 03:18
5. Beyond The Blues 04:53
6. Alpine Magic 01:42
7. From Love Life Did Begin 06:51
8. Long Long Ago 05:47
9. The Gates Of Time 03:45
******************************
Total playing time: 42:35

[more=Extended info]Thanks to the original uploader.

Beyond the Crystal Sea (1980)(2010 CD re-release)
Genre: Christian Progressive Rock

https://en.wikipedia.org/wiki/Jimmy_Hotz

He recorded a solo album, Beyond the Crystal Sea, in the late 70s, which was released in 1980.
It is listed as one of the Top 100 Christian Rock Albums of All Time, No. 98 and one of CCM's 500 Best Albums Of All Time No. 210.
It is also considered one of, if not the best example of "Christian Art Rock" by critics and collectors.

https://www.discogs.com/Jimmy-Hotz-Beyond-The-Crystal-Sea-30th-Anniversary-Edition/release/4158903[/more]

[more=Technical info]
Input File: 02 - Night Passage.mp3
Channels : 2
Sample Rate : 44100
Precision : 16-bit
Duration : 00:02:12.98 = 5864198 samples = 9973.13 CDDA sectors
File Size : 3.19M
Bit Rate : 192k
Sample Encoding: MPEG audio (layer I, II or III)
Comments :
Title=Night Passage
Artist=Jimmy Hotz
Album=Beyond the Crystal Sea
Tracknumber=02/9
Year=1980
Genre=Progressive Rock
Discnumber=1/1

[/more]

Register
(2) infiltrator, Olethros,
May 18 2020, 03:05:18 Ramones - Weird Tales Of The Ramones [compilation] (2005)


*Artist: Ramones
*Album: Weird Tales Of The Ramones [compilation]
*Year: 2005
*Genre: Hard Rock/Garage Rock/Punk Rock
*Country: United States
*Format: mp3@VBR240kbps
*Size: 637MB

Tracklist:
CD 1
1. Blitzkrieg Bop 02:12
2. Beat On The Brat 02:32
3. Judy Is A Punk 01:30
4. I Wanna Be Your Boyfriend 02:25
5. Loudmouth 02:14
6. 53rd & 3rd 02:20
7. Havana Affair 01:56
8. Now I Wannna Sniff Some Glue 01:35
9. Glad To See You Go 02:10
10. Gimme Gimme Shock Treatment 01:40
11. I Remember You 02:18
12. Carbona Not Glue 01:50
13. Oh Oh I Love Her So 02:05
14. Swallow My Pride 02:03
15. Commando 01:53
16. Pinhead 02:43
17. Sheena Is A Punk Rocker (ABC Single Version) 02:47
18. I Don't Care (Single Version) 01:37
19. Rockaway Beach 02:05
20. Cretin Hop 01:55
21. Here Today, Gone Tomorrow 02:48
22. Teenage Lobotomy 02:01
23. Slug (Demo) 02:22
24. Surfin' Bird 02:35
25. We're A Happy Family 02:39
26. I Just Want To Have Something To Do 02:41
27. I Wanted Everything 03:14
28. Needles & Pins (Remixed Single Version) 02:21
29. I Wanna Be Sedated 02:29
30. Go Mental 02:40
31. Don't Come Close 02:44
32. I Don't Want You 02:26
33. She's The One 02:13
34. I'm Against It 02:07
CD 2
35. Rock 'N' Roll High School (Ed Stasium Mix) 02:18
36. I Want You Around (Ed Stasium Mix) 03:00
37. Do You Remember Rock 'N' Roll Radio 03:50
38. I'm Affected 02:53
39. Danny Says 03:05
40. The KKK Took My Baby Away 02:31
41. You Sound Like You're Sick 02:41
42. She's A Sensation 03:25
43. All's Quiet On The Eastern Front 02:12
44. Outsider 02:10
45. Highest Trails Above 02:09
46. Psycho Therapy 02:34
47. Time Bomb 02:09
48. Mama's Boy 02:09
49. I'm Not Afraid Of Life 03:12
50. Too Tough To Die 02:37
51. Wart Hog 01:54
52. Howling At The Moon (Sha-La-La) 04:06
53. Daytime Dilemma (Dangers Of Love) 04:32
54. Endless Vacation 01:47
55. My Brain Is Hanging Upside Down (Bonzo Goes To Bitburg) (UK 12" Version) 03:54
56. Ramones - Somebody Put Something In My Drink 03:20
57. Animal Boy 01:49
58. I Don't Want To Live This Life (Anymore) (UK B-Side) 03:28
59. Love Kills 02:20
60. Something To Believe In (Single Version) 04:18
CD 3
61. I Wanna Live 02:37
62. Bop 'Til You Drop 02:12
63. I Lost My Mind 01:33
64. Garden Of Serenity 02:27
65. I Believe In Miracles 03:20
66. Pet Sematary (Single Version) 03:30
67. Punishment Fits The Crime 03:05
68. Merry Christmas (I Don't Want To Fight Tonight) (Single Version) 02:04
69. Main Man 03:26
70. Strength To Endure 02:59
71. Poison Heart 04:02
72. I Won't Let It Happen 02:20
73. Censorshit 03:07
74. Journey To The Center Of The Mind 02:51
75. 7 And 7 Is 01:51
76. When I Was Young 03:13
77. I Don't Wanna Grow Up 02:45
78. Scattergun 02:29
79. Makin' Monsters For My Friends 02:35
80. The Crusher 02:25
81. Spiderman 01:56
82. Life's A Gas 03:33
83. She Talks To Rainbows 03:13
84. Any Way You Want It 02:20
85. R.A.M.O.N.E.S. 01:24
******************************
Total playing time: 3:38:50

[more=Extended info]boxset includes all scans[/more]

[more=Technical info]
Input File: 12 - Carbona Not Glue.mp3
Channels : 2
Sample Rate : 44100
Precision : 16-bit
Duration : 00:01:50.94 = 4892542 samples = 8320.65 CDDA sectors
File Size : 5.35M
Bit Rate : 386k
Sample Encoding: MPEG audio (layer I, II or III)
Comments :
Title=Carbona Not Glue
Artist=Ramones
Album=Weird Tales Of The Ramones - Disc 1
Tracknumber=12/34
Year=2005
Genre=Punk
Discnumber=1 / 1

[/more]

Register
(5) gwar, infiltrator, Olethros, thenecromancer, Wail,
May 18 2020, 02:08:34 Masters Of Reality - Welcome To The Western Lodge (2001)


*Artist: Masters Of Reality
*Album: Welcome To The Western Lodge
*Year: 2001
*Genre: Hard Rock/Stoner Rock
*Country: United States
*Format: mp3@VBR240kbps
*Size: 75MB

Tracklist:
1. It's Shit 02:56
2. Moriah 03:33
3. The Great Spelunker 03:10
4. Time To Burn 02:36
5. Take A Shot At The Clown 03:52
6. Baby Mae 03:14
7. Why The Fly 04:00
8. Ember Day 00:54
9. Annihilation Of The Spirit 02:32
10. Calling Dr. Carrion 03:22
11. Boymilk Waltz 02:36
12. Lover's Sky 02:55
13. Also Ran Song 02:59
******************************
Total playing time: 38:39

[more=Technical info]
Input File: 01 - It\'s Shit.mp3
Channels : 2
Sample Rate : 44100
Precision : 16-bit
Duration : 00:02:56.64 = 7789824 samples = 13248 CDDA sectors
File Size : 6.53M
Bit Rate : 296k
Sample Encoding: MPEG audio (layer I, II or III)
Comments :
Title=It's Shit
Artist=Masters Of Reality
Album=Welcome To The Western Lodge
Tracknumber=1/13
Year=2001
Genre=Rock
Discnumber=1 / 1

[/more]

Register
(4) infiltrator, marilin, Olethros, thenecromancer,
May 18 2020, 02:04:52 Thin Lizzy - Dedication-The Very Best Of Thin Lizzy [compilation] (1991)


*Artist: Thin Lizzy
*Album: Dedication-The Very Best Of Thin Lizzy [compilation]
*Year: 1991
*Genre: Hard Rock
*Country: United Kingdom
*Format: mp3@VBR240kbps
*Size: 147MB

Tracklist:
1. Whiskey In The Jar 05:44
2. The Rocker 05:11
3. She Knows 05:14
4. Still In Love With You 05:39
5. Showdown 04:30
6. Rosalie 03:13
7. Wild One 04:20
8. Fighting My Way Back 03:14
9. Jailbreak 04:03
10. The Boys Are Back In Town 04:29
11. Cowboy Song 05:18
12. Don't Believe A Word 02:18
13. Bad Reputation 03:07
14. Dancin' In The Moonlight (It's Caught Me In Its Spotlight) 03:26
15. Do Anything You Want To 03:53
16. Waiting For An Alibi 04:10
17. Chinatown 04:43
18. Dedication 03:58
******************************
Total playing time: 1:16:30

[more=Technical info]
Input File: 13 - Bad Reputation.mp3
Channels : 2
Sample Rate : 44100
Precision : 16-bit
Duration : 00:03:07.66 = 8275938 samples = 14074.7 CDDA sectors
File Size : 6.67M
Bit Rate : 285k
Sample Encoding: MPEG audio (layer I, II or III)
Comments :
Title=Bad Reputation
Artist=Thin Lizzy
Album=Dedication: The Very Best of Thin Lizzy
Tracknumber=13/18
Year=1991
Genre=Rock
Discnumber=1 / 1

[/more]

Register
(8) Brann, gwar, infiltrator, marilin, Olethros, Reverend, thenecromancer, Wail,

16 Pages V   1 2 3 > » 
- Lo-Fi Version Support form
Copyrights and abuse reports form
Time is now: 8th July 2020 - 00:13:12