Welcome Guest ( Log In | Register )

История благодарностей участнику canadaspaceman ::: Спасибо сказали: 2099 раз(а)
Дата поста: В теме: За сообщение: Спасибо сказали:
Sep 19 2020, 23:37:36 God B.C. - Eargasms In Eden (1989)
God B.C. (Swe) - Eargasms in Eden (1989) @192
Size: 52.0 MB
https://www.metal-archives.com/bands/God_B.C./13158
1986-1988 (as God), 1988-1989 (as God B.C.)
pre-Hyste’riah G.B.C. 1989-1992

similar to Mezzrow, Hexenhaus, Wrathchild America

Thanks to the original ripper and uploader, probably Aggression, or someone from t-mag.
Register
(2) DarkHorde, traitor666,
Sep 19 2020, 21:18:51 Various - Milwaukee Metalfest [bootleg] (1992)


*Performer: Various
*Title: Milwaukee Metalfest
*Type: Bootleg
*Year: 1992
*Genre: Death/Thrash/heavy/punk Metal
*Country: United States

*Audio: ac3@224kbps
*Video: mpeg1@1411kbps
*Resolution: 352x288
*Size: 867MB
******************************
*Length: 01:25:52

[more=Extended info]

Thanks to the original ripper and uploader, (t-mag, or Lockjaw blog?)

Milwaukee Metalfest VI
Saturday, July 18, 1992
MECCA Arena, Milwaukee, WI, USA

https://www.setlist.fm/festival/1992/milwaukee-metalfest-vi-23d680d3.html

Bands played in following order:
(first 8 not known),
Demonomacy, Morbid Corpse, Baphomet, Mythic, Macabre, Impetigo, Zoetrope, Stygian, Metal x, Old Skull, Epidemic, Aversion, Exhorder, Hexx, Solitude Aeturnus, Broken Hope, Suffocation, Malevolent Creation, Brutal Truth, Scat Opera, Blitz, Murphys Law, Agnostic Front, Mentors, Dog Star, Cancer, Cannibal Corpse, Obituary, Deicide.

someone uploaded onto youtube with zero information.
It is the same length, so I am guessing he also downloaded this many years ago from the same website I did
---------------------------------------------------------------------
I figured out most of the songs, took me a long time.
Got tired, so, you decipher rest of the missing bands/titles.

band/song

00:00 ? -
04:22 Mythic -
09:20 Macabre- Zodiac
12:45 Impetigo - Wizard of Gore
17:04 Zoetrope - It's My Life
19:47 Old Skull -
22:20 ? Epidemic -
27:18 Exhorder - Desecrator
34:00 Hexx - Blood Hunter
38:18 Solitude Aeturnus - The Hourglass
43:10 King Diamond introduces Broken Hope
49:36 Broken Hope -
53:21 King Diamond introduces Malevolent Creation
53:43 Malevolent Creation -
1:00: Agnostic Front -
1:03:45 backstage clip of guys hauling away a chick
1:04:01 ? Cancer -
1:09:35 Obituary -
1:13:31 Obituary - Cause of Death
1:19:15 Deicide - Satan Spawn, The Caco-Daemon
1:23:12 Deicide - Dead By Dawn[/more]

Register
(1) DarkHorde,
Sep 19 2020, 13:11:12 Falcon - Demo [demo] (2003)


*Artist: Falcon
*Album: Demo [demo]
*Year: 2003
*Genre: Heavy Metal
*Country: United States
*Format: mp3@VBR256kbps
*Size: 36MB

Tracklist:
1. Shelob's Lair 05:28
2. Downer 04:31
3. The Crying of Lot 246 04:01
4. On The Slab 05:00
******************************
Total playing time: 19:00

[more=Extended info]m4a vbr~256

Thanks to the original ripper and uploader, Mcniggleston of heavymetalrarities

Cirith Ungol's Greg Lindstrom on bass

https://www.metal-archives.com/bands/Falcon/33057

The first demo from Falcon back in 2003, a great and unfortunately rare demo limited to 100. You guys should proper enjoy this one if you like Cirith Ungol and such acts of that sound. These are all early demo versions of what later came on the debut album from 2004.

Line-up:
Perry Grayson - Lead Vocals, Guitar
Greg Lindstrom - Bass, Keyboards, Guitars (Track 1)
Darin McCloskey - Drums[/more]

[more=Technical info]
Input File: 01 Shelob\'s Lair.m4a
Channels : 1
Sample Rate : 8000
Precision : 16-bit
Duration : 00:00:24.18 = 193416 samples ~ 1813.27 CDDA sectors
File Size : 10.8M
Bit Rate : 3.58M
Sample Encoding: MPEG audio (layer I, II or III)

[/more]

Register
(5) after21allD, caro, infiltrator, Olethros, Rosen,
Sep 15 2020, 11:33:29 Draco Aerius - Goddess Of Bloodshed [demo] (2003)
please reupload
(2) infiltrator, thenecromancer,
Sep 13 2020, 18:30:57 Existence - Reign In Violence (1991)
Existence (Ger) 1990 Reign In Violence [192]
Size:76.9 MB
Thanks to the original uploader.
I guess for fans into Intrinsic, or Iron Maiden with Bruce.
Register
(2) thenecromancer, Wail,
Sep 13 2020, 18:17:34 Various Artists - Metal Meltdown II [best of/compilation] (1987)
Metal Meltdown Vol. 2 (1987) Ever Rat Records @256
Size:78.2 MB
Register
(1) thenecromancer,
Sep 13 2020, 10:12:06 Various Artists - Screams Of Abaddon Metal Fest [bootleg] (2006)


*Artist: Various Artists
*Album: Screams Of Abaddon Metal Fest [bootleg]
*Year: 2006
*Genre: Thrash/Unblack/Death/Melodic Heavy-Power Metal
*Country: Brazil
*Format: flac
*Size: 587MB

Tracklist:
1. Amnistia (Brazil, Itabuna, Bahia) changed name to Rival Machine [thrash] 03:18
02. Amnistia 02:15
03. Amnistia 03:28
04. Ira Divina (Brazil, Aracaju, Sergipe) [Unblack metal] 00:30
05. Ira Divina 03:17
06. Ira Divina 01:32
07. Ira Divina 06:14
08. Ira Divina [cuts in] 01:51
09. Ira Divina cuts in [guest singer] 03:14
10. Metal Celestial (Brazil,Maceio,Alagoas) 03:30
11. Metal Celestial 03:55
12. Metal Celestial 03:37
13. Worshiper (Brazil,Aracaju,Sergipe) [Unblack metal] 00:36
14. Worshiper 05:29
15. Worshiper 04:25
16. Worshiper 03:53
17. Worshiper drummer preaching 01:39
18. Worshiper 04:10
19. Worshiper 04:50
20. Factor Cross (Brazil, Aracaju, Sergipe) 05:45
21. Factor Cross singer talks 02:01
22. Factor Cross 03:18
23. Symphony Christ (Brazil, Vitória, Espírito Santo) 01:34
24. Symphony Christ 01:12
25. Symphony Christ 00:42
26. Symphony Christ 03:16
27. Symphony Christ 03:33
28. Symphony Christ 04:49
29. Symphony Christ 03:14
30. Against Death (Brazil, Recite, Pernambuco) 01:49
31. Against Death 03:42
32. Against Death 00:34
33. Against Death 09:05
34. Against Death 03:39
35. Against Death 05:22
36. Against Death 03:58
37. Against Death 03:24
38. Stryfer (Brazil, Vitória, Espirito Santo) 02:38
39. Stryfer 03:42
40. Stryfer [cuts off] 01:31
******************************
Total playing time: 2:10:31

[more=Extended info]I don't have the song titles, so it would help if anyone knows them to tell us.

DVD audio rip
audience recording

Screams Of Abaddon Metal Fest recorded Live in Salvador 2006.
The festival featured promising bands from the Christian scene in Brazil.

01. Amnistia (Amnesty)
02. Ira Divina (Divine Wrath)
03. Metal Celestial
04. Worshiper
05. Factor Cross
06. Against Death
07. Symphony Christ
08. Stryfer (cuts off)

09. Célicos (missing)

https://www.spirit-of-metal.com/en/band/Against_Death
https://www.metal-archives.com/bands/Against_Death/69649
https://www.metal-archives.com/bands/Amnistia/3540261230
https://www.metal-archives.com/bands/C%C3%A9licos/3540275829
https://www.metal-archives.com/bands/Factor_Cross/93963
https://www.metal-archives.com/bands/Ira_Divina/74930
http://metalcristao.com.br/b/STRIFER
http://unblack-archives.blogspot.com/2018/02/unknown-band-name.html
https://www.metal-archives.com/bands/Symphony_Christ/86387

http://unblack-archives.blogspot.com/search?q=Worshiper+
https://www.youtube.com/watch?v=gPZsU1kGOqs[/more]

Register
(3) infiltrator, Rosen, Wail,
Sep 13 2020, 00:12:06 Whispering Bells - Bussoleno, Italy [bootleg] (1984)


*Artist: Whispering Bells
*Album: Bussoleno, Italy [bootleg]
*Year: 1984
*Genre: Heavy Metal
*Country: Italy
*Format: mp3@CBR320kbps
*Size: 85MB

Tracklist:
1. Whispering Bells
******************************
Total playing time: 45:41

[more=Extended info]sounds like a soundboard tape to me.

Thanks to the original ripper and uploader, sonicbludgeon.

Live performance of WHISPERING BELLS at Bussoleno, Italy the 1st of June 1984.

Whole concert in one file.

The band also had the song "Trip" featured on the 'Heavy Metal Made in Italy (1985)' compilation.

1. ?
2. Whispering Bells
3. Calvario
4. Trip
5. Gran Varieta'
6. L'oro Bruno
7. Green Manalishi
8. Raptus
9. ? (cuts)

Whispering Bells(Ita)-Trip (1985)
taken from italian heavy metal compilation Heavy Metal Made In Italy(1985)

https://www.youtube.com/watch?v=IRNu5B7F7Uw[/more]

[more=Technical info]
Input File: 00-whispering_bells-full.mp3
Channels : 2
Sample Rate : 44100
Precision : 16-bit
Duration : 00:45:41.42 = 120896622 samples = 205606 CDDA sectors
File Size : 89.4M
Bit Rate : 261k
Sample Encoding: MPEG audio (layer I, II or III)
Comments :
Title=all songs (cuts) - see info.txt
Artist=Whispering Bells
Album=live in Bussoleno, Italy 01Jun
Tracknumber=00
Year=1984
Genre=Heavy Metal

[/more]

Register
(5) infiltrator, Olethros, Rosen, thenecromancer, Wail,
Sep 10 2020, 18:39:04 Rampage & Chemikiller - Twelve Inches Of Blasphemy [Tribute To Venom] [split] (2007)
Register
(1) thenecromancer,
Sep 10 2020, 18:36:32 Panzerfaust & Totalus Necrum - Panzerfaust/Totalus Necrum [split] (2007)


*Artist: Panzerfaust & Totalus Necrum
*Album: Panzerfaust/Totalus Necrum [split]
*Year: 2007
*Genre: Black Metal | Black Metal
*Country: Canada | United States
*Format: mp3@CBR320kbps
*Size: 68MB

Tracklist:
Panzerfaust
1. At the Storming Gates of Nihil 03:03
2. At the Dismal Summits... 05:14
3. Iconoclast 3:57
4. Set Flames to the Masses 03:18

Totalus Necrum
5. Raging with Slaughter 03:24
6. Revelations Through Carnage 03:27
7. Texts of the Decayed 03:13
8. By Order of the Tyrant 03:45
******************************
Total playing time: 29:21

[more=Extended info]EAC cd-r rip
https://www.spirit-of-metal.com/en/album/Panzerfaust_-_Totalus_Necrum/266264

https://www.metal-archives.com/albums/Panzerfaust/Panzerfaust_-_Totalus_Necrum/148001[/more]

[more=Technical info]
Input File: 01 Panzerfaust - At the Storming Gates of Nihil.mp3
Channels : 2
Sample Rate : 44100
Precision : 16-bit
Duration : 00:03:03.84 = 8107344 samples = 13788 CDDA sectors
File Size : 7.38M
Bit Rate : 321k
Sample Encoding: MPEG audio (layer I, II or III)
Comments :
Title=Panzerfaust - At the Storming Gates of Nihil
Artist=Panzerfaust / Totalus Necrum
Album=split CD-R
Tracknumber=01/08
Year=2007
Genre=Black Metal
Discnumber=1/1

[/more]

Register
(10) 1968_janeart, BERZERK, infiltrator, kim666, robertho777, Rosen, sacrut, SilentNidhogg, VALERY, Wail,
Sep 10 2020, 16:45:57 Massacre - Live In Metal Mania Festival (Tampa,Florida U.S.A.) [bootleg] (1986)


Massacre (US-FL) 1986-05-25 Metal Mania Festival, Rock City, Tampa, FL [192]
Size: 52.0 MB
Thanks to the original ripper and uploader a very long time ago, probably from thrashmageddon or Lockjaw blogspot (R.I.P.)

Vocals - Kam Lee [Mantas,Death]
Bass - Mike Borders
Drums - Bill Andrews [Death]
Guitars - Rick Rozz [Mantas,Death]
https://www.youtube.com/watch?v=6D4yQ-bcydM

https://www.metal-archives.com/bands/Massacre/281
https://www.setlist.fm/setlist/massacre/198...l-4bd957ba.html
37 minutes 22 seconds
1. Cryptic Realms (5:18)
2. Perpetual Domination (4:28)
3. The Traitor (5:38)
4. Mutilated (3:50)
5. Infestation of Death (3:22)
6. Clangor of War (4:09)
7. Aggressive Tyrant (5:04)
8. Chamber of Ages (5:33)
Register
(2) thenecromancer, Wail,
Sep 10 2020, 02:54:13 Forbidden - Live In Wilmington, Delaware [bootleg] (1989)


*Performer: Forbidden
*Title: Live In Wilmington, Delaware
*Type: Bootleg
*Year: 1989
*Genre: Thrash Metal
*Country: United States

*Audio: mp3@224kbps
*Video: mpeg1@1152kbps
*Resolution: 352x288
*Size: 427MB
******************************
*Length: 00:42:47

[more=Extended info]data rate: 1152 kbps
total bitrate: 1376 kbps

Forbidden 1989-08-22 Wilmington, Delaware [MPG]

Thanks to the original ripper and uploader, maybe it was thrashwar.

https://www.metal-archives.com/bands/Forbidden/374

Tour: Forbidden Evil Tour
https://www.setlist.fm/setlist/forbidden/1989/union-station-wilmington-de-bd651e2.html

appears to be the same quality later shared on youtube
https://www.youtube.com/watch?v=tjSGE7w1kFA
---------------------------------------------------------------------
setlist

March into Fire
Off the Edge
One Foot in Hell
Through Eyes of Glass
Victim of Changes (Judas Priest cover)
Chalice of Blood[/more]

Register
(3) LUCASDEATH, Rosen, whiteknight,
Sep 7 2020, 23:25:40 Today Needed
QUOTE(thenecromancer @ Sep 7 2020, 22:28:19) *

Execute (Grc) 2010 demo [320]
size: 33.2 MB
Genre: Thrash/Death Metal
https://www.metal-archives.com/bands/Execute/3540326503
Thanks to the original uploader, wildrunner3.
14 minutes 28 seconds
Register

(2) infiltrator, thenecromancer,
Sep 7 2020, 23:24:43 Execute - Demo [demo] (2010)
Execute (Grc) 2010 demo [320]
size: 33.2 MB
Genre: Thrash/Death Metal
https://www.metal-archives.com/bands/Execute/3540326503
Thanks to the original uploader, wildrunner3.
14 minutes 28 seconds
Register


(4) infiltrator, stumpheavyrock, thenecromancer, Wail,
Sep 7 2020, 20:34:18 Various Artists - Sounds Of Approaching Destruction [compilation] (1998)


*Artist: Various Artists
*Album: Sounds Of Approaching Destruction [compilation]
*Year: 1998
*Genre: Doomy/Gothic/Death/Black/Experimental-Industrial-Noise Metal
*Country: Many
*Format: mp3@CBR192kbps
*Size: 81MB

Tracklist:
1. DEUTERONOMIUM (Fin) - blue moment 04:18
2. KEKAL (Indonesia) - a day the hatred dies 05:59
3. DEVOUT (NZ) - scolded in evil 05:34
4. NECROMANCE (Ger) - vom hindern 03:59
5. PARADOX (UK) - a prayer of suffering 04:30
6. TWITCH (USA) - ...in sheep's clothing 05:17
7. SACRIFICIUM (Ger) - verify error 07:38
8. MANIFESTIUM (Fin) - kehraaja 06:41
9. ANATHOTH - funeral of the olden creation 05:02
10. THE FLUOXETINE EFFECT (USA) - fateful compulsion 05:31
11. VITALITY (Nor) - away from destruction 04:16
******************************
Total playing time: 58:45

[more=Extended info]Thanks to the original ripper and uploader, Masterofmetal

https://www.discogs.com/artist/1541864-Deuteronomium
https://www.metal-archives.com/bands/Deuteronomium/7376
https://www.metal-archives.com/bands/Kekal/4418
https://www.metal-archives.com/bands/Devout/8846
https://www.metal-archives.com/bands/Necromance/29839
https://www.metal-archives.com/bands/Paradox/96389
https://www.metal-archives.com/bands/Sacrificium/4576
https://www.metal-archives.com/bands/Manifestium/86871
https://www.metal-archives.com/bands/Vitality/97965[/more]

[more=Technical info]
Input File: 01 deuteronomium-blue moment.mp3
Channels : 2
Sample Rate : 44100
Precision : 16-bit
Duration : 00:04:18.80 = 11413168 samples = 19410.1 CDDA sectors
File Size : 6.21M
Bit Rate : 192k
Sample Encoding: MPEG audio (layer I, II or III)
Comments :
Title=deuteronomium-blue moment
Artist=Various Artists
Album=Sounds of Approaching Destruction
Tracknumber=1
Year=1998
Genre=Black death doom goth

[/more]

Register
(2) thenecromancer, Wail,
Sep 7 2020, 20:15:01 Vitality - Demo 96/97 [demo] (1997)

Vitality (Nor) - Demo (96-97)
pre-Drottnar

Thanks to the original ripper and uploaders.
https://www.metal-archives.com/bands/Vitality/97965
Genre: Christian Death/Doom//Black Metal
Compilation Appearances:
- "Away from Destruction" on Sounds of Approaching Destruction (THT Productions)
Members:
Bjarne Pecer Lind(ex-Drottnar) Bass
Glenn-David Lind(ex-Drottnar) Drums
Karl Fredrik Lind(ex-Drottnar,Horde.live) Guitars
Bengt Olsson(ex-Drottnar,Horde) Guitars (lead)
Sven-Erik Lind Vocals

29 minutes 2 seconds
1. Away From the Destruction (7:08)
2. Doom of Anti-christ (5:42)
3. Missing Souls (4:06)
4. Dead and Rotten (7:52)
5. Frykt Ikke (4:14)

Bitrate: m4a vbr 256
Size: 59.2 MB
Register

Bitrate: 320 kbps
Size: 68.0 MB
Register
(5) Evilded, infiltrator, stumpheavyrock, thenecromancer, varlam4,
Sep 7 2020, 19:33:09 Waco Jesus - The Destruction Of Commercial Scum (2019 Reissue) [demo] (1995)


*Artist: Waco Jesus
*Album: The Destruction Of Commercial Scum (2019 Reissue) [demo]
*Year: 1995
*Genre: Brutal Death Metal
*Country: United States
*Format: mp3@CBR320kbps
*Size: 24MB

Tracklist:
1. Blood Feast 02:17
2. Bestial Assassin 02:17
3. Cadaveric Mutilation 02:24
4. Sacrifice Death 02:42
******************************
Total playing time: 9:40

[more=Extended info]Waco Jesus [ex-Hot Stove]
USA (Eureka, Illinois)

Bitrate: 320 kbps
Size: 24.4 MB

Bitrate: FLAC
Size: 79.6 MB

Release date: January 1995

Thanks to the original ripper and uploader, deathgrind.club

https://www.discogs.com/release/13678980

https://www.metal-archives.com/bands/Waco_Jesus/3482[/more]

[more=Technical info]
Input File: Waco Jesus-01. Blood Feast.mp3
Channels : 2
Sample Rate : 44100
Precision : 16-bit
Duration : 00:02:17.33 = 6056165 samples = 10299.6 CDDA sectors
File Size : 5.94M
Bit Rate : 346k
Sample Encoding: MPEG audio (layer I, II or III)
Comments :
Title=Blood Feast
Artist=Waco Jesus
Album=The Destruction Of Commercial Scum - Demo 1995 (320)
Tracknumber=1
Year=2019
Genre=Death Metal

[/more]

Register
(9) BERZERK, Evilded, infiltrator, maochen, Olethros, Rosen, soulskinner681, Styx, Wail,
Sep 7 2020, 12:07:45 Angel - Rarities [Bootleg Compilation] (1976-1987) [bootleg] (1987)


*Artist: Angel
*Album: Rarities [Bootleg Compilation] (1976-1987) [bootleg]
*Year: 1987
*Genre: Glam Rock/Progressive Rock/Hard Rock
*Country: United States
*Format: mp3@CBR292kbps
*Size: 94MB

Tracklist:
1. 20th Century Foxes (Foxes soundtrack 1980) 03:50
2. Walk Away Renee (left banke cover song) 02:57
3. The Christmas Song (b-side of the winter song) 04:04
4. Better Days (b-side of ain´t gonna eat out my heart anymore) 04:34
5. Chicken Soup (1976 fm broadcast kBFH) 04:29
6. The Fortune (1976 fm broadcast kBFH) 09:00
7. White Lightning (1976 fm broadcast kBFH) 07:32
8. You're So Cold (live in phoenix 1980) 04:31
9. Whips (demo 1981) 05:02
10. Troubleshooter (demo 1981) 03:59
11. Should've Known Better (demo 1981) 03:31
12. I Wish The Night (demo 1987) 05:08
13. Hot and Heavy (demo 1987) 04:31
14. Virgina (Foxes soundtrack 1980) 03:58
******************************
Total playing time: 1:07:06

[more=Extended info]Thanks to the original uploader. I think I got this from guitars101.com
https://www.discogs.com/artist/434871-Angel-24
https://en.wikipedia.org/wiki/Angel_%28band%29[/more]

[more=Technical info]
Input File: 05.CHICKEN SOUP.mp3
Channels : 2
Sample Rate : 44100
Precision : 16-bit
Duration : 00:04:29.99 = 11906471 samples = 20249.1 CDDA sectors
File Size : 6.50M
Bit Rate : 193k
Sample Encoding: MPEG audio (layer I, II or III)
Comments :
Title=Chicken Soup
Artist=ANGEL
Album=1976 fm broadcast of the kBFH)
Tracknumber=5/14

[/more]

Register
(4) after21allD, infiltrator, Olethros, Wail,
Sep 7 2020, 10:52:30 Al Mccartney (Ex-Nosferatu) - Demo [demo] (1990)


*Artist: Al Mccartney (Ex-Nosferatu)
*Album: Demo [demo]
*Year: 1990
*Genre: Doom Metal/Stoner Metal
*Country: Canada
*Format: mp3@VBR190kbps
*Size: 32MB

Tracklist:
1.Al McCartney 1990 demo 07:45
2.Al McCartney 1990 demo 07:52
3.Al McCartney 1990 demo 02:39
4.Al McCartney 1990 demo 05:52
******************************
Total playing time: 24:08

[more=Extended info]https://www.metal-archives.com/artists/Al_McCartney/128856
the drummer from Nosferatu and The Hypnotic Bidets
Al made this demo by himself.
4 instrumentals song, no titles.[/more]

Register
(7) infiltrator, Olethros, Rosen, thenecromancer, vaalkoth, VALERY, Wail,
Sep 6 2020, 06:49:52 Various Artists - Stars On Thrash [compilation] (1988)


*Artist: Various Artists
*Album: Stars On Thrash [compilation]
*Year: 1988
*Genre: Thrash Metal
*Country: Many
*Format: mp3@VBR232kbps
*Size: 93MB

Tracklist:
1. Flotsam & Jetsam - Dreams Of Death 05:39
2. Mucky Pup - Lie 4 Def 01:54
3. D.R.I. - Manifest Destiny 02:39
4. Pestilence - Commandments 05:16
5. Toxic - Heart Attack 03:47
6. Paradox - Paradox 04:13
7. S.O.D. - Kill Yourself 02:09
8. Acrophet - Corrupt Minds 02:01
9. Gothic Slam - Fought For Death 03:48
10. Slayer - Evil Has No Boundaries(LIVE) 02:57
11. Sacred Reich - Death Squad 04:23
12. Znowhite - Baptised By Fire 03:58
13. Kat - Satan Says 02:56
14. Atrophy - Chemical Dependency 04:04
15. Hades - Opinionate! 05:08
******************************
Total playing time: 54:52

[more=Extended info]Thanks to the original ripper and uploader, yappy from the old Lockjaw blogspot.

http://web.archive.org/web/20111105041940/http://lockjaw-yappy.blogspot.com/2011/03/va-stars-on-thrash-roadrunner-thrash.html?showComment=1303827052817

https://www.discogs.com/Various-Stars-On-Thrash/release/372606[/more]

[more=Technical info]
Input File: 01 - Stars On Thrash - Dreams Of Death (Flotsam & Jetsam).mp3
Channels : 2
Sample Rate : 44100
Precision : 16-bit
Duration : 00:05:39.70 = 14980594 samples = 25477.2 CDDA sectors
File Size : 10.2M
Bit Rate : 241k
Sample Encoding: MPEG audio (layer I, II or III)
Comments :
Title=Dreams Of Death
Artist=Flotsam & Jetsam
Album=Stars On Thrash
Tracknumber=1
Year=1988
Genre=Thrash Metal

[/more]

Register
(11) caro, ChrisK, comradEnemy, Evilded, gwar, infiltrator, Mares, pichileon, ripper33, Rosen, Wail,
Sep 6 2020, 02:58:53 Various Artists - Vinnum Dei Satanas - The Wine Of Satan [compilation] (1993)


*Artist: Various Artists
*Album: Vinnum Dei Satanas - The Wine Of Satan [compilation]
*Year: 1993
*Genre: Black/Death
*Country: Greece
*Format: mp3@CBR320kbps
*Size: 93MB

Tracklist:
1. Beherit - Paradise Of Thy Demonic Host 03:03
2. Corpse Molestation - Swarming Black Emotions 05:24
3. Pandemonium - Sunless Domain 05:56
4. Master's Hammer - Lithographic Calendar 06:44
5. The Black - Book Of Leviathan 02:30
6. Crucifier - Chime Of The Goat's Head Bell 04:22
7. Perdition Hearse - Intro + My Ancient Gods Behind Them All 05:10
8. Mortuary Drape - Into The Catacomba 07:14
******************************
Total playing time: 40:23

[more=Extended info]Thanks to the original ripper and uploader, poserkiller[/more]

[more=Technical info]
Input File: 1 - BEHERIT - Paradise Of Thy Demonic Host.mp3
Channels : 2
Sample Rate : 44100
Precision : 16-bit
Duration : 00:03:03.22 = 8080090 samples = 13741.6 CDDA sectors
File Size : 7.33M
Bit Rate : 320k
Sample Encoding: MPEG audio (layer I, II or III)
Comment : 'Title=1 - BEHERIT - Paradise Of Thy Demonic Host'

[/more]

Register
(8) drrmad, heinz88, Hell_Is_Here, infiltrator, randumbum, Rosen, thenecromancer, Wail,
Sep 6 2020, 02:57:18 Various Artists - Maple Metal [compilation] (1985)


*Artist: Various Artists
*Album: Maple Metal [compilation]
*Year: 1985
*Genre: Hard Rock/Heavy Metal
*Country: Canada
*Format: mp3@CBR192kbps
*Size: 59MB

Tracklist:
1. Apple Viper - Get Up 03:26
2. Galleon - What D'Ya Want? 03:33
3. Harlott - Angel In The Dark 04:20
4. Havoc - The Warning 02:56
5. Jade - Legends Of A Time 05:09
6. Kid Wikkid - Take A Look At Me 04:20
7. Titan - Burnt By The Flame 04:31
8. Tzar - One Ticket To Paradise 04:29
9. Rue Morgue - Goin' Down Rockin' 05:12
10. Vigilants - Run For Cover 03:04
******************************
Total playing time: 41:00

[more=Extended info]Thanks to the original uploader.[/more]

[more=Technical info]
Input File: 01. Get Up.mp3
Channels : 2
Sample Rate : 44100
Precision : 16-bit
Duration : 00:03:26.44 = 9104180 samples = 15483.3 CDDA sectors
File Size : 4.96M
Bit Rate : 192k
Sample Encoding: MPEG audio (layer I, II or III)
Comments :
Title=Get Up
Artist=Apple Viper
Album=Various - Maple Metal
Tracknumber=1
Year=1985
Genre=Other

[/more]

Register
(6) caro, infiltrator, Mares, Rosen, stumpheavyrock, Wail,
Sep 6 2020, 02:53:13 Various Artists - Not Just Spaghetti And Mandolini [compilation] (1998)


*Artist: Various Artists
*Album: Not Just Spaghetti And Mandolini [compilation]
*Year: 1998
*Genre: Heavy/Thrash/Power/Doom Metal; Hard/Progressive Rock
*Country: Italy
*Format: mp3@CBR192kbps
*Size: 59MB

Tracklist:
1. Moon Of Steel - Flyin' High 06:28
2. M.A.C.E. - Scream and Shout 02:48
3. Shabby Trick - Time to Kill 04:11
4. Stage - Living on the Streets 05:27
5. Nameless - Born to Win 05:31
6. Synthesis - Asylum 04:26
7. Skull - Gotta Find the Way 04:09
8. V.I.S. - Rocker Batti il Tuo Pugno 04:42
******************************
Total playing time: 37:42

[more=Extended info]Thanks to the original ripper and uploader, Métamorphose.

https://thecorroseum.org/comps/notjustspaghetti.html

https://www.discogs.com/fr/Various-Not-Just-Spaghetti-And-Mandolini/release/2654723[/more]

[more=Technical info]
Input File: 01 - Moon Of Steel - Flyin\' High.mp3
Channels : 2
Sample Rate : 44100
Precision : 16-bit
Duration : 00:06:28.25 = 17122001 samples = 29119 CDDA sectors
File Size : 9.38M
Bit Rate : 193k
Sample Encoding: MPEG audio (layer I, II or III)
Comments :
Title=Flyin' High
Artist=Moon Of Steel
Album=Not just spaghetti and mandolini
Tracknumber=01
Year=1988
Genre=Heavy Metal

[/more]

Register
(4) infiltrator, Rosen, thenecromancer, Wail,
Sep 6 2020, 02:51:24 Various Artists - Metal Under... ...Greece [compilation] (1993)


*Artist: Various Artists
*Album: Metal Under... ...Greece [compilation]
*Year: 1993
*Genre: Black/Death/Thrash Metal
*Country: Greece
*Format: mp3@CBR320kbps
*Size: 95MB

Tracklist:
1. Void - Void 05:43
2. Phlebotomy - Born To Suffer 04:51
3. Bestial Wrath - Procrustian 07:10
4. Legion Of Doom - Ancient Knowledge 03:58
5. Vorphalack - Obsessed 04:42
6. Selefice - Nothing But Freedom 03:55
7. Disharmony - The Gate Of Deeper Slee 04:15
8. Funeral Revolt - Consealment Of Trut 04:47
******************************
Total playing time: 39:21

[more=Extended info]Thanks to the original ripper and uploader, poserkiller, vinyl rip[/more]

[more=Technical info]
Input File: 1 - VOID - Void.mp3
Channels : 2
Sample Rate : 44100
Precision : 16-bit
Duration : 00:05:43.72 = 15157832 samples = 25778.6 CDDA sectors
File Size : 13.7M
Bit Rate : 320k
Sample Encoding: MPEG audio (layer I, II or III)
Comment : 'Title=1 - VOID - Void'

[/more]

Register
(7) Hell_Is_Here, infiltrator, Mist13Signifier, randumbum, Rosen, thenecromancer, Wail,
Sep 6 2020, 02:46:35 Various Artists - Into The Catachthonium Vol I [compilation] (1994)


*Artist: Various Artists
*Album: Into The Catachthonium Vol I [compilation]
*Year: 1994
*Genre: Black/Death Metal
*Country: Greece
*Format: mp3@VBR265kbps
*Size: 74MB

Tracklist:
1. Mortuary Drape - Primordial 03:04
2. Rotting Christ - Satturn Unlock Avey's Son 06:22
3. Uncanny - Elohim 04:06
4. Order From Chaos - The Edge Of Forever 04:40
5. Thou Art Lord - For The Lust Of Lilith 04:47
6. Necromass - Necrobaratrum 03:01
7. Malicious Onslaught - The Morgue 03:33
8. Equimanthorn - Thy Queen Ereshkigal 06:40
******************************
Total playing time: 36:13

[more=Extended info]Into The Catachthonium Vol I [Tape Comp] (1994)
Bitrate: VBR (265-312)

https://www.discogs.com/Various-Into-The-Ca...release/1937350

Thanks to the original ripper and uploader, xalter.[/more]

[more=Technical info]
Input File: A1 - Mortuary Drape - Primordial.mp3
Channels : 2
Sample Rate : 48000
Precision : 16-bit
Duration : 00:03:04.22 = 8842752 samples ~ 13816.8 CDDA sectors
File Size : 6.38M
Bit Rate : 277k
Sample Encoding: MPEG audio (layer I, II or III)
Comments :
Title=Primordial
Artist=Mortuary Drape
Album= Into The Catachthonium
Tracknumber=A1
Year=1994

[/more]

Register
(9) Hell_Is_Here, infiltrator, ITNOR, Mist13Signifier, randumbum, Rosen, stumpheavyrock, thenecromancer, Wail,

20 Pages V   1 2 3 > » 
- Lo-Fi Version Support form
Copyrights and abuse reports form
Time is now: 22nd September 2020 - 02:47:03