Welcome Guest ( Log In | Register )

История благодарностей участнику canadaspaceman ::: Спасибо сказали: 4720 раз(а)
Дата поста: В теме: За сообщение: Спасибо сказали:
Sep 14 2022, 21:15:44 Molecular Repulsion - Rehearsal [bootleg] (1998)


*Artist: Molecular Repulsion
*Album: Rehearsal [bootleg]
*Year: 1998
*Genre: Technical Thrash/Death Metal
*Country: Canada
*Format: mp3@CBR224kbps
*Size: 26MB

Tracklist:
1. Epitaph 07:10
2. song 2 05:37
3. song 3 03:40
******************************
Total playing time: 16:27

[more=Extended info]Canada (Timmins, Ontario)

https://www.metal-archives.com/bands/Molecular_Repulsion/21313[/more]

[more=Technical info]
Input File: 1.Molecular Repulsion - Epitaph [rehearsal 1998].mp3
Channels : 2
Sample Rate : 44100
Precision : 16-bit
Duration : 00:07:10.72 = 18994884 samples = 32304.2 CDDA sectors
File Size : 12.1M
Bit Rate : 224k
Sample Encoding: MPEG audio (layer I, II or III)

[/more]

Register
(6) artscald, Carcharoth, kimkayoung, metala, Reverend, thenecromancer,
Sep 14 2022, 21:09:40 Shaftdrive - Shaftdrive [ep] (2001)


*Artist: Shaftdrive
*Album: Shaftdrive [ep]
*Year: 2001
*Genre: Heavy Metal
*Country: Canada
*Format: mp3@CBR192kbps
*Size: 22MB

Tracklist:
1. Black Dawn 03:06
2. Red Line Rev 04:07
3. Born of Fire 02:28
4. Get Away 02:30
5. Take It Back 03:30
******************************
Total playing time: 15:41

[more=Extended info]CD scans included

Toronto, Ontario



https://www.metal-archives.com/bands/Shaftdrive/64909

https://www.discogs.com/artist/6706919-Shaftdrive[/more]

[more=Technical info]
Input File: 03 - Born of Fire.mp3
Channels : 2
Sample Rate : 44100
Precision : 16-bit
Duration : 00:02:28.73 = 6559169 samples = 11155 CDDA sectors
File Size : 3.57M
Bit Rate : 192k
Sample Encoding: MPEG audio (layer I, II or III)
Comments :
Title=Born of Fire
Artist=Shaftdrive
Album=Shaftdrive
Tracknumber=3/5
Year=2001
Genre=Metal
Discnumber=1/1

[/more]

Register
(6) after21allD, artscald, caro, Marek, Rover, sergsazan,
Sep 14 2022, 08:22:35 Various Artists - L'amour Rocks [compilation] (1987)


*Artist: Various Artists
*Album: L'amour Rocks [compilation]
*Year: 1987
*Genre: Heavy Metal
*Country: United States
*Format: mp3@CBR256kbps
*Size: 52MB

Tracklist:
1. Wrathchild - Armed To Deliver 03:48
2. Matriarch - Red Dawn 03:47
3. Jett Blakk - Battered Child 03:33
4. Lethal Aggression - Generic Punk 02:15
5. Attacker - Emanon 03:58
6. Halloween - Come And Get It 03:12
7. Mean Streak - Lost Stranger 02:33
8. The Boys - Boys Keep Rolling 04:06
******************************
Total playing time: 27:12

[more=Technical info]
Input File: 01 - Wrathchild - Armed To Deliver.mp3
Channels : 2
Sample Rate : 44100
Precision : 16-bit
Duration : 00:03:48.91 = 10095107 samples = 17168.5 CDDA sectors
File Size : 7.57M
Bit Rate : 265k
Sample Encoding: MPEG audio (layer I, II or III)
Comments :
Title=Armed To Deliver
Artist=Wrathchild
Album=Lamour Rocks
Tracknumber=01
Year=1987
Genre=Heavy Metal

[/more]

Register
(3) artscald, Carcharoth, caro,
Sep 14 2022, 08:09:39 UFO - BBC Radio 6, Live In London, Paris Theater [bootleg] (1975)


*Artist: UFO
*Album: BBC Radio 6, Live In London, Paris Theater [bootleg]
*Year: 1975
*Genre: Heavy Metal
*Country: United Kingdom
*Format: flac
*Size: 210MB

Tracklist:
1. Let It Roll 05:51
2. Doctor Doctor 05:06
3. Mother Mary 04:44
4. Out In The Street 05:10
5. Shoot Shoot 03:57
6. Rock Bottom 07:19
******************************
Total playing time: 32:07

[more=Extended info]Thanks to the original uploader, HEAR ROCK CITY[/more]

Register
(1) Dante_D,
Sep 14 2022, 08:01:19 The Offspring - Subject To Blackout [demo] (1986)


*Artist: The Offspring
*Album: Subject To Blackout [demo]
*Year: 1986
*Genre: Punk
*Country: United States
*Format: mp3@CBR320kbps
*Size: 46MB

Tracklist:
1. Blackball 03:24
2. Tonight in Do 02:12
3. Call itReligion 02:00
4. Ballroom Blitz (THE SWEET) 02:09
5. Halloween 03:03
6. Fire and Ice 03:32
******************************
Total playing time: 16:20

[more=Extended info]Thanks to the original uploader, Dan at www.old-fast-and-loud.blogspot.com[/more]

[more=Technical info]
Input File: 04-ballroom blitz (THE SWEET).mp3
Channels : 2
Sample Rate : 44100
Precision : 16-bit
Duration : 00:02:09.05 = 5691105 samples = 9678.75 CDDA sectors
File Size : 6.35M
Bit Rate : 394k
Sample Encoding: MPEG audio (layer I, II or III)
Comments :
Title=04-ballroom blitz (THE SWEET)
Artist=THE OFFSPRING - subject to blackout demo july 1986 (CA)
Tracknumber=4
Genre=12

[/more]

Register
(8) Carcharoth, Emm Human, gwar, hell_armageddon, Lanceatum, Old Vyaine, thenecromancer, zobero,
Sep 14 2022, 07:55:15 Red Square Black - Square [ep] (1994)


*Artist: Red Square Black
*Album: Square [ep]
*Year: 1994
*Genre: Heavy Metal/Industrial
*Country: United States
*Format: mp3@CBR192kbps
*Size: 30MB

Tracklist:
1. Violent Pause 05:30
2. I Lost My 04:15
3. Religious Sin 04:35
4. Man in the Hammock 04:00
5. Just Another Day 04:01
******************************
Total playing time: 22:21

[more=Extended info]https://en.wikipedia.org/wiki/Red_Square_Black

https://www.discogs.com/release/622500-Red-Square-Black-Square

Bass – Angelo Barbera
Drums – Randy Castillo [ex-Ozzy Osbourne drummer]
Guitar – John Lowery [aka Marilyn Manson / Rob Zombie guitar player, John 5]
Vocals – Mark Binder[/more]

[more=Technical info]
Input File: 01 Violent Pause.mp3
Channels : 2
Sample Rate : 44100
Precision : 16-bit
Duration : 00:05:30.17 = 14560321 samples = 24762.5 CDDA sectors
File Size : 7.92M
Bit Rate : 192k
Sample Encoding: MPEG audio (layer I, II or III)

[/more]

Register
(4) artscald, Carcharoth, caro, gwar,
Sep 14 2022, 07:34:29 Satan - Only Skulls Remain, The Dynamo, Eindhoven, Holland [bootleg] (1983)


*Artist: Satan
*Album: Only Skulls Remain, The Dynamo, Eindhoven, Holland [bootleg]
*Year: 1983
*Genre: NWOBHM
*Country: United Kingdom
*Format: mp3@CBR192kbps
*Size: 110MB

Tracklist:
1. Intro 00:18
2. Trial by Fire 04:26
3. No Turning Back 04:08
4. Heads Will Roll 03:55
5. Hunt you Down 03:18
6. Pull the Trigger 09:54
7. Break Free 07:06
8. Blades of Steel 04:58
9. The Ritual 05:45
10. Alone in the Dark 05:11
11. Drum Solo 03:38
12. Guitar Solo / Kiss of Death 06:36
13. Opression 06:07
14. Guitar Solo / The Executioner 05:32
15. Blitzkrieg 04:20
16. Dynamo 04:39
******************************
Total playing time: 1:19:51

[more=Extended info]1983-11-12 "Only Skulls Remain" [Bootleg], The Dynamo, Eindhoven, Holland

https://en.wikipedia.org/wiki/Satan_(band)

https://www.metal-archives.com/bands/Satan/774[/more]

[more=Technical info]
Input File: 15 - Satan - Blitzkrieg.mp3
Channels : 2
Sample Rate : 44100
Precision : 16-bit
Duration : 00:04:20.27 = 11477951 samples = 19520.3 CDDA sectors
File Size : 6.25M
Bit Rate : 192k
Sample Encoding: MPEG audio (layer I, II or III)
Comments :
Title=Satan - Blitzkrieg
Artist=Satan
Album=Only Skull Remain
Tracknumber=15
Genre=Desconhecido

[/more]

Register
(2) artscald, caro,
Sep 14 2022, 07:21:13 MVP - Welcome To The Breakfast Show [demo] (1995)


*Artist: MVP
*Album: Welcome To The Breakfast Show [demo]
*Year: 1995
*Genre: Heavy Metal
*Country: United States
*Format: mp3@VBR167kbps
*Size: 32MB

Tracklist:
1. Sometimes 05:37
2. Lucifer's Friend 04:10
3. You're so Sweet 04:14
4. The Calling 08:43
5. Stand Back 04:19
******************************
Total playing time: 27:03

[more=Extended info]Nashville, Tennessee
MVP stands for Michael Vescera Project.

https://www.metal-archives.com/bands/MVP/16298

Michael Vescera
Vocals, Keyboards, Piano

Death Keepers, Dramatica, Killing Machine, Magic Kingdom, Michael Vescera, Obsession, Vescera, Stygia, ex-Palace of Black, ex-Roland Grapow, ex-The Reign of Terror, ex-Fatal Force, ex-Sovereign, ex-Warrion, AniMaze X, Animetal USA, ex-Dr. Sin, ex-Loudness, ex-Yngwie Malmsteen, ex-D-Metal Stars, ex-Safe Haven, ex-Theatre[/more]

[more=Technical info]
Input File: 02. lucifer's friend.mp3
Channels : 2
Sample Rate : 44100
Precision : 16-bit
Duration : 00:04:10.17 = 11032673 samples = 18763 CDDA sectors
File Size : 5.35M
Bit Rate : 171k
Sample Encoding: MPEG audio (layer I, II or III)
Comments :
Title=lucifer's friend
Artist=MVP
Album=Welcome To the Breakfast Show (1995) Demo
Tracknumber=2
Year=1995

[/more]

Register
(3) artscald, Reverend, stumpheavyrock,
Sep 14 2022, 07:13:35 Michael Schenker Group - Reading Festival B B C Friday Rock Show [bootleg] (1982)


*Artist: Michael Schenker Group
*Album: Reading Festival B B C Friday Rock Show [bootleg]
*Year: 1982
*Genre: Heavy Metal
*Country: Germany
*Format: flac
*Size: 240MB

Tracklist:
1. Tommy Vance Intro 01:02
2. Armed And Ready 04:26
3. Cry For The Nations 05:34
4. Attack Of The Mad Axeman 04:42
5. Lost Horizons 12:15
6. Doctor Doctor 06:30
******************************
Total playing time: 34:29

[more=Extended info]Thanks to the original uploader

1982-08-29 Reading Festival.[BBC Friday Rock Show Broadcast '83]

https://www.metal-archives.com/artists/Mich..._Schenker/32564

https://en.wikipedia.org/wiki/Michael_Schenker_Group[/more]

Register
(2) artscald, thenecromancer,
Sep 14 2022, 07:08:06 Mercyful Fate - Odissea 2001 Rock Club, Milan, Italy [bootleg] (1984)


*Artist: Mercyful Fate
*Album: Odissea 2001 Rock Club, Milan, Italy [bootleg]
*Year: 1984
*Genre: Heavy Metal
*Country: Denmark
*Format: mp3@CBR192kbps
*Size: 93MB

Tracklist:
1. Intro 02:08
2. Doomed By The Living Dead 05:21
3. Black Masses 04:50
4. Curse Of The Pharaohs 04:02
5. Evil 04:51
6. Satan's Fall 11:21
7. Into The Coven 05:30
8. Gypsy 03:42
9. The Oath 06:02
10. At The Sound Of The Demon Bell 05:18
11. A Corpse Without Soul 07:37
12. Guitar Solo 03:02
13. Nuns Have No Fun 04:10
******************************
Total playing time: 1:07:54

[more=Technical info]
Input File: 13.Nuns Have No Fun.mp3
Channels : 2
Sample Rate : 44100
Precision : 16-bit
Duration : 00:04:10.45 = 11044757 samples = 18783.6 CDDA sectors
File Size : 6.01M
Bit Rate : 192k
Sample Encoding: MPEG audio (layer I, II or III)

[/more]

Register
(4) artscald, Carcharoth, caro, Reverend,
Sep 14 2022, 07:04:02 Loudness - Gotta Fight (Aka Odin) [ep] (1985)


*Artist: Loudness
*Album: Gotta Fight (Aka Odin) [ep]
*Year: 1985
*Genre: Heavy Metal
*Country: Japan
*Format: mp3@CBR192kbps
*Size: 26MB

Tracklist:
1. Gotta Fight 03:45
2. Eruption [instrumental] 03:16
3. Odin 05:20
4. Flash Out [instrumental] 04:10
******************************
Total playing time: 16:31

[more=Extended info]Thanks to the original uploader

https://www.metal-archives.com/albums/Loudness/Gotta_Fight/67142[/more]

[more=Technical info]
Input File: 1. Gotta Fight.mp3
Channels : 2
Sample Rate : 44100
Precision : 16-bit
Duration : 00:03:45.82 = 9958574 samples = 16936.4 CDDA sectors
File Size : 9.09M
Bit Rate : 322k
Sample Encoding: MPEG audio (layer I, II or III)
Comments :
Title=Gotta Fight
Artist=Loudness
Album=Odin EP
Tracknumber=1
Year=1985
Genre=Heavy Metal

[/more]

Register
(1) thenecromancer,
Sep 14 2022, 04:27:50 Chinatown - BBC Session [bootleg] (1982)


*Artist: Chinatown
*Album: BBC Session [bootleg]
*Year: 1982
*Genre: NWOBHM
*Country: United Kingdom
*Format: mp3@CBR192kbps
*Size: 26MB

Tracklist:
1. Caught On The Wrong Side 04:42
2. Back On The Streets 05:10
3. I Wanna See You Tonight 04:27
4. City Woman 04:30
5. friday rock show 00:43
******************************
Total playing time: 19:32

[more=Extended info]http://www.metal-archives.com/bands/Chinatown/11913

Thanks to the original uploader
cover art created by riptorn ofhttps://heavymetalrarities.com/forum/[/more]

[more=Technical info]
Input File: 01 - Caught On The Wrong Side.mp3
Channels : 2
Sample Rate : 44100
Precision : 16-bit
Duration : 00:04:42.00 = 12436200 samples = 21150 CDDA sectors
File Size : 6.77M
Bit Rate : 192k
Sample Encoding: MPEG audio (layer I, II or III)
Comments :
Title=Caught On The Wrong Side
Artist=Chinatown
Album=BBC Session
Tracknumber=01
Year=1982
Genre=NWoBHM

[/more]

Register
(2) artscald, Reverend,
Sep 14 2022, 04:02:06 Battlecry - Keepers Of The Light (2006)


*Artist: Battlecry
*Album: Keepers Of The Light
*Year: 2006
*Genre: Heavy/Power Metal
*Country: United States
*Format: mp3@CBR320kbps
*Size: 112MB

Tracklist:
1. Viking Invasion 01:13
2. Flamethrower 03:55
3. Reach for the Stars 04:46
4. Warriors Eyes 03:22
5. Hammer of Thor 05:17
6. Guardians In White 05:46
7. Hot Gates of Hell 09:08
8. European Man 04:17
9. Only One Way Out 03:16
10. Keepers of the Light 05:34
11. Immigrant Song (Led Zeppelin cover) 02:24
******************************
Total playing time: 48:58

[more=Extended info]Kingston, New York

For fans of DIO , Judas Priest, that want to hear musicians that play 1980's HEAVY / Power metal.
Thanks to the original uploader

http://www.metal-archives.com/bands/Battlecry/43326[/more]

[more=Technical info]
Input File: Battlecry (US) - 11 - mmigrant Song (Led Zeppelin cover).mp3
Channels : 2
Sample Rate : 44100
Precision : 16-bit
Duration : 00:02:24.23 = 6360543 samples = 10817.2 CDDA sectors
File Size : 5.77M
Bit Rate : 320k
Sample Encoding: MPEG audio (layer I, II or III)
Comments :
Title=mmigrant Song (Led Zeppelin cover)
Artist=Battlecry (US)
Album=Keepers Of The Light
Tracknumber=11/11
Year=2006
Genre=Heavy Metal / Mainstream Metal / Power Metal
Discnumber=1/1

[/more]

Register
(4) artscald, kimkayoung, Raw1488, sergsazan,
Sep 14 2022, 03:55:37 Battlecry - Battlecry (2005)


*Artist: Battlecry
*Album: Battlecry
*Year: 2005
*Genre: Heavy/Power Metal
*Country: United States
*Format: mp3@VBR240kbps
*Size: 65MB

Tracklist:
1. My Awakening 03:22
2. False Idols 04:03
3. Children Of The Winter Winds 05:25
4. Battlecry 06:00
5. Dream Forever 05:43
6. The Meatgrinder 05:39
7. Twist In The Wind 04:12
8. Triumph Of The Will 04:49
******************************
Total playing time: 39:13

[more=Extended info]Kingston, New York

For fans of DIO , Judas Priest, that want to hear musicians that play 1980's HEAVY / Power metal.
Thanks to the original uploader

http://www.metal-archives.com/bands/Battlecry/43326[/more]

[more=Technical info]
Input File: 01. My Awakening.mp3
Channels : 2
Sample Rate : 44100
Precision : 16-bit
Duration : 00:03:22.21 = 8917593 samples = 15166 CDDA sectors
File Size : 6.44M
Bit Rate : 255k
Sample Encoding: MPEG audio (layer I, II or III)
Comments :
Title=01. My Awakening
Artist=Battlecry
Album=Battlecry
Tracknumber=1/8
Year=2005
Genre=Heavy Metal

[/more]

Register
(8) artscald, aviacademy, BladeOvDarkness, caro, kimkayoung, Raw1488, Rover, sergsazan,
Sep 12 2022, 20:32:35 Death Sentence - Demo 1984 [demo] (1984)
Death Sentence (Can) 1986 Not A Pretty Sight @128
Register

20 minutes 41 seconds
1. Live to Die (2:48)
2. Fake (1:59)
3. In Flames (3:40)
4. Feel Fucked (1:30)
5. Dawn of the Dead (3:09)
6. Death Squad (2:19)
7. Nightmare (2:57)
8. R.C.M.P. (2:19)

(2) hell_armageddon, thenecromancer,
Sep 12 2022, 20:29:44 Death Tripper - Burnt Offerings [demo] (1985)
Death Tripper - Demo #2 1985 Burnt Offerings @256+320
Register

32 minutes 9 seconds
1. Baptised by Fire (4:00)
2. Angel of Death (3:56)
3. Beyond the Grave (3:16)
4. Unholy Trinity (5:47)
5. March to Die (5:46)
6. Chainsaw/Canis Major (9:24)
(5) after21allD, Carcharoth, hell_armageddon, thenecromancer, traitor666,
Sep 12 2022, 20:28:15 Death Tripper - Canis Major [demo] (1986)
Death Tripper - Demo #3 1986 Canis Major @256+320
Register

24 minutes 49 seconds
1. Into The Pit (4:05)
2. Canis Major (3:39)
3. Conquered They Fall (4:24)
4. Project Terror (4:15)
5. In the Name of Hell (5:02)
6. Blood Offering (3:24)
(4) Carcharoth, hell_armageddon, thenecromancer, wgs73,
Sep 12 2022, 20:25:31 Eldritch Rite - Demo ’86 [demo] (1986)
ELDRITCH RITE (US) 2009 CD (1986 Demo) @ EAC 320
Register
(3) Carcharoth, hell_armageddon, thenecromancer,
Sep 12 2022, 20:24:15 Enslaved - Live In London, Ontario Canada 27.07.1995 [bootleg] (1995)
Enslaved 1995-07-27- Live Ontario Canada by Velkaarn @192
Register
(1) thenecromancer,
Sep 12 2022, 20:21:52 Imperator - Live At Białystok 10.09.1988 [bootleg] (1988)
Imperator [Pol] 1988 Live In Poland 9-10-1988 @128
Register
(1) thenecromancer,
Sep 12 2022, 20:20:39 LawShed - Spirits And Souls (1992)
LawShed (Jpn) 1992 Spirits and Souls @192
Register

(1) hell_armageddon,
Sep 6 2022, 04:52:53 Sea Monkeys & Apoplexy - Arthritis Of The Spine [split] (1990)
Sea Monkeys (US) - Rehearsal Demo (1986)

http://i.imgur.com/RoXKi3u.jpg

Genre: Hardcore / Noise
Country: USA (Portland, Oregon)
Bitrate: vbr (avg.180 kbps)
Size: 10.8 MB
Sea Monkeys members were from Washougal, Washington ? (for proof, see Battlefield #6, 1986, zine).
i still do not have the song titles.
possible logo added above, from a concert flyer used in the interview.
https://www.discogs.com/artist/1243654-Sea-Monkeys-2
Unknown song titles.
tape hiss.
thanks to the original uploader, andyroopunk from the Lockjaw blog
http://web.archive.org/web/20130705124911/...-demo-1986.html

This for fans of noisy bands, like Larm, Heresy (UK), Cryptic Slaughter, NYC Mayhem.
7 minutes 49 seconds

01 (1:03)
02 (1:19)
03 (1:16)
04 (1:41)
05 (1:33)
06 (0:57)
Register

(2) hell_armageddon, stumpheavyrock,
Sep 4 2022, 08:25:07 Racer X - Practice Tape [bootleg] (1986)


*Artist: Racer X
*Album: Practice Tape [bootleg]
*Year: 1986
*Genre: Heavy Metal/Shred
*Country: United States
*Format: mp3@VBR128kbps
*Size: 30MB

Tracklist:
1. EVIL JOE dancemix 02:40
2. EVIL JOE call 04:53
3. Blowin' Up The Radio 03:29
4. Dangerous Love 03:56
5. Endless 03:14
6. Get Away 03:18
7. Rock It 04:06
8. Street Lethal 05:04
9. Cold Gin (live) 05:00
******************************
Total playing time: 35:40

[more=Extended info]Thanks to painmuseum for originally uploading.

https://www.metal-archives.com/bands/Racer_X/1306

includes humourous tracks
"JUST A LITTLE PRACTICE GIG RACER X DID IN A GARAGE BEFORE A TOUR.
I ALSO INCLUDED THE ACTUAL PHONE CONVERSATION THAT SPAWNED THE SONG "EVIL JOE"
AND A DANCE MIX OF "EVIL JOE" AS WELL. ITS SOME FUNNY STUFF."
-painmuseum[/more]

[more=Technical info]
Input File: racerxpracticestreetlethal.mp3
Channels : 2
Sample Rate : 44100
Precision : 16-bit
Duration : 00:05:04.83 = 13443003 samples = 22862.2 CDDA sectors
File Size : 4.88M
Bit Rate : 128k
Sample Encoding: MPEG audio (layer I, II or III)
Comments :
Title=Street Lethal
Artist=Racer X
Album=Demo-Practice
Tracknumber=1
Year=1988
Genre=Metal

[/more]

Register
(4) after21allD, artscald, CaptianGoreGrind, Reverend,
Sep 4 2022, 04:17:37 Battle Bratt - Demo [demo] (1984)


*Artist: Battle Bratt
*Album: Demo [demo]
*Year: 1984
*Genre: Heavy Metal
*Country: United States
*Format: mp3@CBR160kbps
*Size: 14MB

Tracklist:
1. Battle Bratt 03:11
2. Strike Me Dead 04:11
3. Weekend Girl 05:15
******************************
Total playing time: 12:37

[more=Extended info]Sounds like the first Overkill LP to me, but without the thrash element

Thanks to the original uploader, Strad, on the old Lockjaw blog

http://web.archive.org/web/20130705155308/http://lockjaw-yappy.blogspot.com/2009/08/battle-bratt-demos.html[/more]

[more=Technical info]
Input File: 05 Battle Bratt.mp3
Channels : 2
Sample Rate : 44100
Precision : 16-bit
Duration : 00:03:11.82 = 8459262 samples = 14386.5 CDDA sectors
File Size : 3.84M
Bit Rate : 160k
Sample Encoding: MPEG audio (layer I, II or III)
Comments :
Title=Battle Bratt
Artist=Battle Bratt (US)
Album=Demo 1984
Tracknumber=5

[/more]

Register
(3) after21allD, Ingvar, thenecromancer,
Sep 4 2022, 03:45:46 Bitterness - As All Beauty Starts To Fade... [ep] (2007)
Bitterness (Ger) (2007) As All Beauty Starts To Fade... [10'' WAV Vinyl rip]
Size: 190 MB
Register
(2) wanderer73, wreak,

42 Pages V   1 2 3 > » 
- Lo-Fi Version Support form
Copyrights and abuse reports form
Time is now: 25th September 2022 - 22:12:48