Welcome Guest ( Log In | Register )

История благодарностей участнику canadaspaceman ::: Спасибо сказали: 2320 раз(а)
Дата поста: В теме: За сообщение: Спасибо сказали:
Nov 24 2020, 21:46:13 K626 - Beyond The Grave Vol.1 [ep] (2006)


*Artist: K626
*Album: Beyond The Grave Vol.1 [ep]
*Year: 2006
*Genre: Death Metal
*Country: United States
*Format: mp3@CBR128kbps
*Size: 13MB

Tracklist:
1. Necronomicide 03:20
2. Repent 03:46
3. Knights of Soterion 03:06
4. Beyond the Grave 03:06
******************************
Total playing time: 13:18

[more=Extended info]Thanks to the original ripper and uploader.

Country: USA (Crestline, California)

https://www.metal-archives.com/bands/K626/82330

Lyrical themes: Christianity

https://www.spirit-of-metal.com/en/discography/K626/1

pre-Grimwolf

https://www.metal-archives.com/bands/Grimwolf/3540294148[/more]

[more=Technical info]
Input File: 01 - Necronomicide.mp3
Channels : 2
Sample Rate : 44100
Precision : 16-bit
Duration : 00:03:20.18 = 8828070 samples = 15013.7 CDDA sectors
File Size : 3.39M
Bit Rate : 135k
Sample Encoding: MPEG audio (layer I, II or III)
Comments :
Title=Necronomicide
Artist=K626
Album=Beyond the Grave Vol.1
Tracknumber=1
Year=2006-01-01
Genre=Pop / Rock
Discnumber=1

[/more]

Register
(6) infiltrator, Olethros, Rosen, thenecromancer, vyacheslav, wanderer73,
Nov 21 2020, 17:21:34 Victims Of Reality - Morbid Joys [demo] (1995)


*Artist: Victims Of Reality
*Album: Morbid Joys [demo]
*Year: 1995
*Genre: Doom/Groove/Heavy Metal
*Country: United States
*Format: mp3@CBR320kbps
*Size: 53MB

Tracklist:
1. Cold Day in Hell 04:33
2. Maybe I'm Wrong 04:09
3. Morbid Joys 03:37
4. Victims of Reality 04:06
5. Cuppa Joe [bonus track] 00:27
******************************
Total playing time: 16:52

[more=Extended info]Thanks to the original ripper and uploader, Christopher Moon.
cover scan included.

Mr. Moon did "all the artwork manually, as this was before the pc revolution hit it's stride, so it was all cut-n-paste."

Christopher Moon - Guitar, Vocals
Michael McCoy - Bass, Vocals
Richard Nelson - Lead Vocals
Benjamin Trautlein - Drums

http://www.soundclick.com/mrmoon[/more]

[more=Technical info]
Input File: 5.VOR-MorbidJoys-BONUS-CuppaJoe.mp3
Channels : 2
Sample Rate : 44100
Precision : 16-bit
Duration : 00:00:27.43 = 1209795 samples = 2057.47 CDDA sectors
File Size : 3.56M
Bit Rate : 1.04M
Sample Encoding: MPEG audio (layer I, II or III)
Comments :
Title=Cuppa Joe
Artist=Victims of Reality (US-MN)
Album=Morbid Joys [Demo] (1995) and bonus track
Tracknumber=5
Year=1995
Genre=Doom Metal/ Groove Metal / Heavy Metal

[/more]

Register
(7) infiltrator, Olethros, Rosen, stumpheavyrock, VALERY, varlam4, Z28517,
Nov 21 2020, 04:09:08 Today Needed
QUOTE(thenecromancer @ Nov 20 2020, 22:23:54) *

found on internet
https://rac-forum.org/forum/showthread.php?p=334721
Register

(2) infiltrator, thenecromancer,
Nov 19 2020, 23:32:10 Hyste'riah - Attempt The Life [demo] (1987)
found on internet, July 17, 2007,
Courtesy of http://bangbangblog.info
SOUND OF THE BEAST/Bazillion Points http://www.soundofthebeast.com
size: 22.1 MB
bitrate: vbr
Hyste’riah's 1987 4-song demo, Attempt The Life , at this location
Register
(2) infiltrator, Wail,
Nov 19 2020, 23:30:50 Today Needed
QUOTE(thenecromancer @ Nov 19 2020, 20:24:43) *

found on internet
Courtesy of http://bangbangblog.info
SOUND OF THE BEAST/Bazillion Points http://www.soundofthebeast.com
size: 22.1 MB
bitrate: vbr
Hyste’riah's 1987 4-song demo, Attempt The Life , at this location
Register

(2) infiltrator, thenecromancer,
Nov 18 2020, 15:03:31 Anacrusis - Live At Kit Festival, Germany [bootleg] (2010)


*Artist: Anacrusis
*Album: Live At Kit Festival, Germany [bootleg]
*Year: 2010
*Genre: Thrash Metal
*Country: United States
*Format: mp3@CBR320kbps
*Size: 189MB

Tracklist:
1. Present Tense/Driven 12:15
2. Something Real/Stop Me 12:41
3. Terrified 05:02
4. Release 04:43
5. Butcher's Block/Paint A Picture 10:21
6. I Love the World (New Model Army cover) 04:57
7. Afraid to Feel 06:17
8. Still Black 06:39
9. Fighting Evil 04:32
10. Sound the Alarm 06:43
11. Imprisoned 07:54
******************************
Total playing time: 1:22:04

[more=Extended info]Thanks to who originally recorded this, ripped the tape, and uploaded, nonseinormale65 from heavymetalrarities

Release: Audience live bootleg

Date: 2010-04-23 (23 April 2010)

City: Lauda- Konigshofen (Germany) - at KIT XIII° Festival

Venue: Tauberfrankenhalle[/more]

[more=Technical info]
Input File: 03 - Terrified.mp3
Channels : 2
Sample Rate : 44100
Precision : 16-bit
Duration : 00:05:03.13 = 13368165 samples = 22735 CDDA sectors
File Size : 12.1M
Bit Rate : 320k
Sample Encoding: MPEG audio (layer I, II or III)
Comments :
Title=03 - Terrified
Tracknumber=3

[/more]

Register
(9) infiltrator, kimkayoung, Marek, multizwilling, Olethros, Rosen, thenecromancer, varlam4, Wail,
Nov 11 2020, 19:52:03 Retaliador - Comando Das Trevas [demo] (2005)
found on web.
Thanks to the original uploader.
Retaliador (Bra) Levantando da Tumba 2004-2012 [2012 Comp] [320]
https://www.metal-archives.com/albums/Retal...004-2012/359510
Tracks 01-04 taken from Sobrevivencia EP, 2012.
Tracks 05-08 taken from Split with Nuclear Frost, 2011.
Tracks 09-14 taken from Ultra Violencia Demo, 2006.
Tracks 15-20 taken from Comando das Trevas Demo, 2005. (so only the last track is missing from the demo, "Retalhação (Bloody Vocals)"
Register
(3) FUDEDOR, thenecromancer, Wail,
Nov 10 2020, 16:03:22 Aceium - Wicked Metal [demo] (1982)


Aceium (Can) 1982 Wicked Metal Demo [192]
Country: Canada (Ottawa, Ontario)
Bitrate 192 kbps
Size: 56.0 MB
Lyrical themes: Epic, War, Fantasy

Oldschool traditional headbanging heavy metal.
Sort of classy in the Judas Priest, Witchkiller style.

Thanks to the original uploader, I grabbed this from, Lord Bones/Boneyard Metal 80s Metal.

https://www.metal-archives.com/bands/Aceium/34518
https://www.discogs.com/Aceium-Wicked-Metal/release/3470553

40 minutes 14 seconds

1. Cold Steel (5:42)
2. Let Loose (5:16)
3. Walking With Evil (4:56)
4. No Peace (3:32)
5. Wrong Place (4:03)
6. Metal Flake (4:26)
7. Eyes Of Pain (6:55)
8. Satan's Laugh (5:24)
Register
(2) thenecromancer, varlam4,
Nov 9 2020, 20:54:49 Motley Crue - Too Fast For Love [Leathur Records Pressing] (1981)


*Artist: Motley Crue
*Album: Too Fast For Love [Leathur Records Pressing]
*Year: 1981
*Genre: Heavy Metal
*Country: United States
*Format: wv
*Size: 398MB

Tracklist:
1. Live Wire 03:16
2. Public Enemy #1 04:23
3. Take Me To The Top 03:44
4. Merry-Go-Round 03:20
5. Piece Of Your Action 04:39
6. Starry Eyes 04:24
7. Stick To Your Guns 04:18
8. Come On And Dance 03:11
9. Too Fast For Love 04:05
10. On With The Show 04:02
******************************
Total playing time: 39:22

[more=Extended info]Mötley Crüe (US) - Too Fast for Love (1981) [Leathur Records pressing] [Lossless WAV Vinyl Rip]

SAME RAW mix as the original Elektra Records Canada pressing

https://en.wikipedia.org/wiki/Too_Fast_for_Love

https://www.discogs.com/M%C3%B6tley-Cr%C3%BCe-Too-Fast-For-Love/release/2542972

https://www.metal-archives.com/albums/M%C3%B6tley_Cr%C3%BCe/Too_Fast_for_Love/4779

Thanks to the original uploader[/more]

Register
(3) gattometal, hellbibber, Olethros,
Nov 9 2020, 07:32:03 Butcher Babies - Uncovered [ep] (2014)
Butcher Babies - Uncovered (2014)@VBR
Size: 28.2 MB
13 minutes 59 seconds
1. Butcher Babies - Beer Drinkers & Hell Raisers (ZZ Top) (2:54)
2. Butcher Babies - They're Coming To Take Me Away (Napolean XIV) (3:16)
3. Butcher Babies - Don't Give A Fuck (Suicidal Tendencies) (2:22)
4. Butcher Babies - Crazy Horses (The Osmonds) (2:55)
5. Butcher Babies - Pussy Whipped (Stormtroopers Of Death) (2:32)
Register
(3) infiltrator, metaljosue, thenecromancer,
Oct 25 2020, 21:10:51 Spewgore - Friday The 13Th Of March [bootleg] (2009)


*Artist: Spewgore
*Album: Friday The 13Th Of March [bootleg]
*Year: 2009
*Genre: Thrash Metal
*Country: Canada
*Format: mp3@CBR160kbps
*Size: 32MB

Tracklist:
1. You'll Never Learn 03:30
2. Loose Cannon 01:38
3. Self Perceived Image 01:47
4. Knuckle Sandwich 02:53
5. Idiots Rule 02:52
6. The Ride 02:34
7. Fool Me Once 02:45
8. Powertrip 02:29
9. Guts and the Gory 02:58
10. I Own You 01:59
11. Everything Hates Me 03:04
******************************
Total playing time: 28:29

[more=Extended info]Canada (Brampton, Ontario)

audience recording by mlotek

https://www.metal-archives.com/bands/Spewgore/89705
https://www.spirit-of-metal.com/en/band/Spewgore
https://www.discogs.com/artist/1405351-Spewgore

https://myspace.com/spewgore


https://twitter.com/spewgore?lang=en[/more]

[more=Technical info]
Input File: 02.Loose Cannon.mp3
Channels : 2
Sample Rate : 44100
Precision : 16-bit
Duration : 00:01:38.54 = 4345658 samples = 7390.57 CDDA sectors
File Size : 2.06M
Bit Rate : 167k
Sample Encoding: MPEG audio (layer I, II or III)
Comments :
Title=Loose Cannon
Artist=Spewgore
Album=FridayThe13th,March2009
Tracknumber=2
Year=2009
Genre=Thrash Metal

[/more]

Register
(6) infiltrator, Olethros, Rosen, stumpheavyrock, Svafrlami, thenecromancer,
Oct 19 2020, 21:10:21 Massacration - Gates Of Metal Fried Chicken Of Death (2005)


Massacration (Bra) - The Gates Of Metal Fried Chicken Of Death (2005)
Genre: Heavy Metal
Country: Brazil (Rio de Janeiro)
https://www.metal-archives.com/bands/Massacration/52303
Thanks to the original ripper and uploaders.

"Massacration was a satiric band created by a TV Show from MTV Brazil, whose songs were written predominantly in English, but contained messed up words derived from Portuguese in a way one would have to speak both languages to understand their meanings."

128 kbps
Size: 42.6 MB
Register

VBR
Size: 75.9 MB
Register

.ogg Lossless (1411 kbps)
Size: 32.0 MB
Register


(1) thenecromancer,
Oct 11 2020, 20:48:15 Militia - Cameo Theatre, San Antonio, Texas [bootleg] (1985)


*Artist: Militia
*Album: Cameo Theatre, San Antonio, Texas [bootleg]
*Year: 1985
*Genre: Thrash/Speed/Power Metal
*Country: United States
*Format: mp3@CBR160kbps
*Size: 52MB

Tracklist:
1. Militia(US - Texas) - Live,Camdeo Theatre - San Antonio´28.09.85 45:58
******************************
Total playing time: 45:58

[more=Extended info]Thanks to the original ripper and uploader.

More than likely this is Sonicbludgeon's rip.

https://www.metal-archives.com/bands/Militia/1804

Vocals - Mike Soliz
Guitar - Tony Smith
Bass - Robert Willingham
Drums - Phil Achee

The Cameo Theater, September 28th, 1985.
The show was produced by The Unholy Book, a South Texas metal magazine.
Watchtower, Militia, Morbid Termination, Death Tripper.[/more]

[more=Technical info]
Input File: Militia(US - Texas) - Live,Camdeo Theatre - San Antonio`28.09.85.mp3
Channels : 2
Sample Rate : 44100
Precision : 16-bit
Duration : 00:45:58.38 = 121644338 samples = 206878 CDDA sectors
File Size : 55.2M
Bit Rate : 160k
Sample Encoding: MPEG audio (layer I, II or III)
Comments :
Title=Militia(US - Texas) - Live,Camdeo Theatre - San Antonio`28.09.85
Artist=
Album=
Tracknumber=1
Genre=Other

[/more]

Register
(9) after21allD, infiltrator, Oldskulthrasher, Olethros, randumbum, Rosen, varlam4, Wail, wreak,
Oct 11 2020, 17:11:15 David Zaffiro - Surrender Absolute (1992)


*Artist: David Zaffiro
*Album: Surrender Absolute
*Year: 1992
*Genre: Hard Rock/Aor
*Country: United States
*Format: flac
*Size: 309MB

Tracklist:
1. Find My Way 04:05
2. To The Heavens 04:16
3. Carousel 04:17
4. Silas And Serai 05:18
5. In A Box 04:06
6. Attitude 03:58
7. Calling Out To Me 04:50
8. Surrender Absolute 04:00
9. Every Little Thing 04:20
10. No Long Goodbyes 05:03
******************************
Total playing time: 44:13

[more=Extended info]Cassette Album tape rip

third solo album by ex-Bloodgood guitarist

Label: Frontline Records – FLC9421

https://www.discogs.com/David-Zaffiro-Surrender-Absolute/release/7624492

https://en.wikipedia.org/wiki/David_Zaffiro[/more]

Register
(3) infiltrator, MrSatanislav, Olethros,
Oct 9 2020, 15:35:46 Blackglama - So Slick It Hurts (1989)


*Artist: Blackglama
*Album: So Slick It Hurts
*Year: 1989
*Genre: Hard Rock/Glam Metal
*Country: Canada
*Format: mp3@CBR320kbps
*Size: 54MB

Tracklist:
1. Guru Of Love 03:39
2. Blues From An Angel 03:11
3. Chronic Symptom 04:27
4. Playin' Hardball (With The Big Boys) 03:15
5. Poor Boy 03:58
6. Loser In Love 04:24
******************************
Total playing time: 22:54

[more=Extended info]"Basic LA sleaze glam leaning towards Zodiac Mindwarp".
For fans of bands like L.A. Guns, Faster Pussycat, etc

Thanks to the original uploader, skar.

https://www.discogs.com/Blackglama-So-SLick-It-Hurts/release/3662155

Vocals,Harmonica - K.C.
Bass – Charli Azidparti
Guitar – Paul Bishop
Drums, Piano – Steve (Lord Snake) G[/more]

[more=Technical info]
Input File: 01 - guru of love.mp3
Channels : 2
Sample Rate : 48000
Precision : 16-bit
Duration : 00:03:39.29 = 10525968 samples ~ 16446.8 CDDA sectors
File Size : 8.77M
Bit Rate : 320k
Sample Encoding: MPEG audio (layer I, II or III)
Comments :
Title=guru of love
Artist=blackglama
Album=so slick it hurts
Tracknumber=01
Year=1989

[/more]

Register
(3) after21allD, infiltrator, Olethros,
Oct 7 2020, 21:36:06 Violent Attack - Violent Attack Live [live] (2006)


*Artist: Violent Attack
*Album: Violent Attack Live [live]
*Year: 2006
*Genre: Thrash Metal
*Country: Paraguay
*Format: mp3@CBR320kbps
*Size: 104MB

Tracklist:
Side A
1. Thrashing with Hate 03:22
2. Destruction and Death 04:17
3. M.A.B. 03:30
4. Nuclear Crossfire 04:42
5. Troops of Doom (Sepultura cover) 03:33
6. Massacra (Hellhammer cover) 02:35
Side B
7. Violent Attack 05:42
8. When the Barbarity Reigned 04:22
9. Brain Dead 04:25
10. They Shall Pay 03:16
11. Dead City (Violent Force cover) 03:58
******************************
Total playing time: 43:42

[more=Extended info]Song 1-5: Live, December 25, 2004
Song 6: Rehearsal 2003 (bonus)
Song 7-11: Live 2002

For fans into rough/dirty thrash metal,
eg. SODOM (In the Sign of Evil, Obsessed by Cruelty), DESTRUCTION (Sentence of Death, Infernal Overkill), KREATOR (Endless Pain), SEPULTURA (Bestial Devastation), etc.

Release date: September 2006
Catalog ID: KV-R 013
Limited edition, Hand-numered, 500 Cassette copies
Label: Kuravilú Productions

tape rip by me

NO audio cleaning used, and tape hiss can be heard.
Don't like that? then fuck off.
Not for wimps

https://www.metal-archives.com/albums/Violent_Attack/Violent_Attack/139719

https://www.discogs.com/Violent-Attack-Live/release/5853574[/more]

[more=Technical info]
Input File: 01. Thrashing with Hate.mp3
Channels : 2
Sample Rate : 44100
Precision : 16-bit
Duration : 00:03:22.62 = 8935366 samples = 15196.2 CDDA sectors
File Size : 8.36M
Bit Rate : 330k
Sample Encoding: MPEG audio (layer I, II or III)
Comments :
Title=Thrashing with Hate
Artist=Violent Attack (Paraguay)
Album=Live Album
Tracknumber=1
Year=2006
Genre=Thrash Metal

[/more]

Register
(9) infiltrator, Mogozoz, Niknne, Olethros, rebornflms95, Rosen, varlam4, Wail, wreak,
Oct 7 2020, 12:40:38 Tygers Of Pan Tang - Unreleased Album Demos [demo] (1983)


*Artist: Tygers Of Pan Tang
*Album: Unreleased Album Demos [demo]
*Year: 1983
*Genre: Nwobhm
*Country: United Kingdom
*Format: mp3@CBR320kbps
*Size: 85MB

Tracklist:
1. With You 03:36
2. Square One 04:54
3. Travel the World 03:41
4. Darkest Cloud 05:03
5. Time Files 03:43
6. Real Life 03:42
7. Samurai 03:03
8. Fake Diamonds 03:38
9. Answers 03:41
******************************
Total playing time: 35:01

[more=Extended info]Ripped and originally uploaded by Daysbetween of heavymetalrarities, thanks a lot!

Demos recorded for unreleased 5th album just before band split.
All songs unreleased elsewhere.

Jon Deverill Vocals
Fred Purser - Guitar + Keyboards
Robb Weir - Guitar
Rocky - Bass
Brian Dick - Drums[/more]

[more=Technical info]
Input File: 01. With You.mp3
Channels : 2
Sample Rate : 44100
Precision : 16-bit
Duration : 00:03:36.51 = 9548267 samples = 16238.5 CDDA sectors
File Size : 8.66M
Bit Rate : 320k
Sample Encoding: MPEG audio (layer I, II or III)
Comments :
Title=With You
Artist=Tygers Of Pan Tang
Album=Unreleased Album Demos
Year=1983

[/more]

Register
(9) infiltrator, Olethros, Rosen, stumpheavyrock, tireheb, vaalkoth, varlam4, Wail, wreak,
Oct 3 2020, 18:07:20 Michael White - The White (1990)


*Artist: Michael White
*Album: The White
*Year: 1990
*Genre: Hard Rock/Bluesy Rock
*Country: United States
*Format: mp3@CBR320kbps
*Size: 116MB

Tracklist:
1. Swampsnake 05:15
2. The Stroll 03:01
3. China Blue 03:36
4. Communication Breakdown 04:12
5. Tennessee 03:10
6. Baby Let's Play House 02:23
7. The X 04:00
8. Satisfaction Man 02:37
9. Fire 03:06
10. The Whisky Song 04:08
11. Ooh My Head 04:00
12. Whole Lotta Love 10:47
******************************
Total playing time: 50:15

[more=Extended info]Thanks to the original uploader, eggnish from Heavy Metal Rarities.

Led Zeppelin - type clone band / Bluesy Rock
second album from Robert Plant influenced Vocalist

https://en.wikipedia.org/wiki/Michael_White_%26_The_White

Line Up:
Michael White - Vocals, Harmonica, Keyboards, Guitars
Phil Bolene - Acoustic & Electric Guitars, Mandolin
Gene Stout - Bass Guitar
Danny Bilan - Drums[/more]

[more=Technical info]
Input File: 07 Michael White - The X.mp3
Channels : 2
Sample Rate : 44100
Precision : 16-bit
Duration : 00:04:01.02 = 10628938 samples = 18076.4 CDDA sectors
File Size : 9.64M
Bit Rate : 320k
Sample Encoding: MPEG audio (layer I, II or III)
Comments :
Title=The X
Artist=Michael White
Album=Michael White & The White
Tracknumber=7/12
Year=1990
Genre=Hard Rock
Discnumber=1/1

[/more]

Register
(4) Diflock, infiltrator, marilin, Olethros,
Oct 3 2020, 17:31:09 Santa Claus - Rocks In Your Stocking [demo] (1988)
Santa Claus (US) Demo 88 Rocks in Your Stocking @320
Size: 98.9 MB
42 minutes 45 seconds
Thanks to the original uploader.
Register

(1) Wail,
Oct 3 2020, 16:48:03 Various Artists - Florida Explosion [compilation] (1985)


*Artist: Various Artists
*Album: Florida Explosion [compilation]
*Year: 1985
*Genre: Heavy Metal/Punk
*Country: United States
*Format: mp3@CBR128kbps
*Size: 83MB

Tracklist:
1. Disorderly Conduct - All Talk 02:29
2. Rock City Angels - Pit Bull 03:05
3. Amazing Grace - White Dollar 02:57
4. Crank - Endless Sky 03:50
5. Cryer - Getting Back 02:47
6. Nobody's Heroes - Johnny Left Home 02:23
7. We the Living - Shamada 02:35
8. RBT - War Games 03:44
9. Sector 4 - Destroy 01:24
10. Pagan Faith - Wimpy Skank 03:16
11. Poison Pack - Aim and Run 01:45
12. Reactions - Sick of You 01:55
13. Incursion - Vengence 03:53
14. Drills - Vultures 05:54
15. Drills - Got No Heart 02:39
16. Disorderly Conduct - Some Real Friend 03:45
17. Abusers - Angels of the Night 02:27
18. Nobody's Heroes - Oh No! 01:29
19. Sector 4 - Iss 01:07
20. Pagan Faith - Here They Come 01:22
21. Incursion - Tell Me the Truth 04:35
22. Crank - All Reved Up 03:19
23. Amazing Grace - Morbid Opera 03:30
24. Foul Existence - New Hope for the Dead 01:42
25. U.S. Furys - Stars in Your Eyes 03:43
26. Cryer - What You've Done 03:06
27. Poison Pack - Hold Me 02:25
28. Reactions - Haulover Beach 02:02
29. Myron & the 2 Wotz - Wang 00:49
******************************
Total playing time: 1:19:57

[more=Extended info]Rick Lennick's Florida Explosion Comp

Thanks to the original ripper and uploader, Moss Memorial Reboot 2012 facebook group.

https://www.discogs.com/Various-Florida-Explosion/release/15475738
Alter Reels / E-Sync Records #ARE 1
"Compiled by Rick Lennick, former DJ at Flynn's on Miami Beach."[/more]

[more=Technical info]
Input File: 02. Pit Bull.mp3
Channels : 2
Sample Rate : 44100
Precision : 16-bit
Duration : 00:03:05.03 = 8159911 samples = 13877.4 CDDA sectors
File Size : 3.25M
Bit Rate : 141k
Sample Encoding: MPEG audio (layer I, II or III)
Comments :
Title=Pit Bull
Artist=Rock City Angels
Album=Florida Explosion [Compilation]
Tracknumber=2
Year=1985

[/more]

Register
(5) after21allD, infiltrator, Rosen, Svafrlami, Xutun,
Sep 29 2020, 21:33:21 Zirconium (New Zealand) Demo (2002)
Zirconium (Nzl) - [Demo] (2002)





Genre: Death/Black Metal
Country: New Zealand (Wellington)
youtube rip
Bitrate: 128 kbps
Size: 25.1 MB
24 minutes 58 seconds
1. Intro (0:14)
2. Tranquil Sky (5:22)
3. Fake Embrace (7:11)
4. Embedded Within (5:46)
5. The Veil of Negative Existence (6:25)
---------------------------------------------------------------------
Thanks to the original uploader, anaemiabag
https://www.youtube.com/watch?v=hIWLTz8XfK4

https://www.discogs.com/artist/5305001-Zirconium-2
https://www.metal-archives.com/bands/Zirconium/26190

Vocals - Jolene Tempest [Dark Divinity, ex-Bulletbelt]
Guitars - Maelstrom [ex-Falciform, ex-Denial, ex-Draco Aerius, ex-Monsterworks, ex-Demiurge]
Bass - Astrophus [Draco Aerius, ex-Kaput Mortuum, ex-Eternal Damnation, ex-Lucretia]
Drums - Jason Hislop [Cenosphere, Draco Aerius, ex-Falciform, ex-Denial, ex-Slave Cadaver (live), ex-Backyard Burial, ex-Demiurge]
Violin - Rosemary Dey (R.I.P. 2016)

Register


(2) thenecromancer, Wail,
Sep 28 2020, 18:30:38 Baphomet - Baphomet [single] (1990)
Baphomet 1990 Apocalypse Club Toronto, photo by Susan S.E. Campbell
https://i.imgur.com/hrPndqD.jpg
(1) thenecromancer,
Sep 27 2020, 21:04:23 Various Artists - Alice Cooper And Friends [ T V Special ] [concert] (1977)


*Performer: Various Artists
*Title: Alice Cooper And Friends [ T V Special ]
*Type: Concert
*Year: 1977
*Genre: Rock And Roll/Hard Rock
*Country: Many

*Audio: ac3@127kbps
*Video: h.264@352kbps
*Resolution: 320x208
*Size: 175MB
******************************
*Length: 00:50:20

[more=Extended info]Codec: H264 = MPEG-4 AVC (part 10)(avc1)4
video size (data rate): 352 kbps
Bitrate: 480 kbps
FPS: 15.000 fps

audio: 127 kbps stereo MPEG AAC Audio (mp4a)
44 100 kHz

Thanks to the original uploader, Boris Koscheev

POOR QUALITY - for diehard fans only!

some of it is on youtube
https://www.youtube.com/playlist?list=PLsfV8Vk2ZCPmUvibCpAY4AZWdXW3ygfgV

https://www.imdb.com/title/tt0283244/

https://en.wikipedia.org/wiki/Alice_Cooper_and_Friends

Alice Cooper and Friends was a live music television special starring Alice Cooper.
Broadcast in the United States in September 1977, it was released on VHS in 1978.
This rare video has a running time of 52 minutes, of which 25 minutes feature Cooper.
It also features live footage of The Tubes, Nazareth and Sha Na Na.

Alice Cooper and Friends was filmed in concert on 19 June 1977 at the Anaheim Stadium, Anaheim, California, USA.

This was the first night of Cooper's "King of the Silver Screen" tour, in support of his album Lace and Whiskey.
The special captured a very drunken and lethargic performance by Cooper, which he himself has dismissed as his worst performance.
The video does include the infamous Chickens with Machine Guns sequence during the song "Lace and Whiskey".
This special was the only commercially released video footage from that tour.

The video of the special has been discontinued since its original release, and has not been issued on DVD.
---------------------------------------------------------------------
1. Alice Cooper - School's Out
2. Nazareth - This Flight Tonight
3. Nazareth - Love Hurts
4. Sha Na Na - Yakety Yak (the Coasters cover)
5. Sha Na Na - Jailhouse Rock (Elvis Presley cover)
6. Sha Na Na - Leader of the Pack (The Shangri-Las cover)/I Will Follow Him (Little Peggy March cover)
7. Sha Na Na - Blue Moon (cover song)
8. The Tubes - Love Will Keep Us Together (Captain & Tennille cover)
9. The Tubes - This Town (Frank Sinatra cover)
10. Nazareth - Loved And Lost
11. Alice Cooper - Is It My Body (excerpt)
12. Alice Cooper - Under My Wheels (excerpt)
13. Alice Cooper - Billion Dollar Babies (excerpt)
14. Alice Cooper - You And Me
15. Alice Cooper - Only Women Bleed (excerpt)
16. Alice Cooper - Lace And Whiskey
17. Alice Cooper - I Love The Dead[/more]

Register
(1) Wail,
Sep 26 2020, 11:39:32 Emmos - Tyrant After Tyrant [demo] (2005)
Emmos (Fra) 2005 Tyrant After Tyrant Demo @FLAC
Register
(1) Wail,
Sep 26 2020, 10:44:34 Demontage - Madness Disease [demo] (2004)


FLAC
Register

320
Register
(1) Wail,

21 Pages V   1 2 3 > » 
- Lo-Fi Version Support form
Copyrights and abuse reports form
Time is now: 1st December 2020 - 16:08:40