Welcome Guest ( Log In | Register )

История благодарностей участнику canadaspaceman ::: Спасибо сказали: 1048 раз(а)
Дата поста: В теме: За сообщение: Спасибо сказали:
Oct 12 2019, 15:56:49 Forgotten North - Beschwörung (2000)
QUOTE(craP_cillA @ Oct 12 2019, 09:02:44) *
re-upload please! smile1.gif

thanks.


128
Register

(1) craP_cillA,
Oct 4 2019, 09:55:06 Celtic Frost - Live (Unknown City) [bootleg] (1987)


*Artist: Celtic Frost
*Album: Live (Unknown City) [bootleg]
*Year: 1987
*Genre: Thrash/Black/Death Metal
*Country: Switzerland
*Format: flac
*Size: 237MB

Tracklist:
1. The Usurper + Mexican Radio 06:42
2. Inner Sanctum-drum break 02:56
3. (cnt'd) Inner Sanctum 04:03
4. Dethroned Emperor 04:19
5. Mesmerized 03:46
6. Visions Of Mortality 05:46
7. Morbid Tales 03:20
8. Procreation (Of The Wicked) 04:00
******************************
Total playing time: 34:52

[more=Extended info]Not to be converted/shared as Lossy mp3 !

https://www.spirit-of-metal.com/en/band/Celtic_Frost
https://www.metal-archives.com/bands/Celtic_Frost/269
https://www.discogs.com/artist/251679-Celtic-Frost

The original rip and upload was by
http://www.churchofzer.com/2017/10/hellhammer-celtic-frost.html

He said it was from an old 1980s tape trade, and had no info for it;
it sounds like an American who yells the band's introduction to the audience.
so, it is safe to guess it was recorded in the USA.

Very Good audience recording in my opinion, but probably still too rough for you.
Maybe was made near the soundboard desk?[/more]

Register
(11) craP_cillA, dermarsoran, heinz88, kimkayoung, MetalAreola, Olethros, Rosen, stumpheavyrock, Wail, wtk.412, Xutun,
Sep 8 2019, 07:36:47 Free - 20Th Century Masters-The Millennium Collection:the Best Of Free [compilation] (2002)


*Artist: Free
*Album: 20Th Century Masters-The Millennium Collection:the Best Of Free [compilation]
*Year: 2002
*Genre: Blues Rock/Hard Rock
*Country: United Kingdom
*Format: mp3@CBR320kbps
*Size: 106MB

Tracklist:
1. I’m a Mover 02:57
2. Walk in My Shadow 03:31
3. I'll Be Creepin' 03:29
4. Fire and Water 03:58
5. All Right Now 05:34
6. Heavy Load 05:21
7. Stealer 03:15
8. Mr. Big 06:12
9. Catch a Train 03:28
10. Wishing Well 03:42
11. Come Together in the Morning 04:38
******************************
Total playing time: 46:05

[more=Extended info]https://en.wikipedia.org/wiki/Free_(band)

Free were an English rock band formed in London in 1968, best known for their 1970 signature song "All Right Now".

They disbanded in 1973 and lead singer Paul Rodgers went on to become the frontman of the band Bad Company,
which also featured his Free bandmate Simon Kirke on drums.

Lead guitarist Paul Kossoff formed Back Street Crawler in 1975, but died from a pulmonary embolism at the age of 25 in 1976.
Bassist Andy Fraser formed Sharks.


https://en.wikipedia.org/wiki/20th_Century_Masters_%E2%80%93_The_Millennium_Collection:_The_Best_of_Free

Paul Rodgers – lead vocals, rhythm guitar on (10, 11), piano
Paul Kossoff – lead guitar, rhythm guitar
Andy Fraser – bass guitar, piano except on (10, 11)
Tetsu Yamauchi – bass guitar on (10, 11)
Simon Kirke – drums
Rebop Kwaku Baah – percussion on (10)
John Bundrick – organ, piano on (10, 11)[/more]

[more=Technical info]
Input File: 10. Free - Wishing Well.mp3
Channels : 2
Sample Rate : 44100
Precision : 16-bit
Duration : 00:03:42.71 = 9821335 samples = 16703 CDDA sectors
File Size : 8.93M
Bit Rate : 321k
Sample Encoding: MPEG audio (layer I, II or III)
Comments :
Title=Wishing Well
Artist=Free
Album=20th Century Masters - The Millennium Collection: The Best of Free
Tracknumber=10/11
Year=2002
Genre= Blues Rock, Hard Rock
Discnumber=1/1

[/more]

Register
(3) infiltrator, marilin, Olethros,
Sep 6 2019, 15:22:05 Morbid Angel - Blessed Are The Boots [bootleg] (1991)
http://bootleg.heavymetalmaniac.net/morbidangel.html
Blessed Are The Boots...
Tracks 1-12 - Live Fagersta, Sweden, Feb. 6, 1990 (or June 2?)
Track 13 - live ?
Track 14 - live ?
Track 15 - live ?
Track 16 - from "Abominations of Desolation"
Track 17 - live Escapades, Jersey City, NJ, Oct. 12, 1988
(1) thenecromancer,
Aug 25 2019, 06:27:10 Headstones - The Greatest Fits [compilation] (2001)


*Artist: Headstones
*Album: The Greatest Fits [compilation]
*Year: 2001
*Genre: Hard Rock/Alternative Rock/Post-Grunge
*Country: Canada
*Format: mp3@CBR320kbps
*Size: 121MB

Tracklist:
1. Blowtorch [new track] 03:09
2. Come On [new track] 02:51
3. Smile & Wave (From Smile and Wave, 1997) 04:06
4. Cubically Contained (From Smile and Wave, 1997) 04:35
5. Unsound (From Teeth and Tissue, 1995) 03:32
6. Three Angels (From Picture of Health, 1993) 04:04
7. Settle (From Nickels for Your Nightmares, 2000) 04:03
8. Tweeter and the Monkey Man (From Picture of Health, 1993) 03:39
9. When Something Stands for Nothing (From Picture of Health, 1993) 03:37
10. And (From Smile and Wave, 1997) 04:04
11. It's All Over (From Picture of Health, 1993) 03:06
12. Hearts, Love and Honour (From Teeth and Tissue, 1995) 04:49
13. Blonde and Blue (From Nickels for Your Nightmares, 2000) 03:47
14. Cemetery (From Picture of Health, 1993) 03:02
******************************
Total playing time: 52:24

[more=Extended info]EAC cd rip
Exact Audio Copy


https://en.wikipedia.org/wiki/The_Greatest_Fits

https://en.wikipedia.org/wiki/Headstones_(band)

Headstones are a Canadian punk-influenced rock band that began in 1987 in Kingston and were active until 2003, subsequently reforming in 2011.
The band consists of vocalist Hugh Dillon, guitarist Trent Carr, Rickferd Van Dyk and bassist Tim White.

Hugh Dillon (born May 31, 1963) is a Canadian musician and actor.
He is the lead singer of the punk-influenced band Headstones.
He is also a film and television actor; his notable roles include Mike Sweeney in Durham County (TV series), and Ed Lane in Flashpoint (TV series).[/more]

[more=Technical info]
Input File: 14. Headstones - Cemetery (From Picture of Health, 1993).mp3
Channels : 2
Sample Rate : 44100
Precision : 16-bit
Duration : 00:03:03.00 = 8070168 samples = 13724.8 CDDA sectors
File Size : 7.41M
Bit Rate : 324k
Sample Encoding: MPEG audio (layer I, II or III)
Comments :
Title=Cemetery (From Picture of Health, 1993)
Artist=Headstones
Album=The Greatest Fits
Tracknumber=14/14
Year=2001
Genre=Alternative Rock
Discnumber=1/1

[/more]

Register
(3) A.L.Rapsod, artscald, Olethros,
Aug 24 2019, 23:08:40 Blind Illusion - Rainmaker [bootleg] (2008)


*Performer: Blind Illusion
*Title: Rainmaker
*Type: Bootleg
*Year: 2008
*Genre: Hard Rock/Heavy Metal
*Country: United States

*Audio: mp3@128kbps
*Video: xvid@631kbps
*Resolution: 352x240
*Size: 31MB
******************************
*Length: 00:06:49

[more=Extended info]song later re-written for Demon Master (2010) album with a new title.

Mark Biedermann playing solo at Mike's July 4th Party, 2008

I copied this video from Blind Illusion's website many years ago. Probably in 2010 before the site died.

http://web.archive.org/web/20100323065454[...llusion.com:80/[/url]

https://www.youtube.com/channel/UCHbwNokQLhVOpGWXho7WjWQ

https://www.discogs.com/artist/406084-Blind-Illusion

http://www.metal-archives.com/bands/Blind_Illusion/684[/more]

Register
(3) artscald, Rosen, stumpheavyrock,
Aug 24 2019, 15:33:57 Metal Inquisitor - Garage Nights [bootleg] (2008)


*Artist: Metal Inquisitor
*Album: Garage Nights [bootleg]
*Year: 2008
*Genre: Heavy Metal
*Country: Germany
*Format: mp3@CBR320kbps
*Size: 109MB

Tracklist:
1. Stab In The Back (Witchfynde cover) 04:36
2. The Legacy (Image) 03:24
3. It's Electric (MI Version) (Diamond Head cover) 03:08
4. Bad Boys Hardrock Police 04:25
5. Invader (Judas Priest cover) 03:22
6. Legion Of Grey 02:39
7. Guinea Pig 02:46
8. Eye Of The Storm (Sweet Savage cover) 03:02
9. Daze Of Avalon 06:40
10. Get Down 04:33
11. Zombie Drivers 03:07
12.Bernado Gui 05:41
******************************
Total playing time: 47:23

[more=Extended info]Thanks to the original uploader, madblastsofchaosblogspot

https://www.metal-archives.com/albums/Metal_Inquisitor/Garage_Nights/270992

https://www.discogs.com/Metal-Inquisitor-Garage-Nights-Bootleg/release/5065310

Tracks 1-5 recorded in 2004 with an 8-Track Tape Recorder.
Track 6 recorded in 2005 with an 4-Track Tape Recorder.
Tracks 7 and 8 taken from the Before the Apocalypse Split, 2003.
Tracks 9-12 taken from the 4 Tracks Promo Demo, 2000.[/more]

[more=Technical info]
Input File: 06-Legion_Of_Grey.mp3
Channels : 2
Sample Rate : 44100
Precision : 16-bit
Duration : 00:02:39.06 = 7014634 samples = 11929.6 CDDA sectors
File Size : 6.43M
Bit Rate : 323k
Sample Encoding: MPEG audio (layer I, II or III)
Comments :
Title=Legion Of Grey
Artist=Metal Inquisitor
Album=Garage Nights (Bootleg)
Tracknumber=6/12
Genre=Heavy Metal

[/more]

Register
(13) artscald, Boozer, dulak, infiltrator, Olethros, pichileon, Reverend, Rosen, SAPOGi, stumpheavyrock, Wail, Witchmaster, wreak,
Aug 24 2019, 05:57:00 Yog Sothots - Live In Quebec [bootleg] (1987)


*Artist: Yog Sothots
*Album: Live In Quebec [bootleg]
*Year: 1987
*Genre: Thrash Metal
*Country: Canada
*Format: mp3@VBR173kbps
*Size: 56MB

Tracklist:
1. Destroy 02:47
2. Bang! Bang! You're Dead 02:43
3. Blood Dog's Attack 03:04
4. Slasher Noise 02:35
5. Hades (Bathory cover) 02:29
6. Third and Last War (first attempt) 02:51
7. Third and Last War (second attempt) 02:55
8. All Soul's Day 02:20
9. Sepulchral Voice (Sodom cover) 03:53
10. Pay or Die 02:28
11. Torture in the Catacombs 03:35
12. Shadow of Death (Slaughter cover) 02:35
13. Mad Race to the End 04:51
14. Innovation 03:13
15. World Driness (cut off) 02:14
******************************
Total playing time: 44:33

[more=Extended info]https://www.metal-archives.com/bands/Yog_Sothots/28820

Live in Quebec [Bootleg] (1987-10-31)

Thrash Metal /Speed Metal /Death Metal /Black Metal /Speedcore /1980s Deathcore

rip by canadaspaceman.

some cleaning / mixing by Skar, but even with the slight enhancements, this is still a poor sounding audience recording,
so ,
ONLY for MANIACS into FAST NOISY SHIT like Cryptic Slaughter, NYC Mayhem, Damnation, Voor, Voi Vod (first 2 albums), Soothsayer, etc.[/more]

[more=Technical info]
Input File: 01. Destroy.mp3
Channels : 2
Sample Rate : 44100
Precision : 16-bit
Duration : 00:02:47.18 = 7372770 samples = 12538.7 CDDA sectors
File Size : 3.64M
Bit Rate : 174k
Sample Encoding: MPEG audio (layer I, II or III)
Comments :
Title=Destroy
Artist=Yog Sothots
Album=Yog Sothots 1987-10-31
Tracknumber=1
Year=1987
Genre=Thrash Metal /Speed Metal /Death Metal /Black Metal /Speedcore /1980s Deathcore

[/more]

Register
(9) artscald, dermarsoran, FUDEDOR, infiltrator, Olethros, pichileon, Rosen, stumpheavyrock, Wail,
Aug 24 2019, 01:10:12 Various Artists - Hard Core Logo [ost] (1998)


*Artist: Various Artists
*Album: Hard Core Logo [ost]
*Year: 1998
*Genre: Punk
*Country: Canada
*Format: mp3@VBR218kbps
*Size: 56MB

Tracklist:
1. Swamp Baby, Hugh Dillon - Who the Hell Do You Think You Are 02:56
2. Swamp Baby, Hugh Dillon - Rock 'N Roll Is Fat and Ugly 01:55
3. Swamp Baby, Hugh Dillon - Something's Gonna Die Tonight 03:19
4. Swamp Baby, Hugh Dillon - Blue Tattoo 03:20
5. Swamp Baby, Hugh Dillon - Sonic Reducer [Dead Boys cover] 02:56
6. Swamp Baby, Hugh Dillon - Edmonton Block Heater 03:02
7. Swamp Baby, Hugh Dillon - China White (Ten buck F**k) 04:48
8. Swamp Baby, Hugh Dillon - One Foot In The Gutter 01:54
9. Swamp Baby - Hawaii [Young Canadians Cover] 01:39
10. Teenage Head - Bonerack 03:36
11. Ramones - Touring 02:51
12. Chris Spedding - Wild Wild Women 03:19
******************************
Total playing time: 35:35

[more=Technical info]
Input File: 01 - Who the Hell Do You Think You Are.mp3
Channels : 2
Sample Rate : 44100
Precision : 16-bit
Duration : 00:02:56.48 = 7782900 samples = 13236.2 CDDA sectors
File Size : 4.65M
Bit Rate : 211k
Sample Encoding: MPEG audio (layer I, II or III)
Comments :
Title=Who the Hell Do You Think You Are
Artist=Swamp Baby, Hugh Dillon
Album=Hard Core Logo - Soundtrack
Tracknumber=1/12
Year=1998
Genre=Punk
Discnumber=1 / 1

[/more]

Register
(3) artscald, craP_cillA, Wail,
Aug 22 2019, 16:54:46 Organized Kaos - Kaotic [demo] (1987)


*Artist: Organized Kaos
*Album: Kaotic [demo]
*Year: 1987
*Genre: Crossover/Hardcore/Thrash Metal
*Country: Canada
*Format: mp3@CBR320kbps
*Size: 33MB

Tracklist:
1. Nuclear Devastation 05:28
2. Destiny is Mine 05:25
3. Seizure 03:35
******************************
Total playing time: 14:28

[more=Extended info]Thanks to the original uploader[/more]

[more=Technical info]
Input File: 04 Seizure.mp3
Channels : 2
Sample Rate : 44100
Precision : 16-bit
Duration : 00:03:35.61 = 9508401 samples = 16170.8 CDDA sectors
File Size : 8.63M
Bit Rate : 320k
Sample Encoding: MPEG audio (layer I, II or III)
Comments :
Title=Seizure
Artist=Organized Kaos (CAN)
Album=Kaotic demo 1987
Tracknumber=4/7
Genre=Demo

[/more]

Register
(4) artscald, Olethros, Rosen, wreak,
Aug 19 2019, 13:21:40 Fifty Lashes - Pain [demo] (1990)
Fifty Lashes (US-CA) 1990 Pain Demo [320]
Register
(1) Z28517,
Aug 19 2019, 13:21:08 Fifty Lashes - Demo [demo] (1988)
Fifty Lashes (US-CA) 1988 Demo [320]
Register

(1) Z28517,
Aug 19 2019, 12:51:37 Hellfire - Death To Death [demo] (1987)


*Artist: Hellfire
*Album: Death To Death [demo]
*Year: 1987
*Genre: Amateur Thrash Metal/Death Metal/Noise/Hardcore
*Country: United States
*Format: mp3@CBR160kbps
*Size: 41MB

Tracklist:
1. Abolish Legal Murder 02:11
2. Satan's Children 02:40
3. If Tomorrow Comes 01:59
4. Hopeless Child 01:51
5. Little Ones (1:48
6. Take My Hand (2:45
7. Burn the Porno Magazines 03:18
8. Hellfire / Throw the Rope 05:56
9. Death to Death / God's Not a Joke 02:54
10. Jesus Is the Only Way 01:06
11. Nuclear War 01:28
12. Stop Now 01:59
13. We Need Jesus 02:48
14. P.W.C. (Pray Without Ceasing) / Born in the Shade 02:26
******************************
Total playing time: 35:09

[more=Extended info]http://www.firestreamvault.com/album.php?id=6979
Recorded April 1987. Production, arrangements, and sleeve concept - Hellfire. Recorded at Rob's house (bedroom) and Stirling City Assembly of God.

Christian punk/noise/metal

Thanks to the original uploader, splattergrindcoreblog

http://i.imgur.com/CESO8Lf.jpg[/more]

[more=Technical info]
Input File: 10 - Jesus Is The Only Way.mp3
Channels : 2
Sample Rate : 44100
Precision : 16-bit
Duration : 00:01:06.82 = 2946850 samples = 5011.65 CDDA sectors
File Size : 1.34M
Bit Rate : 160k
Sample Encoding: MPEG audio (layer I, II or III)
Comments :
Title=Jesus Is the Only Way
Artist=Hellfire
Album=Death To Death
Tracknumber=10
Year=1987
Genre=Hard Core

[/more]

Register
(7) artscald, FUDEDOR, infiltrator, Olethros, Rosen, Wail, Z28517,
Aug 18 2019, 18:34:16 Midnight - Downloads From Midnight's Myspace (+Bonus) [bootleg] (2009)


*Artist: Midnight
*Album: Downloads From Midnight's Myspace (+Bonus) [bootleg]
*Year: 2009
*Genre: Heavy Metal
*Country: United States
*Format: mp3@CBR320kbps
*Size: 194MB

Tracklist:
1. Genius - Terminate 05:40
2. Midnight - 7 Angels (full electric) [32kbps] 05:29
3. Midnight - Angel (Sarah McLachlan cover) 04:39
4. Midnight - Berber Trails 06:29
5. Midnight - Carnival 2 05:46
6. Midnight - Carnival 05:12
7. Midnight - Descending Into Madness Trailer 03:25
8. Midnight - Little Aquafina Pre-Production Demo 06:59
9. Midnight - Lost Reflection '08 (4:58
10. Midnight - Pain 05:19
11. Warzone XXV 25 - Midnight - Pain 05:02
12. Midnight - Painted Skies (with Jon Oliva) 06:08
13. Midnight - The Deep 07:48
14. My Chemical Romance - Midnight - The End 03:49
15. Midnight - The End (4min 47sec) 04:47
16. Midnight - Through Glass (Stone Sour cover) 05:33
17. Midnight - War 04:39
******************************
Total playing time: 1:31:42

[more=Extended info]Crimson Glory singer.
Thanks to the original uploader, jasonkont.

https://www.metal-archives.com/artists/Midnight/30660[/more]

[more=Technical info]
Input File: Midnight - Descending Into Madness Trailer.mp3
Channels : 2
Sample Rate : 44100
Precision : 16-bit
Duration : 00:03:25.31 = 9054171 samples = 15398.2 CDDA sectors
File Size : 8.22M
Bit Rate : 320k
Sample Encoding: MPEG audio (layer I, II or III)
Comments :
Title=Midnight - Descending Into Madness Trailer
Tracknumber=1
Year=2012

[/more]

Register
(3) artscald, stumpheavyrock, Wail,
Aug 18 2019, 18:10:00 Jagged Edge - Jagged Edge [ep] (1982)


*Artist: Jagged Edge
*Album: Jagged Edge [ep]
*Year: 1982
*Genre: Heavy Metal
*Country: United States
*Format: mp3@CBR128kbps
*Size: 10MB

Tracklist:
1. Voyage Of Darkness 03:05
2. Down On Your Knees 03:03
3. Hands Of The Master 03:02
4. Makin' Sin 02:33
******************************
Total playing time: 11:43

[more=Extended info]Jagged Edge (USA-OHIO) 1982 EP
https://www.metal-archives.com/bands/Jagged_Edge/48879
Thanks to the original uploader.

Frank Leo - Vocals
Mark Dubray - Guitars
Ray Hitchcock - Bass
Pete Perotti - Drums

Jagged Edge were a Traditional Heavy Metal band formed in Cleveland Ohio.[/more]

[more=Technical info]
Input File: Info.txt

[/more]

Register
(7) artscald, infiltrator, Olethros, pichileon, Rosen, stumpheavyrock, Wail,
Aug 18 2019, 14:49:20 Vendetta & Sabbat - A Cautionary Tale / And The Brave Man Fails [split] (1988)
Sabbat (UK) 1988 [Split] with Vendetta (7''Flexi)@256
12.1 MB
Register
(1) Wail,
Aug 18 2019, 14:41:32 Jaded - Jaded (2006)
Jaded (USA) 2006 Jaded [320 all female Hard Rock]
81.9 MB
Register

(1) Wail,
Aug 13 2019, 17:31:08 Lapidate & Vomigod & Devoured & Forever Annihilating The Obese - Lapidate/Vomigod/Devoured/Forever Annihilating The Obese [split] (2005)


*Artist: Lapidate & Vomigod & Devoured & Forever Annihilating The Obese
*Album: Lapidate/Vomigod/Devoured/Forever Annihilating The Obese [split]
*Year: 2005
*Genre: Brutal Death Metal | Death Metal/Grindcore | Death Metal | Grindcore Punk
*Country: Canada | Poland | Canada | Canada
*Format: mp3@CBR320kbps
*Size: 112MB

Tracklist:
Devoured
1.You Are a Product of Cum 00:19
2. I Wrote 00:09
3. Buckshot Abortion 01:10
4. Your Wife Is Sleeping with the Pool Guy 01:32
5. Baby Bukakke Bonanza 03:14
6. The Pope Is the Prince of Anal Masturbation03:37

Forever Annihilating the Obese
7. Night of the Tangled Bush 01:05
8. Enough Already 00:21
9. Drive (Psycho cover) 00:46
10. Fast Food Diet 01:13
11. Fuelled by Evil 00:05
12. Liposuction Fetish 01:23
13. Bought Beauty (Blood cover) 01:18
14. No Compromise 01:26
15. Richard Simmons 01:12
16. No More Metalcore (Noize Re-Mix) 01:29
17. Lay Off Me (Agathocles cover) 00:24
18. The Bastards Have Landed 01:05
19. Robot's Revenge 00:45
20. Vegan Fatty 00:52

Lapidate
21. Fecal Soup for the Sou l00:42
22. Drive-by Cumshot 01:36
23. Gummi-Job (1:32
24. Disgorged Abortion / Confessional Outhouse 04:24
25. Botched Colostomy 01:37

Vomigod
26. Pamietnik Nekrofilia 02:54
27. Rozmowy z Kalem 01:26
28. Oraltrol 01:00
29. Syndrom Dziewicy 03:17
30. Praga '68 01:25
31. Respirator 02:43
32. Samobójca 00:20
******************************
Total playing time: 46:21

[more=Extended info]EAC CD-R rip

http://www.metal-archives.com/albums/Vomig..._Vomigod/267997
Lapidate
Ajax, Ontario, Canada
Brutal Death Metal
Erich Kennedy - drummer/vocals (Adversarial, Horde of Worms, Twilight Hammer)
Vomigod
Zielona Góra, Poland
Death Metal/Grindcore
Pyrosh - Bass, Vocals (Dishell, Ojciec Dyktator)
Mogway - Drums (Visceral Infection)

Devoured
Oshawa, Ontario, Canada
Death Metal
Brian Hope - Bass (Evirus)
Derek Kasza - Guitars (Evirus)

Forever Annihilating the Obese (aka F.A.T.O.)
Oshawa, Ontario, Canada
Grindcore punk[/more]

[more=Technical info]
Input File: 01 Devoured - You Are a Product of Cum.mp3
Channels : 2
Sample Rate : 44100
Precision : 16-bit
Duration : 00:00:19.64 = 866124 samples = 1473 CDDA sectors
File Size : 793k
Bit Rate : 323k
Sample Encoding: MPEG audio (layer I, II or III)
Comments :
Title=Devoured - You Are a Product of Cum
Artist=Devoured
Album=Lapidate / Vomigod / Devoured / Forever Annihilating the Obese [split CD-R]
Tracknumber=01/32
Year=2005
Genre=Death Metal/Grindcore
Discnumber=1/1

[/more]

Register
(7) artscald, Hell_Is_Here, Lanceatum, Ludwig Hagen, Rosen, wreak, Герб,
Aug 10 2019, 02:15:36 Sacrilege - The Court Of The Insane (2019)
Oh, this is a NWOBHM band, https://www.metal-archives.com/bands/Sacrilege/3540367130
not the thrash/doom band which most of us know about. https://www.metal-archives.com/bands/Sacrilege/3145
(1) metala,
Aug 7 2019, 10:39:48 Neizbezhnost - Inevitability [demo] (2008)


*Artist: Neizbezhnost
*Album: Inevitability [demo]
*Year: 2008
*Genre: Unblack Metal
*Country: Ukraine
*Format: mp3@CBR320kbps
*Size: 36MB

Tracklist:
1. Would It Be Reasonable... 04:49
2. Help Me!!! 06:01
3. Tranquillity 04:40)
******************************
Total playing time: 15:30

[more=Extended info]Neizbezhnost (Неизбежность)

Sullen Records – SUL10
CD-R rip by Canadaspaceman

Limited to 250 copies
https://www.discogs.com/artist/1537302-Neizbezhnost

https://www.metal-archives.com/bands/%D0%9D%D0%B5%D0%B8%D0%B7%D0%B1%D0%B5%D0%B6%D0%BD%D0%BE%D1%81%D1%82%D1%8C/126292

Dmytro Soroka - Bass
Andrii Vynnychenko - Drums
Andrii Magas - Guitars, Vocals, Synthesizer[/more]

[more=Technical info]
Input File: 03. Neizbezhnost (Неизбежность) (Ukr) - Спокойствие (Tranquillity).mp3
Channels : 2
Sample Rate : 44100
Precision : 16-bit
Duration : 00:04:41.07 = 12395011 samples = 21080 CDDA sectors
File Size : 11.3M
Bit Rate : 321k
Sample Encoding: MPEG audio (layer I, II or III)
Comments :
Title=Спокойствие (Tranquillity)
Artist=Neizbezhnost (Неизбежность) (Ukr)
Album=Inevitability Demo CD-R
Tracknumber=03/4
Year=2008
Genre=Unblack Metal
Discnumber=1/1

[/more]

Register
(6) artscald, Olethros, Rosen, russ777, VALERY, wreak,
Aug 5 2019, 15:05:54 Alverna Gunn - Demo 1980 [demo] (1980)
Alverna Gunn (UK) 1980 Demo @ 192 NWOBHM
size: 27.4 MB
Thanks to the original uploader. Grabbed this off a torrent.
This is for the forum members that upload and re-upload, and not for leechers who only make requests.
Register
(2) morbidangelo, Wail,
Aug 5 2019, 14:47:56 Alverna Gunn - '82 Demo [demo] (1982)
Alverna Gunn (UK) 1982 Demo @ 224 NWOBHM
Size: 18.1 MB
Register
(2) morbidangelo, Wail,
Jul 31 2019, 15:10:28 Van Halen - Live In Largo, Maryland [concert] (1982)


*Performer: Van Halen
*Title: Live In Largo, Maryland
*Type: Concert
*Year: 1982
*Genre: Heavy Metal/Hard Rock
*Country: United States

*Audio: mp3@192kbps
*Video: divx@982kbps
*Resolution: 720x480
*Size: 857MB
******************************
*Length: 02:02:02

[more=Extended info]Van Halen - Live in Largo, Maryland 1982
Codec: (.avi) (DX50)
TV concert Pay Per View
---------------------------------------------------------------------
Vocalist: David Lee Roth
Guitarist: Eddie Van Halen
Drummer: Alex Van Halen
Bassist: Michael Anthony
---------------------------------------------------------------------
ROMEO DELIGHT
UNCHAINED
ALEX VAN HALEN DRUM SOLO
FULL BUG
RUNNIN' WITH THE DEVIL
DAVE'S "RAP"
JAMIE'S CRYIN'
LITTLE GUITARS
WHERE HAVE ALL THE GOOD TIMES GONE!
MICHAEL ANTHONY BASS SOLO
HANG 'EM HIGH
CATHEDRAL
SECRETS
EVERYBODY WANTS SOME
DANCE THE NIGHT AWAY
SOMEBODY GET ME A DOCTOR
I'M SO GOOD
ICE CREAM MAN
INTRUDER
PRETTY WOMAN
EDDIE VAN HALEN GUITAR SOLO
AIN'T TALKIN' 'BOUT LOVE
BOTTOMS UP
YOU REALLY GOT ME
HAPPY TRAILS[/more]

Register
(6) artscald, infiltrator, LUCASDEATH, Rosen, Scuns, thenecromancer,
Jul 31 2019, 03:00:49 Iron Lamb - Iron Lamb [ep] (2009)


*Artist: Iron Lamb
*Album: Iron Lamb [ep]
*Year: 2009
*Genre: Hard Rock/Heavy Metal/Punk
*Country: Sweden
*Format: mp3@CBR224kbps
*Size: 18MB

Tracklist:
1. Suicide 02:54
2. Beamed Away 03:19
3. Dead Inside 02:24
4. Parasites 02:30
******************************
Total playing time: 11:07

[more=Extended info]Iron Lamb (Swe) 2009 Iron Lamb [7'' EP]
vinyl rip by canadaspaceman
Nuclear Winter Records – NWR033
500 copies[/more]

[more=Technical info]
Input File: B1 Dead Inside.mp3
Channels : 2
Sample Rate : 44100
Precision : 16-bit
Duration : 00:02:24.15 = 6356971 samples = 10811.2 CDDA sectors
File Size : 4.04M
Bit Rate : 224k
Sample Encoding: MPEG audio (layer I, II or III)
Comments :
Title=Dead Inside
Artist=Iron Lamb (Sweden)
Album=Iron Lamb [7''EP]
Tracknumber=3
Year=2009
Genre=Hard Rock / Heavy Metal / Punk

[/more]

Register
(7) artscald, Boozer, Lukittaz, Olethros, Rosen, wgs73, wreak,
Jul 29 2019, 02:21:11 Various Artists - Tank Girl [ost] (1995)


*Artist: Various Artists
*Album: Tank Girl [ost]
*Year: 1995
*Genre: Alternative Rock
*Country: United States
*Format: mp3@CBR320kbps
*Size: 99MB

Tracklist:
1. Stomp! - Ripper Sole 01:54
2. Björk - Army of Me 03:59)
3. Devo - Girl U Want (dif't version) 03:55
4. L7 - Shove 03:16
5. The Magnificent Bastards - Mockingbird Girl 03:34
6. Veruca Salt - Aurora 04:06
7. Hole - Drown Soda 03:55
8. Bush - Bomb 03:26
9. Portishead - Roads 05:11
10. Joan Jett and Paul Westerberg - Let's Do It (Let's Fall in Love) (Cole Porter cover) 02:26
11. Belly - Thief 03:15
12. Ice-T - Big Gun 04:03
******************************
Total playing time: 43:00

[more=Extended info]cassette tape rip by canadaspaceman
no audio cleaning, no dolby used.
Various – Tank Girl - Original Soundtrack From The United Artists Film[/more]

[more=Technical info]
Input File: 04. L7 - Shove.mp3
Channels : 2
Sample Rate : 44100
Precision : 16-bit
Duration : 00:03:16.27 = 8655419 samples = 14720.1 CDDA sectors
File Size : 7.85M
Bit Rate : 320k
Sample Encoding: MPEG audio (layer I, II or III)
Comment : 'Year=1995'

[/more]

Register
(2) artscald, gwar,

10 Pages V   1 2 3 > » 
- Lo-Fi Version Support form
Copyrights and abuse reports form
Time is now: 15th October 2019 - 10:19:47