Welcome Guest ( Log In | Register )

История благодарностей участнику canadaspaceman ::: Спасибо сказали: 863 раз(а)
Дата поста: В теме: За сообщение: Спасибо сказали:
Jul 11 2019, 15:21:57 Jimi Hendrix - High, Live'n Dirty [bootleg] (1978)


*Artist: Jimi Hendrix
*Album: High, Live'n Dirty [bootleg]
*Year: 1978
*Genre: Blues Rock, Classic Rock
*Country: United States
*Format: mp3@CBR320kbps
*Size: 68MB

Tracklist:
1. F.H.I.T.A. 08:00
2. No! No! 03:26
3. In The Morning 02:30
4. Jimi's Blues 10:10
5. Peoples Peoples 05:48
******************************
Total playing time: 29:54

[more=Extended info]vinyl rip by canadaspaceman

Thanks to Metal Dan for sending me this LP a couple years ago.

Jimi Hendrix 1968 jam with Jim Morrison,The Scene Club, New York City

https://www.discogs.com/Jimi-Hendrix-High-Liven-Dirty/release/1889257
Label: Nutmeg Records – NUT-1001

For diehard fans only.
Drunk Jim Morrison of The Doors singing dirty words, etc, while Jimi plays guitar.
29 minutes 54 seconds[/more]

[more=Technical info]
Input File: A2 No! No!.mp3
Channels : 2
Sample Rate : 44100
Precision : 16-bit
Duration : 00:03:26.85 = 9121997 samples = 15513.6 CDDA sectors
File Size : 8.28M
Bit Rate : 320k
Sample Encoding: MPEG audio (layer I, II or III)
Comments :
Title=No! No!
Artist=Jimi Hendrix
Album=1968 jam w Morrison,The Scene Club, NYC [High, Live'n Dirty 1978 LP]
Tracknumber=2
Genre=Blues Rock, Classic Rock

[/more]

Register
(3) marilin, vosmidesijatye, Yarri,
Jul 8 2019, 21:48:35 Forced Entry - Thrashing Helpless Down [demo] (1987)
Register

Forced Entry - Thrashing Helpless Down [Demo] (1987) FLAC 8
size: 205 MB
rip I made from a dubbed tape I got in the 1980s,
fairly sure it was off an original , as he was a fanzine editor and had contact with lots of Northern Washington state bands.
https://www.metal-archives.com/bands/Forced_Entry/599
https://en.wikipedia.org/wiki/Forced_Entry_(band)
https://www.discogs.com/Forced-Entry-Thrash...release/6458054

(1) wgs73,
Jul 5 2019, 18:42:59 Exmortem - Killstorms [single] (2003)


*Artist: Exmortem
*Album: Killstorms [single]
*Year: 2003
*Genre: Death Metal
*Country: Denmark
*Format: mp3@CBR192kbps
*Size: 10MB

Tracklist:
1. Killstorms 03:58
2. Critical Madness (Autopsy Cover) 03:57
******************************
Total playing time: 7:55

[more=Extended info]vinyl rip by canadaspaceman

https://www.discogs.com/Exmortem-Killstorms/release/2680835

https://www.metal-archives.com/bands/Exmortem/2572[/more]

[more=Technical info]
Input File: Exmortem (Dnk) 2003 Killstorms [single] Side B Critical Madness (Autopsy Cover).mp3
Channels : 2
Sample Rate : 44100
Precision : 16-bit
Duration : 00:03:57.58 = 10477234 samples = 17818.4 CDDA sectors
File Size : 5.70M
Bit Rate : 192k
Sample Encoding: MPEG audio (layer I, II or III)
Comments :
Title=Critical Madness (Autopsy Cover)
Artist=Exmortem (Dnk)
Album=Killstorms [7'' Single]
Tracknumber=2
Year=2003
Genre=Death Metal

[/more]

Register
(7) gardenofdemise, GorAtheist, Hell_Is_Here, Olethros, Proteus_666, Rosen, wreak,
Jul 3 2019, 23:37:15 Absurdus - Flames [demo] (1994)
Excellent, sounds a lot clearer than my dubbed tape from a trade.
(1) Borderline1991,
Jul 1 2019, 04:53:37 Quest For Serenity - Whispers Of Despair (2012)
Register

Quest For Serenity (UK) 2012 Whispers Of Despair [192] [lexxandrus]
37 minutes 0 seconds
1. Quest For Serenity - Hidden Sorrows (1:20)
2. Quest For Serenity - Glimpse Of The Past (4:38)
3. Quest For Serenity - Oh The Pain, Oh The Joy (5:00)
4. Quest For Serenity - Embrace Of Thorns (3:55)
5. Quest For Serenity - Whispers Of Despair (5:21)
6. Quest For Serenity - Surrounded By The Unseen (5:42)
7. Quest For Serenity - Reign Of Chaos (4:22)
8. Quest For Serenity - Blessed Are Those (6:42)
(1) kimkayoung,
Jun 30 2019, 16:16:41 Quest For Serenity - Amidst The Tempest (2013)


*Artist: Quest For Serenity
*Album: Amidst The Tempest
*Year: 2013
*Genre: Unblack Metal
*Country: United Kingdom
*Format: mp3@CBR320kbps
*Size: 107MB

Tracklist:
1. Before the Storm 05:57
2. Winds of Chang 05:29
3. When the Waters Rise 07:39
4. Amidst the Tempest 07:01
5. Within the Throes 05:04
6. Distant Shores 02:10
7. Perils of the Deep 06:29
8. Divine Anchor 02:19
9. Hidden Beneath 04:26
******************************
Total playing time: 46:34

[more=Extended info]EAC-CD[/more]

[more=Technical info]
Input File: 06. Quest for Serenity - Distant Shores.mp3
Channels : 2
Sample Rate : 44100
Precision : 16-bit
Duration : 00:02:10.70 = 5763738 samples = 9802.28 CDDA sectors
File Size : 5.29M
Bit Rate : 324k
Sample Encoding: MPEG audio (layer I, II or III)
Comments :
Title=Distant Shores
Artist=Quest for Serenity
Album=Amidst the Tempest
Tracknumber=06/9
Year=2013
Genre=UnBlack Metal
Discnumber=1/1

[/more]

Register
(4) kim666, Rosen, SilentNidhogg, wreak,
Jun 29 2019, 19:02:30 Quest For Serenity - Beyond The Labyrinth (2012)
Quest For Serenity (UK) 2012 Beyond The Labyrinth EAC-CD-320
Register
(1) kimkayoung,
Jun 29 2019, 19:02:02 Quest For Serenity - Moonlight Worship (2013)
Quest For Serenity (UK) 2013 Moonlight Worship EAC-CD-320
Register
(1) kimkayoung,
Jun 25 2019, 23:49:21 Possessed & Desecration - The Martyr's Wake-Cowboys In Bondage [split] (2012)
QUOTE(craP_cillA @ Jun 25 2019, 21:47:46) *
when you ripped the vinyl, why in 192CBR? :/

I ripped it as WAV and converted it to 192.
Why would I share Lossless with everybody here who never uploads or re-uploads, but always demand FLAC?
(2) infiltrator, Occultas,
Jun 25 2019, 17:36:16 Possessed & Desecration - The Martyr's Wake-Cowboys In Bondage [split] (2012)


*Artist: Possessed & Desecration
*Album: The Martyr's Wake-Cowboys In Bondage [split]
*Year: 2012
*Genre: Death Metal | Death Thrash Metal
*Country: United States | United States
*Format: mp3@CBR192kbps
*Size: 60MB

Tracklist:
Possessed
01. The Martyr's Wake (1991 Demo) 03:52
02. The Seventh Sign Demo (1991 Demo) 03:22
03. Re-Possessed (1992-3-25 Reh) 02:42
04. March to Die (1992-3-25 Reh) 02:36
05. Human Extermination (1992-3-25 Reh) 04:33
06. Blood for Blood (1991-07-30 Reh) 03:02

Desecration
07. Intro+Psycho (1985 Demo Psycho 02:38
08. Death's Revenge (1985 Demo Psycho 03:49
09. Halloween (1985 Demo Psycho 02:46
10. Kill Them Pigs (1986 Lost Studio Outtakes) 01:56
11. Cowboys in Bondage (1986 Lost Studio Outtakes 01:23
12. Fall of Christ (1986 From 'Cowboys In Bondage' Demo) 02:26
13. Dismembered Bodies (1986 From 'Cowboys In Bondage' Demo) 03:33
******************************
Total playing time: 38:38

[more=Extended info]https://www.discogs.com/Possessed-Desecration-The-Martyrs-Wake-Cowboys-In-Bondage/release/4110979

https://www.metal-archives.com/albums/Possessed/The_Martyr%27s_Wake_-_Cowboys_in_Bondage/362129

vinyl rip by Canada Spaceman[/more]

[more=Technical info]
Input File: 01. Possessed - The Martyr\'s Wake (1991 Demo).mp3
Channels : 2
Sample Rate : 44100
Precision : 16-bit
Duration : 00:03:52.88 = 10269876 samples = 17465.8 CDDA sectors
File Size : 5.59M
Bit Rate : 192k
Sample Encoding: MPEG audio (layer I, II or III)
Comments :
Artist=Possessed
Album=The Martyr's Wake-Cowboys In Bondage (Vinyl LP Comp)
Year=2012
Genre=Death Thrash

[/more]

Register
(21) Alexis The Best, cancer1974, chipsgott, craP_cillA, deatholocaust, FUDEDOR, GorAtheist, Hell_Is_Here, infiltrator, Lanceatum, Ludwig Hagen, marilin, Proteus_666, ripper33, Rosen, stumpheavyrock, supremo, uk82, Wail, wreak, Герб,
Jun 24 2019, 04:40:58 Mass Death - At War with Santa Demo 1987 (1) thenecromancer,
Jun 18 2019, 11:04:05 Voor - Back From Oblivion (2017)


*Artist: Voor
*Album: Back From Oblivion
*Year: 2017
*Genre: Crossover/Oldschool Thrash Metal
*Country: Canada
*Format: mp3@CBR128kbps
*Size: 32MB

Tracklist:
1. You Bring a Knife 03:48
2. The Angry, the Fast and the Loud 02:38
3. Take Us to Your Leader 02:35
4. Radioactive Fallout 01:50
5. Tentrum 00:41
6. Man in Black 03:15
7. Add Insult to Injuries 03:05
8. A Walk in the Park 03:24
9. Further Out 04:52
10. Approche (instrumental) 02:10
11. Back from Oblivion 03:59
******************************
Total playing time: 32:17



[more=Extended info]https://www.discogs.com/artist/2291447-Voor

https://www.spirit-of-metal.com/en/band/Voor

https://www.metal-archives.com/albums/Voor/...Oblivion/677061

[/more]

[more=Technical info]
Input File: 01. You Bring a Knife.mp3
Channels : 2
Sample Rate : 48000
Precision : 16-bit
Duration : 00:03:48.22 = 10954752 samples ~ 17116.8 CDDA sectors
File Size : 3.90M
Bit Rate : 137k
Sample Encoding: MPEG audio (layer I, II or III)
Comments :
Title=You Bring a Knife
Artist=Voor
Album=Back from Oblivion
Tracknumber=1
Year=2017
Genre=black metal-1980S deathcore-death metal-oldschool thrash metal

[/more]

Register
(12) boby9052, Boozer, cancer1974, Diflock, gwar, metala, Rosen, stumpheavyrock, tabun, thenecromancer, Wail, wgs73,
Jun 11 2019, 19:32:59 Coven - 40 Years Of Hell [best of/compilation] (2008)
Coven (US-IL) 1976-2007 Metal Goth Queen~Out of the Vault [2008] [vbr] people who don't upload are leechers
80.3 MB
1. Goth Queen Greeting (1:49)
2. Black Swan (4:05)
3. Star Crossed (4:17)
4. Midnight Man (4:54)
5. Out Of The Rain (4:07)
6. Tender In The Night (2:37)
7. Night People (5:00)
8. Silverbird (4:36)
9. Heart To Heart (3:04)
10. Love Flies On The Wing (5:25)
11. Hot On Your Heels (3:41)
12. Livewire (3:59)
13. Sexe Satanique Ritual (2:34)
Bass – Glenn Cornick, Oz Osborne
Drums – Steve Ross
Guitar – Michael Monarch, Tommy Bolin
Keyboards – Jinx Dawson
Vocals – Jinx Dawson

Register
(2) Amadeus, thenecromancer,
Jun 9 2019, 23:11:08 Black Sabbath - Montreal [bootleg] (1983)


*Performer: Black Sabbath
*Title: Montreal
*Type: Bootleg
*Year: 1983
*Genre: Heavy Metal
*Country: United Kingdom

*Audio: mp3@224kbps
*Video: mpeg1@1150kbps
*Resolution: 352x240
*Size: 874MB
******************************
*Length: 01:27:43

[more=Extended info]Thanks to the original ripper / uploader, PsychoticSymphonyBootlegs.

Oct. 21, 1983
Black Sabbath at Forum de Montréal, Montreal, QC, Canada
Tour: Born Again

https://www.setlist.fm/setlist/black-sabbath/1983/forum-de-montreal-montreal-qc-canada-5bd77f18.html

Children Of The Grave
Hot Line
War Pigs
Disturbing The Priest
Supernaut
Bev Bevan Drum Solo
Rock N Roll Doctor
Iron Man
The Dark
Zero The Hero
Heaven And Hell
Tony Iommi Solo
Digital Bitch
Black Sabbath
Smoke On The Water
Paranoid[/more]

Register
(7) ahp, Diflock, heinz88, infiltrator, morbidangelo, Rosen, thenecromancer,
Jun 8 2019, 19:11:52 Moskwa - Nigdy! [demo] (1986)


*Artist: Moskwa
*Album: Nigdy! [demo]
*Year: 1986
*Genre: Metal Damaged Hardcore Punk Thrash
*Country: Poland
*Format: mp3@CBR320kbps
*Size: 104MB

Tracklist:
1. Nigdy! 01:39
2. Za Kratami 03:24
3. Tylko Patrzymy 02:36
4. Czarna Data 01:52
5. Powietrza 02:11
6. Wasze Ja 02:55
7. Światło 01:22
8. Propaganda 01:32
9. Fita Fita 01:37
10. Dzień Ocalenia 03:12
11. Wstawaj I Walcz 02:05
12. Pokolenie Małp 02:07
13. Slogan 02:26
14. Sam Dalej 02:06
15. Vistula 02:26
16. Problem 03:07
17. Samobójstwa 02:22
18. Masturbacja 01:51
19. Krzyk 01:53
20. Koniec 02:06
******************************
Total playing time: 44:49

[more=Extended info]Moskwa (Poland) MAXIMUM ROCK N ROLL #057_Jan 1988 Poland scene report

http://oi67.tinypic.com/2ugdnjp.jpg

http://oi68.tinypic.com/5x1gyr.jpg[/more]

[more=Technical info]
Input File: 01 Nigdy!.mp3
Channels : 2
Sample Rate : 44100
Precision : 16-bit
Duration : 00:01:39.19 = 4374323 samples = 7439.32 CDDA sectors
File Size : 4.03M
Bit Rate : 325k
Sample Encoding: MPEG audio (layer I, II or III)
Comments :
Title=Nigdy!
Artist=Moskwa
Album=Nigdy!
Tracknumber=01/20
Year=1986
Genre=Hardcore

[/more]

Register
(6) FUDEDOR, gwar, Olethros, RunningWild_AT, stone88, stumpheavyrock,
Jun 8 2019, 19:09:29 The Moshketeers - The Downward Spiral (1992)
The Moshketeers 1990 The Downward Spiral [2010 cd] FLAC files
401 MB
Register

1 hour 2 minutes 46 seconds
1. Sin (3:35)
2. The Downward Spiral (3:53)
3. Locked In Chains (3:03)
4. Ye! (2:02)
5. The Myth (5:20)
6. Self Extinction (4:19)
7. Epicurus (5:38)
8. Posers Of Deceit (2:48)
9. Grease The Duck (3:34)
10. Nightmares (5:15)
11. The Life Of Emptiness (3:29)
12. Return (1996 Demo) (3:40)
13. Death Or Life (1996 Demo) (5:10)
14. Theo Agnoia (1996 Demo) (4:19)
15. Take My Life (1996 Demo) (4:32)
16. Ye! (1989 Demo) (2:09)
(3) hammer, traitor666, wgs73,
Jun 8 2019, 19:00:31 Nuclear Simphony - First Reunion Show, Agrigento, Italy [bootleg] (2014)


*Artist: Nuclear Simphony
*Album: First Reunion Show, Agrigento, Italy [bootleg]
*Year: 2014
*Genre: Thrash Metal
*Country: Italy
*Format: mp3@CBR320kbps
*Size: 182MB

Tracklist:
1. Nuclear Simphony - 2014-06-21 Agrigento 79:13
******************************
Total playing time: 1:19:13

[more=Extended info]Excellent Audience recording live bootleg
photos included
2014-06-21 First Reunion Show Agrigento, Italy
single mp3
Thanks to the original taper / ripper / uploader, nonseinormale65 aka hob.

01 - Intro
02 - Mister I.D.G.A.F.
03 - Lustful For Desaster
04 - Where Eagles Reign
05 - Mimmo The Bull
06 - Cry
07 - Evil Spray
08 - Create Your Destiny
09 - Die For Your Flag(first attempt) ###
10 - Die For Your Flag
11 - Gino's greeting

Encores:
12 - Lustful For Desaster
13 - Mister I.D.G.A.F.
14 - Outro

### some drums problems

Gino "Dictator" Pecoraro - vocals
Giovanni La Rocca - drums
Vincenzo Biondo - guitar
Dario Failla - guitar
Vincenzo Lupo - bass ***

*** He is the son of Salvatore "Totem" Lupo,the original bass player of the band in the 80s.[/more]

[more=Technical info]
Input File: Nuclear Simphony - 2014-06-21 Agrigento(Italy).mp3
Channels : 2
Sample Rate : 44100
Precision : 16-bit
Duration : 01:19:17.21 = 209793005 samples = 356791 CDDA sectors
File Size : 190M
Bit Rate : 320k
Sample Encoding: MPEG audio (layer I, II or III)
Comments :
Title=Nuclear Simphony - 2014-06-21 Agrigento
Tracknumber=1

[/more]

Register
(1) thenecromancer,
Jun 8 2019, 17:43:25 Crimson Glory - Transcendence (1988)
Crimson Glory 1988 Transcendence [Vinyl Rip] FLAC files
1.22 GB
Thanks to the original ripper / uploader, inflames42.
Register

50 minutes 16 seconds
1. Lady of Winter (3:58)
2. Red Sharks (4:49)
3. Painted Skies (5:11)
4. Masque of the Red Death (4:11)
5. In Dark Places (6:57)
6. Where Dragons Rule (5:04)
7. Lonely (5:16)
8. Burning Bridges (6:30)
9. Eternal World (3:49)
10. Transcendence (4:31)
(1) thenecromancer,
Jun 8 2019, 08:16:44 Dio - Angry Machines [demo] (1995)


*Artist: Dio
*Album: Angry Machines [demo]
*Year: 1995
*Genre: Heavy Metal
*Country: United States
*Format: flac
*Size: 138MB

Tracklist:
1. Institutional Man demo 04:43
2. Don't tell the kids demo 04:12
3. Golden Rule 10-04-95 04:23
4. This is your life demo 02:35
5. Double monday take 4 best10-18-95 02:48
6. Hunter of the Heart Dio tracks 08-09-10-95 @ mets cartage 04:35
7. God hates Heavy Metal 11-10-95 03:44
******************************
Total playing time: 27:00

[more=Extended info]FLAC FILES

Thanks to the tape ripper / original uploader "JB". Jerry Best.

"These recordings are from my personal tapes. I transferred the Cassettes that were 14 years old and did not treat them in any way.
My intention is to share with the community For those interested. Playing with Ronnie, Tracy and Vinnie was great and it’s a pleasure listening to these old recordings again.
JB"

Ronnie James Dio (R.I.P. 2010) - Vocals
Tracy G - Guitars
Jeff Pilson - Bass
Vinny Appice - Drums
[/more]

Register
(4) cancer1974, dulak, Lord Noctua, thenecromancer,
Jun 8 2019, 08:07:12 Accept - Harpo's Club, Detroit, Mi [bootleg] (1984)


*Artist: Accept
*Album: Harpo's Club, Detroit, Mi [bootleg]
*Year: 1984
*Genre: Heavy Metal
*Country: Germany
*Format: flac
*Size: 507MB

Tracklist:
1. Accept 45:29
2. Accept 44:26
******************************
Total playing time: 1:29:55

[more=Extended info]Accept Detroit 1984-03-28 Harpo's Club Detroit, MI, USA
Disc 1 @ single FLAC
Disc 2 @ single FLAC

Disc 1
Fast As A Shark
Restless And Wild
Lovechild
Turn Me On
Breaker
London Leatherboys
Princess Of The Dawn
Wolf Hoffman Solo (Incredible!)
Neon Nights

Disc 2
Losers And Winners
Son Of A Bitch
Balls To The Wall
Head Over Heels
Flash Rockin' Man
Fight It back
Midnight Highway
Burning

Thanks to the original ripper / uploader, Yurei from the old Lockjaw blog.[/more]

Register
(7) infiltrator, Olethros, Pinhead666, Rosen, RunningWild_AT, stumpheavyrock, thenecromancer,
Jun 8 2019, 07:55:22 Nomind - Tales Of Ordinary Madness (1988)


*Artist: Nomind
*Album: Tales Of Ordinary Madness
*Year: 1988
*Genre: Rock/Hardcore/Punk
*Country: Canada
*Format: flac
*Size: 226MB

Tracklist:
1. Slick (Makes Me Sick) 01:52
2. Nomind (To Lose) 07:19
3. Checking The Obituaries 02:32
4. Well Adjusted 02:51
5. Brainrack 03:39
6. Strontium Dog 04:19
7. Someone Else's Life 02:52
8. Talking With Mr. D 02:21
9. Worlds Apart 03:38
10. Move Over 00:57
11. Cause Insanity 05:01
******************************
Total playing time: 37:21

[more=Extended info][EAC,Exact Audio Copy rip, of CD-R] vinyl ripped to CD-R. no official CD exists.

NoMind was a Toronto hardcore band in the 1980s.
similar to Black Flag, they combined Black Sabbath-type headbanging rock/metal with punk.
Paul - drums (ex-A.P.B.)
Allister - bass (original singer of AFHAKEN)
Dave (Walsh?) - guitar (ex-AFHAKEN ?)
Scott Tremaine - vocals
NoMind previously released a demo, "punkusraucousrex" (1987).[/more]

Register
(2) Angry_Chair, Olethros,
Jun 8 2019, 07:48:08 Dedringer - Second Arising (1983)


*Artist: Dedringer
*Album: Second Arising
*Year: 1983
*Genre: Nwobhm
*Country: United Kingdom
*Format: flac
*Size: 221MB

Tracklist:
1. Dedringer - Second Arising (1983) 36:17
******************************
Total playing time: 36:17

[more=Extended info]1. Rock Night (2:38)
2. Going To The Movies (3:08)
3. Sold Me Lonely (4:34)
4. I’m On The Outside (4:02)
5. Donna (4:45)
6. Comin’ Out Fightin’ (4:02)
7. Throw Me The Line (2:55)
8. Never Gonna Lose It (2:57)
9. D.J. O.K. (2:54)
10. The Eagle Never Falls (4:23)'

single FLAC + cue_
Thanks to the original ripper[/more]

Register
(5) ahp, avkruchinin, Olethros, Rosen, wgs73,
Jun 8 2019, 07:32:54 Dio - Master Of The Moon [demo] (2004)


*Artist: Dio
*Album: Master Of The Moon [demo]
*Year: 2004
*Genre: Traditional Metal
*Country: United States
*Format: flac
*Size: 239MB

Tracklist:
1. In Dreams 03:59
2. Living The Lie 04:34
3. The Man Who Would Be King 04:36
4. One More For The Road 03:33
5. End Of The World 04:32
6. Death By Love 04:24
7. I Am 04:56
8. Master Of The Moon 04:20
******************************
Total playing time: 34:54

[more=Extended info]FLAC files
Thanks to the original ripper / uploader, Yurei from the old Lockjaw blog.
"The story behind these demos is as follows. A friend from Canada saw them on a file sharing site in late Summer of 2004 so he recorded them. To the best of his knowledge, only eight tracks were ever posted, though “Master Of The Moon” has ten tracks total. He recorded them, and the next day when he checked the site, they were all down.

When I ripped the tracks a while back to upload them, I ripped them as FLAC so as to preserve the quality.

Band Personnel:
Ronnie James Dio Vocals
Craig Goldy Guitar and all keyboards
Simon Wright Drums
Jeff Pilson Bass"

-Yurei[/more]

Register
(2) dulak, Lux,
Jun 8 2019, 07:22:40 Iron Maiden - Summerfest Festival, Rock Stage, Milwaukee, Wi [bootleg] (1981)


*Artist: Iron Maiden
*Album: Summerfest Festival, Rock Stage, Milwaukee, Wi [bootleg]
*Year: 1981
*Genre: Nwobhm
*Country: United Kingdom
*Format: flac
*Size: 486MB

Tracklist:
1. The Ides Of March 02:21
2. Sanctuary 04:30
3. Purgatory 03:49
4. Wrathchild 03:14
5. Remember Tomorrow 05:57
6. Another Life 06:52
7. Genghis Khan 02:58
8. Killers 05:05
9. Innocent Exile 04:12
10. Twilight Zone 02:52
11. Murders In The Rue Morgue 04:35
12. Phantom Of The Opera 07:23
13. Iron Maiden 05:21
14. Running Free 04:04
15. Transylvania 05:23
16. Drifter 07:57
******************************
Total playing time: 1:16:33

[more=Extended info]https://www.discogs.com/master/view/497173

Iron Maiden 1981-06-26 Summerfest Festival, Rock Stage, Milwaukee, WI
FLAC files
This release is sourced from the 97 WLPX radio broadcast of their first United States tour.
(Excellent Soundboard Recording)
Thanks to the original ripper / uploader, vivalesbootlegs[/more]

Register
(5) FUDEDOR, Olethros, Rosen, thenecromancer, wgs73,
Jun 8 2019, 07:00:17 Black Sabbath - Master Of Insanity [single] (1992)


*Artist: Black Sabbath
*Album: Master Of Insanity [single]
*Year: 1992
*Genre: Heavy/Traditional Metal
*Country: United Kingdom
*Format: flac
*Size: 206MB

Tracklist:
cd 1
1.with TV Crimes (Live - Tampa, FL) 13:54

cd 2
2. with Die Young (live) 13:06
******************************
Total playing time: 27:00

[more=Extended info]Digipak (Red) (1 flac file +1 cue)
Slim Case (Blue) (1 flac file +1 cue)
---------------------------------------------------------------------
Thanks to the original uploader
---------------------------------------------------------------------
Ronnie James Dio Vocals (R.I.P. 2010)
Tony Iommi Guitars
Geezer Butler Bass
Vinny Appice Drums
Geoff Nicholls Keyboards
---------------------------------------------------------------------
CD Red:
01. Master of Insanity - 4:10
02. TV Crimes (Live at the Sun Dome, Tampa, Forida, 1992) - 4:23
03. Neon Knights (Live at the Sun Dome, Tampa, Forida, 1992) - 5:22

CD Blue:
01. Master Of Insanity - 4:09
02. Die Young (Live at the Sun Dome, Tampa, Forida, 1992) - 2:23
03. Children Of The Sea (Live at the Sun Dome, Tampa, Forida, 1992) - 6:34[/more]

Register
(7) caro, fabriziomagno, Olethros, Rosen, thenecromancer, Wail, wreak,

11 Pages V   1 2 3 > » 
- Lo-Fi Version Support form
Copyrights and abuse reports form
Time is now: 18th July 2019 - 06:05:24