Welcome Guest ( Log In | Register )

История благодарностей участнику canadaspaceman ::: Спасибо сказали: 1147 раз(а)
Дата поста: В теме: За сообщение: Спасибо сказали:
Feb 5 2020, 00:29:30 Shah - P.S.I.H.O (1993)
Shah (Rus) 1993 P.S.I.H.O. [192] [heavymetalrarities.com]
Size: 59.8 MB
Register
(2) infiltrator, warrr,
Feb 5 2020, 00:28:08 Megera - Iza Nas (1992)
Megera (Ser) - Iza Nas (1992) [192]
Size: 59.9 MB
Register
(2) varlam4, warrr,
Feb 5 2020, 00:26:34 Wretched - Psychosomatic Medicine (1994)
Wretched (US-MD) 1994 Psychosomatic Medicine [vbr]
Size: 61.7 MB
Register
(2) infiltrator, warrr,
Feb 4 2020, 22:32:05 Kronik - Endless War (1992)
128
Register
(1) varlam4,
Feb 4 2020, 21:57:51 Rude Awakening - Silent Cry (1992)
Register
(2) thenecromancer, Z28517,
Jan 15 2020, 23:52:53 Sadistic Intent - Rehearsal '88 [demo] (1988)
Sadistic Intent 1989 Rehearsal
160 kbps
Size: 6.45 MB
Thanks to the original uploader.
https://www.discogs.com/artist/268106-Sadistic-Intent
https://www.metal-archives.com/bands/Sadistic_Intent/1470
5 minutes 35 seconds
1. Unknown [maybe early version of Doomed to Live?] (2:15)
2. No Reason (3:20)
Register

(3) kimkayoung, thenecromancer, Wail,
Jan 1 2020, 16:39:58 Gate - Machinacje (2008)
Gate (Pol) 2008 Machinacje [VBR190]
Full-length.
https://www.spirit-of-metal.com/pl/album/Machinacje/164484
https://www.metal-archives.com/albums/Gate/Machinacje/196453
39 minutes 42 seconds
---------------------------------------------------------------------
1. Lepiej jak ptak (Better as a bird) (5:30)
2. Mechaniczne Pszczoly (Mechanical Bees) (4:00)
3. Barwy Walki (Colour Witch) (4:36)
4. Machinacje (Machinations) (4:12)
5. Bleff (Pageantry) (5:21)
6. Uciekaj (Run away) (4:58)
7. Nie chcę wiedzieć (I don't want to know) (4:23)
8. Miasto (Town) (6:42)
Register

(1) METALHUNTER,
Dec 31 2019, 18:34:57 Today Needed
QUOTE(Blasphemy93 @ Dec 19 2019, 22:38:13) *
Nokturnal Mortum - Nechrist 2018 Remaster. Anyone has this?

Thanks for all of your reuploads and uploads you shared on this site, so here you go !
got this today finally from a torrent.
Thanks to the uploader, and the original ripper GRAVEWISH.
I reuploaded onto a site I hope is ok for you.
https://www.metal-archives.com/albums/Noktu...82%D1%8C/719902
https://www.discogs.com/Nokturnal-Mortum-%D...elease/12900542
Register

Nokturnal Mortum 1999 Nechrist-Remastered 2018-GRAVEWISH [vbr]
134 MB
1 hour 6 minutes 40 seconds
1. Nokturnal Mortum - The Funeral Wind Born in Oriana (6:35)
2. Nokturnal Mortum - Night Before the Fight (6:35)
3. Nokturnal Mortum - Black Raven (8:08)
4. Nokturnal Mortum - The Call of Aryan Spirit (5:56)
5. Nokturnal Mortum - The Child of Swamps and Full Moon (5:38)
6. Nokturnal Mortum - Death Damnation (5:35)
7. Nokturnal Mortum - In the Fire of the Wooden Churches (7:11)
8. Nokturnal Mortum - Jesus Blood (6:11)
9. Nokturnal Mortum - Nechrist - The Dance of Swords (6:32)
10. Nokturnal Mortum - Perun's Celestial Silver (hidden track) (8:19)
(2) infiltrator, thenecromancer,
Dec 29 2019, 08:39:17 Ronnie Wood - Not For Beginners (2001)


*Artist: Ronnie Wood
*Album: Not For Beginners
*Year: 2001
*Genre: Rock
*Country: United Kingdom
*Format: mp3@CBR320kbps
*Size: 101MB

Tracklist:
1. Wayside 02:36
2. Rock N' Roll Star (Byrds cover) 03:23
3. Whadd'ya Think 02:58
4. This Little Heart 03:39
5. Leaving Here (Eddie Holland cover) 03:16
6. Hypershine (3:36
7. R. U. Behaving Yourself? 03:23
8. Be Beautiful 03:14
9. Wake Up You Beauty 03:19
10. Interfere 04:39
11. Real Hard Rocker 03:07
12. Heart, Soul And Body 03:22
13. King Of Kings (Bob Dylan cover) 03:36
******************************
Total playing time: 44:08

[more=Extended info]Thanks to the original uploader.

sixth solo album
https://en.wikipedia.org/wiki/Not_for_Beginners
https://en.wikipedia.org/wiki/Ronnie_Wood
https://www.discogs.com/Ronnie-Wood-Not-For-Beginners/master/473593[/more]

[more=Technical info]
Input File: 02.Rock N\' Roll Star.mp3
Channels : 2
Sample Rate : 44100
Precision : 16-bit
Duration : 00:03:23.33 = 8966633 samples = 15249.4 CDDA sectors
File Size : 8.14M
Bit Rate : 320k
Sample Encoding: MPEG audio (layer I, II or III)
Comments :
Title=Rock N' Roll Star
Artist=Ronnie Wood
Album=Not For Beginners
Tracknumber=2

[/more]

Register
(1) Olethros,
Dec 24 2019, 19:19:50 Obsessor - Obsession Collection [compilation] (2013)


*Artist: Obsessor
*Album: Obsession Collection [compilation]
*Year: 2013
*Genre: Thrash Metal/Crossover/Punk
*Country: United States
*Format: mp3@CBR320kbps
*Size: 52MB

Tracklist:
1. Obsession 02:57
2. Underworld 02:17
3. Sick Salvation 02:53
4. The Demon 02:12
5. In Fear of the End 02:58
6. Aftershock 02:56
7. Mental Hell 02:35
8. Evil Supremacy 03:07
******************************
Total playing time: 21:55

[more=Extended info]Similar Artists
- Toxic Holocaust United States Speed/Thrash/Black Metal
- Municipal Waste United States Thrash Metal/Crossover
- English Dogs United Kingdom Hardcore Punk/Speed/Power Metal/Crossover
- Broken Bones United Kingdom Thrash Metal/Crossover/Hardcore Punk

https://www.metal-archives.com/albums/Obses...llection/382957

USA (Richmond, Virginia)

Collection of previously released singles. Remastered.

Release date: July 9th, 2013
Catalog ID: TC66
Version: Limited edition
Label: Tankcrimes
Format: 12" vinyl (45 RPM)
Limitation: 500 copies[/more]

[more=Technical info]
Input File: Obsessor - Obsession Collection - 01 Obsession.mp3
Channels : 2
Sample Rate : 44100
Precision : 16-bit
Duration : 00:02:57.12 = 7810948 samples = 13283.9 CDDA sectors
File Size : 7.41M
Bit Rate : 335k
Sample Encoding: MPEG audio (layer I, II or III)
Comments :
Title=Obsession
Artist=Obsessor
Album=Obsession Collection
Tracknumber=1
Year=2013

[/more]

Register
(9) boby9052, infiltrator, METALHUNTER, morbidangelo, multizwilling, Olethros, Rosen, stumpheavyrock, Wail,
Dec 23 2019, 09:02:06 Messiah - Unreleased Demo 1984 [best of/compilation] (2007)
Register

Messiah (Che) 1984 Unreleased Demo @ vbr
size: 103 MB
50 minutes 45 seconds
01. Messiah - The Opening (The Crucifixion) (3:25)
02. Messiah - The Antichrist (3:00)
03. Messiah - Metal Match (3:11)
04. Messiah - Total Maniac (2:49)
05. Messiah - Grave Hill (4:44)
06. Messiah - Speed Fight (7:16)
07. Messiah - Satan's Resurrection (3:54)
08. Messiah - Witchcyrcle (5:32)
09. Messiah - Mortal Bells (5:11)
10. Messiah - (Never Provide) The Key Of Hell (10:39)
11. Messiah - Ending (1:04)
(2) thenecromancer, varlam4,
Dec 14 2019, 17:32:35 Voivod - A Flawless Structure? [demo] (1988)
found on the web
Voivod 1988-12-21 A Flawless Structure Demo [192]
Register

https://www.metal-archives.com/albums/Voivo...ucture%3F/54923
was also added as bonus on re-issue of Dimension Hatross in 2017
https://www.metal-archives.com/albums/Voivo...%C3%B6ss/640592
http://voivod.net/discography/demos/
(2) kimkayoung, thenecromancer,
Nov 15 2019, 07:12:05 Soulgrind - Ladit A.D. 1999: Bihttpotb (1995)
Soulgrind (Fin) - LADIT A.D. 1999: BIHTTPOTB (1995)
new link 2019-Nov-05
Register
(6) as71, Grzechu, Occultas, stumpheavyrock, varlam4, wendigo,
Nov 14 2019, 20:42:20 Aggressor - Rehearsal Tape 3/86 [demo] (1986)
Register
(1) thenecromancer,
Nov 9 2019, 19:06:54 Gomorha - Gomorha Hordes [demo] (1989)
Gomorha Hordes Reh [Demo](89)
Genre: Death Metal
Country: Netherlands
Bitrate: 320
Register

---------------------------------------------------------------------
Thanks to the original uploader. from either Lockjaw blogspot or thrashmoegeddon.

Jan "Verpus" List - Drums,Percussion (Exmortes, Apator),
Theo Loomans (R.I.P. 1998) - Vocals,Guitar (Asphyx, Evoker, Soulburn).

https://www.metal-archives.com/bands/Gomorha/62548
https://www.discogs.com/Gomorha-Gomorha-Hor...release/7137940
18 minutes 9 seconds
---------------------------------------------------------------------
1.+2. Gomorha Hordes (Intro) + Gargling in Purulence (3:30)
3. Dethrone Thy Master (4:18)
4. Maleficence (9:33)
5. Yog Sothoth (Lord of Temptation) (0:48)
(3) FUDEDOR, thenecromancer, Wail,
Nov 9 2019, 15:54:30 Black Angel - Bloodbath [Rehearsal] [demo] (1986)


*Artist: Black Angel
*Album: Bloodbath [Rehearsal] [demo]
*Year: 1986
*Genre: Death Metal/Hardcore Punk
*Country: United States
*Format: mp3@CBR192kbps
*Size: 8MB

Tracklist:
1. Tribute to Death 03:22
2. Ashes Thrasher Basher [Basher, Crasher, Slammer, Thrasher] 02:34
******************************
Total playing time: 5:56

[more=Extended info]Thanks to the original uploader, Strad.

http://web.archive.org/web/20130705101457[...of-my-tape.html[/url][/more]

[more=Technical info]
Input File: 1_Tribute to Death_Black Angel Demo 86.mp3
Channels : 2
Sample Rate : 44100
Precision : 16-bit
Duration : 00:03:22.46 = 8928486 samples = 15184.5 CDDA sectors
File Size : 4.86M
Bit Rate : 192k
Sample Encoding: MPEG audio (layer I, II or III)
Comments :
Title=1_Tribute to Death_Black Angel Demo 86
Artist=<Unknown>
Album=Black Angel - (US) Demo 86 Bloodbath
Tracknumber=13
Genre=<Unknown>

[/more]

Register
(5) FUDEDOR, Olethros, Rosen, Wail, wgs73,
Nov 6 2019, 20:18:29 Miasma - Death Songs From Deepest Cellars [bootleg] (2010)

Register

(2) Stug80, thenecromancer,
Nov 4 2019, 20:20:01 Lab Animals - Live At Larry's Hideaway, Toronto [bootleg] (1984)


*Artist: Lab Animals
*Album: Live At Larry's Hideaway, Toronto [bootleg]
*Year: 1984
*Genre: Hardcore Punk/Heavy Metal
*Country: Canada
*Format: mp3@VBR138kbps
*Size: 47MB

Tracklist:
set#1
1. Liberator 02:22
2. Three Armies 03:42
3. Is It Love Or A Hangover 01:51
4. unknown 01:36
5. Democracy 01:17
6. The Flame 02:02
7. Foreign Policy (I don't want to be a commie) 01:40
8. Waiting For Azrael 03:26
9. They Don't Understand Us 01:39
10. Psychoactive Chemical 02:05
11. It's Not That Funny 01:42
12. ? Fuckin' Scum 02:25
13. ? Begging Is A Crime, Steal My Job 00:58
14. ? (tape cuts off) 02:03

set#2
15. ? Begging Is A Crime, Steal My Job 02:00
16. ? Violent Street 03:16
17. unknown 03:53
18. ? In The North Of Our City 01:27
19. unknown 02:07
20. ? Murder Instinct 03:07
21. Liberator 01:57
(missing the end of the set, missing the last 3, or last 5, songs).
******************************
Total playing time: 46:35

[more=Extended info]poor, rough, audience recording.
Scarborough, Ontario band.
pre-Dark Legion.
Vocals - Sean Tracey.
Drums - Mike Rosenthal (pre-Sacrifice).

https://www.metal-archives.com/bands/Dark_Legion/56633[/more]

[more=Technical info]
Input File: 13.Begging Is A Crime, Steal My Job.mp3
Channels : 2
Sample Rate : 44100
Precision : 16-bit
Duration : 00:00:58.04 = 2559740 samples = 4353.3 CDDA sectors
File Size : 1.05M
Bit Rate : 145k
Sample Encoding: MPEG audio (layer I, II or III)
Comments :
Title=13.?Begging Is A Crime, Steal My Job
Artist=Lab Animals (Can)
Album=Live at Larry's Hideaway,Toronto (1984 or 1985)
Tracknumber=13
Genre=Hardcore Punk / Heavy Metal

[/more]

Register
(5) Olethros, Rosen, RunningWild_AT, stumpheavyrock, Wail,
Nov 4 2019, 06:46:16 Uncanny - The Path Of Flesh [ep] (2012)
https://www.metal-archives.com/albums/Uncan...of_Flesh/325412
https://www.discogs.com/Uncanny-The-Path-Of...release/9426191

Here is a vinyl rip I made.

Uncanny (Swe) 2012 The Path Of Flesh 7'' single [320]
7 minutes 53 seconds
1. Side A Creation's Tomb (4:12)
2. Side B The Path Of Flesh (3:41)
Register
(3) ashiaor666, thenecromancer, Wail,
Nov 4 2019, 02:02:39 Centuries Of Deception - Rehearsal [demo] (1998)
Centuries of Deception (US-CA) 1998 Rehearsal Demo FLAC
Register
(5) Brutaliphone, craP_cillA, Evilded, Olethros, thenecromancer,
Nov 3 2019, 23:35:26 Centuries Of Deception - Rehearsal [demo] (1998)


*Artist: Centuries Of Deception
*Album: Rehearsal [demo]
*Year: 1998
*Genre: Black Metal
*Country: United States
*Format: mp3@CBR320kbps
*Size: 47MB

Tracklist:
1. And then there was Chaos 06:52
2. The Bleeding Skies 06:48
3. Farewell to the Gods 06:24
******************************
Total playing time: 20:04

[more=Extended info]Woodland Hills, California

https://www.metal-archives.com/bands/Centuries_of_Deception/4340

Thanks to the original uploader, Atrox of Centuries of Deception.[/more]

[more=Technical info]
Input File: Centuries of Deception - Rehearsal (2014) - 01 And then there was Chaos.mp3
Channels : 2
Sample Rate : 44100
Precision : 16-bit
Duration : 00:06:52.63 = 18196807 samples = 30947 CDDA sectors
File Size : 16.6M
Bit Rate : 321k
Sample Encoding: MPEG audio (layer I, II or III)
Comments :
Title=And then there was Chaos
Artist=Centuries of Deception
Album=Rehearsal (2014)
Tracknumber=1
Year=2014

[/more]

Register
(10) 1968_janeart, craP_cillA, dermarsoran, heinz88, multizwilling, Olethros, Rosen, RunningWild_AT, stub888, thenecromancer,
Nov 3 2019, 22:14:27 Slashing Death - Live At Thrash Camp [demo] (1988)
Slashing Death (Pol) 1988 Live at Thrash Camp, Rogoznik [full gig] [255 kbps]
Thanks to the original uploader, zuchu666
Register
(1) thenecromancer,
Nov 3 2019, 17:32:42 Enchanted Sorrow - Demo 1997 [demo] (1997)
(1) thenecromancer,
Nov 3 2019, 17:29:19 Centuries Of Deception - Heic Noenum Pax [ep] (1998)
(1) thenecromancer,
Oct 20 2019, 03:17:52 Today Needed
QUOTE(thenecromancer @ Oct 19 2019, 21:54:11) *


from the web
97 MB
Register

or
66 MB
Register


(2) infiltrator, thenecromancer,

11 Pages V   1 2 3 > » 
- Lo-Fi Version Support form
Copyrights and abuse reports form
Time is now: 16th February 2020 - 23:25:39