Welcome Guest ( Log In | Register )

История благодарностей участнику dalek ::: Спасибо сказали: 204 раз(а)
Дата поста: В теме: За сообщение: Спасибо сказали:
Jan 5 2020, 17:29:20 Aghora - Entheogenic Frequencies (2019)
Жаль что они куда-то вокалистку подевали - она реально добавляла изюминку к их музыке.
(3) Deze, Ghostb, Shadowman,
Nov 21 2019, 08:42:45 Year Of The Cobra - Ash And Dust (2019)


*Artist: Year Of The Cobra
*Album: Ash And Dust
*Year: 2019
*Genre: Psychedelic Doom Metal/Rock
*Country: United States
*Format: mp3@CBR320kbps
*Size: 96MB

Tracklist:
01. The Battle of White Mountain
02. The Divine
03. Ash and Dust
04. Demons
05. Into the Fray
06. At the Edge
07. Dark Swan
08. In Despair
******************************
Total playing time: 41:30



[more=Extended info]For fans of Jucifer, Kylesa, Torche[/more]

[more=Technical info]
Input File: 01 Battle of White Mountain.mp3
Channels : 2
Sample Rate : 44100
Precision : 16-bit
Duration : 00:07:06.86 = 18824702 samples = 32014.8 CDDA sectors
File Size : 17.4M
Bit Rate : 327k
Sample Encoding: MPEG audio (layer I, II or III)
Comments :
Title=Battle of White Mountain
Artist=Year of the Cobra
Album=Ash and Dust
Tracknumber=1/8/8
Year=2019
Genre=Rock
Discnumber=1/1/1

[/more]

Register
(13) LEGION69, marilin, metala, oldvarg, Olethros, Ostinato, popen13, Rosen, Spunkynut, stub888, terron, VALERY, wreak,
Nov 4 2019, 12:46:27 Second To Sun - Legacy (2019)
Какой-то скучный деткор смешанный с блацком. Вообще не мое.
(3) Brann, infiltrator, ingram,
Oct 20 2019, 08:42:47 [Amatory] - Doom (2019)
Я бы сказал, что у них все же есть какой-то прогресс - раньше они плагиатили Чимайру, теперь плагиатят британский Architects 1488.gif
(1) Ghostb,
Oct 16 2019, 16:37:06 Necronomicon - Unus (2019)
Я бы не сказал что это чистый деатх, тут море клавишных и прочих симфоник элементов.
(2) infiltrator, judaz,
Oct 5 2019, 12:49:30 Dysrhythmia - Terminal Threshold (2019)
Как всегда у них отличный, замороченный инструментал прог.
(2) infiltrator, mirotvorets,
Sep 26 2019, 18:14:10 Borknagar - True North (2019)
Хороший альбом получился, но сейчас сильно тепло для него поэтому оставил в плеере на зиму.
(1) quicksand,
Sep 25 2019, 18:16:02 Opeth - In Cauda Venenum (2019)
Вот не понимаю я логики Окерфельдта, если так сильно хочется играть рок зачем было играть его под вывеской Opeth? Создал бы новую группу с новым названием и играл бы себе. А так теперь когда говоришь, что тебе Opeth нравиться надо уточнять ранний или поздний, не говоря уже о смешных случаях когда хипстеры наслушавшись последних альбомов решали послушать всю дискографию, а там митолл ненавистный.
(3) Dargaud, Emm Human, infiltrator,
Sep 20 2019, 17:25:53 Cult Of Luna - A Dawn To Fear (2019)
После их шедеврального Маринера с Джулией это очень скучный альбом.
(1) Tular,
Aug 15 2019, 16:45:44 Killswitch Engage - Atonement (2019)
Хм, получается Slipknot не формат, но Killswitch Engage формат?
(1) Emm Human,
Aug 3 2019, 16:42:20 Mylingar - Döda Själar (2019)
Просто бешеная по хаосу музыка, отдаленно напоминает PORTAL или ранний ANAAL NATHRAKH.
(2) Occultas, Razorbladeswaltz,
Jul 26 2019, 14:45:14 Uneven Structure - Innocent [single] (2019)
неплохо конечно, но того что они играли на самой первой их еп все так же нет
(1) vosmidesijatye,
May 27 2019, 12:20:01 Батюшка - Панихида (2019)
ЦИТАТА(satanath @ May 27 2019, 15:40:27) *
"The True Batushka" by Krzysztof Drabikowski (Христофор).

Do not confused with BATUSHKA by Bartłomiej Krysiuk (Варфоломей), his album "Hospodi" will be released by Metal Blade soon.

Тот момент когда история группы полностью соответствует названию. Раскол уже прошли. На очереди распутинщина.
(3) infiltrator, Kwaad, Malzus,
May 7 2019, 09:56:08 Izurus - Terror From The Deep (2019)
[youtube]HgtiKGBTQ4c[/youtube]
На самом деле не так уж и плохой польский Nile.
(1) Vladimir,
Apr 29 2019, 09:37:45 Slytract - Slytract (2019)
ЦИТАТА(Samaritianin @ Apr 28 2019, 23:44:15) *
*Genre: Technical Death/Thrash Metal

По превью какой-то симфоник грув-метал.
(1) AHBAnep,
Apr 19 2019, 10:33:56 Fractal Universe - Rhizomes Of Insanity (2019)
Пока что похоже на смесь Obscura + Gorod, надо слушать.
(3) Ghostb, infiltrator, Thrashman,
Apr 14 2019, 07:46:13 Sunn O))) - Life Metal (2019)
Хороший альбом, заснул вчера уже на втором треке.
(4) DMIYUR, Emm Human, Ghostb, infiltrator,
Mar 26 2019, 07:57:15 Devin Townsend - Empath (Deluxe Edition) (2019)


*Artist: Devin Townsend
*Album: Empath (Deluxe Edition)
*Year: 2019
*Genre: Progressive Metal/Ambient
*Country: Canada
*Format: mp3@CBR320kbps
*Size: 280MB

Tracklist:
CD 01:
01. Castaway
02. Genesis
03. Spirits Will Collide
04. Evermore
05. Sprite
06. Hear Me
07. Why
08. Borderlands
09. Requiem
10. Singularity (Part 1: Adrift)
11. Singularity (Part 2: I Am I)
12. Singularity (Part 3: There Be Monsters)
13. Singularity (Part 4: Curious Gods)
14. Singularity (Part 5: Silicon Scientists)
15. Singularity (Part 6: Here Comes the Sun)

CD 02:
01. The Contrarian (Demo) (5:41)
02. King (Demo) (5:29)
03. The Waiting Kind (Demo) (3:54)
04. Empath (Demo) (5:11)
05. Methuselah (Demo) (4:07)
06. This Is Your Life (Demo) (4:15)
07. Gulag (Demo) (5:38)
08. Middle Aged Man (Demo) (3:25)
09. Total Collapse (Demo) (5:41)
10. Summer (Demo) (6:15)
******************************
Total playing time: 2:03:57


Preview 2

[more=Technical info]
Input File: 02 Genesis.mp3
Channels : 2
Sample Rate : 44100
Precision : 16-bit
Duration : 00:06:05.95 = 16138219 samples = 27446 CDDA sectors
File Size : 14.7M
Bit Rate : 321k
Sample Encoding: MPEG audio (layer I, II or III)
Comments :
Title=Genesis
Artist=Devin Townsend
Album=Empath
Tracknumber=2
Year=2019
Genre=Progressive Metal
Discnumber=1

[/more]

Register
(53) ace73pq, andgrek28, Aresson, artscald, Black Cat, Branis, btbwild, Cartman223, csgmnk, Dogman, Emhyr var Emreis, eyes0re, Fatalv, Femto, Forest, garml2, Ghostb, HMHamster, Hovnoliaty, infiltrator, jujul, LEGION69, lucifix, max_stalingradsky, merfo, metala, Metalass, mirotvorets, MMMMM, mort, Mplast, MеtalHead, Old Vyaine, Olethros, Paradayz, quicksand, realexxx75, ripper33, Rosen, Rover, Shadowman, SymbyoticEntity, the_metalist, Tino, Tular, Vassago06, wreak, Xor, Yarri, yuratroll, Варонъ, Нигилист, партизан,
Mar 22 2019, 06:50:38 Truth Corroded - Bloodlands (2019)
[youtube]xEvLiV7utDM[/youtube]
Скучная металкор жвачка.
(2) artscald, babanguida,
Mar 15 2019, 09:30:19 Contrarian - Their Worm Never Dies (2019)
[youtube]rx2Enr1BZ9Y[/youtube]

В разы интересней релиз чем тот же новый Fallujah.
Много схожего с Death и ранними альбомами Cynic-а.
(1) mittal,
Mar 14 2019, 06:03:38 Fallujah - Undying Light (2019)


*Artist: Fallujah
*Album: Undying Light
*Year: 2019
*Genre: Progressive/Technical Death Metal
*Country: United States
*Format: mp3@CBR320kbps
*Size: 95MB

Tracklist:
01. Glass House
02. Last Light
03. Ultraviolet
04. Dopamine
05. The Ocean Above
06. Hollow
07. Sanctuary
08. Eyes Like the Sun
09. Distant and Cold
10. Departure
******************************
Total playing time: 44:59




[more=Technical info]
Input File: 03. Ultraviolet.mp3
Channels : 2
Sample Rate : 44100
Precision : 16-bit
Duration : 00:03:20.65 = 8848445 samples = 15048.4 CDDA sectors
File Size : 8.06M
Bit Rate : 321k
Sample Encoding: MPEG audio (layer I, II or III)
Comments :
Title=Ultraviolet
Artist=Fallujah
Album=Undying Light
Tracknumber=03
Year=2019
Genre=Technical Death Metal
Discnumber=1/1

[/more]

Register
(30) acundof, artscald, Black Cat, Bloodn Lord, cesar, Emhyr var Emreis, Femto, Hell_Is_Here, J0k3r, khestanow3001, LEGION69, metala, Metalass, Mplast, nemx, nikolay81, Old Vyaine, Olethros, Ostinato, pensiata, ripper33, Rodriga, Rosen, sarcophagus, smes, VALERY, vyacheslav, wreak, yuratroll, скептик,
Mar 10 2019, 14:49:38 Hannes Grossmann - Apophenia (2019)


*Artist: Hannes Grossmann
*Album: Apophenia
*Year: 2019
*Genre: Progressive Technical Death Metal
*Country: Germany
*Format: mp3@CBR320kbps
*Size: 99MB

Tracklist:
01. Deep
02. Reeks Insidious
03. The War on Intelligence
04. Vacant Dreams
05. They
06. Dianetics Declined
07. Apophenia
08. The Flying Pizza Conundrum
******************************
Total playing time: 43:09






[more=Extended info]Line-up:
Hannes Grossmann - drums (ALKALOID, TRIPTYKON)
Danny Tunker - guitars (Abhorrent, Alkaloid, ex-Aborted)
Linus Klausenitzer - bass (Obscura, Alkaloid)
V. Santura - vocals (DARK FORTRESS, TRIPTYKON)
Morean - vocals (Dark Fortress, Alkaloid)

guests:
Jeff Loomis - guitars (NEVERMORE, ARCH ENEMY)
Marty Friedman - guitars (MEGADETH)
Christian Muenzner - guitars (Spawn of Possession, ex-Obscura,ex-Necrophagist, Alkaloid, Eternity's End)[/more]

[more=Technical info]
Input File: 08 The Flying Pizza Conundrum.mp3
Channels : 2
Sample Rate : 44100
Precision : 16-bit
Duration : 00:04:20.17 = 11473541 samples = 19512.8 CDDA sectors
File Size : 10.5M
Bit Rate : 322k
Sample Encoding: MPEG audio (layer I, II or III)
Comments :
Title=The Flying Pizza Conundrum
Artist=Hannes Grossmann
Album=Apophenia
Tracknumber=8
Year=2019
Discnumber=1

[/more]

Register
(49) AB5, AHBAnep, andreikun, artscald, as71, Black Cat, cesar, Emhyr var Emreis, Evilded, fishish, Foneg, Hallelucination, hammer, Hell_Is_Here, HMHamster, jpvalentim, LEGION69, lucifix, metala, Metalass, MMMMM, morbidangelo, Mplast, Nattfodd, neoatheist, nikolay81, Olethros, Orgasmik, Ostinato, Paradayz, Radogast, realexxx75, ripper33, Rosen, samokot, sarcophagus, StabWound, Swastika, terron, Tino, toly1917, VALERY, vyacheslav, wreak, xska, yuratroll, zerger, Луч, Язва,
Mar 9 2019, 18:18:42 Temple Of The Fuzz Witch - Temple Of The Fuzz Witch (2019)
Довольно неплохой клон ранних Electric Wizard.
(1) vosmidesijatye,
Mar 4 2019, 05:47:02 Ghost Iris - Apple Of Discord (2019)


*Artist: Ghost Iris
*Album: Apple Of Discord
*Year: 2019
*Genre: Progressive Metal/Djent
*Country: Denmark
*Format: mp3@CBR320kbps
*Size: 87MB

Tracklist:
01. Apple of Discord
02. The Devil's Plaything
03. Final Tale
04. After the Sun Sets Pt. II
05. Beauty in Expiration (feat. Don Vedda)
06. The Rat & the Snake (feat. Tyler Shelton)
07. Heaven Was Pure Hell
08. Cowardly Pride
09. Magenta Moon (feat. Chad Ruhlig)
10. Virus
******************************
Total playing time: 38:10




[more=Technical info]
Input File: 02. The Devil\'s Plaything.mp3
Channels : 2
Sample Rate : 44100
Precision : 16-bit
Duration : 00:03:17.76 = 8721260 samples = 14832.1 CDDA sectors
File Size : 7.96M
Bit Rate : 322k
Sample Encoding: MPEG audio (layer I, II or III)
Comments :
Title=The Devil's Plaything
Artist=Ghost Iris
Album=Apple of Discord
Tracknumber=02
Year=2019
Genre=Progressive Metal / Djent / Metalcore

[/more]

Register
(9) acundof, artscald, garml2, infozahist, maochen, metala, Niknne, Olethros, Rosen,
Mar 2 2019, 15:23:03 Mammoth Weed Wizard Bastard - Yn Ol I Annwyn (2019)
Женский вокал тут просто гипнотический.
(2) vosmidesijatye, Whitefish,

2 Pages V   1 2 >
- Lo-Fi Version Support form
Copyrights and abuse reports form
Time is now: 29th February 2020 - 00:44:08