Welcome Guest ( Log In | Register )

История благодарностей участнику Andrey1981 ::: Спасибо сказали: 6 раз(а)
Дата поста: В теме: За сообщение: Спасибо сказали:
May 25 2019, 14:17:50 Uran 0 - Nigredo (2019)


*Artist: Uran 0
*Album: Nigredo
*Year: 2019
*Genre: Dark Ambient
*Country: Russian Federation
*Format: mp3@CBR320kbps
*Size: 102MB

Tracklist:
1.Clouds
2.Frost On Glass
3.Industrial Territory
4.Nihilism
5.Stars Die
6.Stream
7.Industrial Landscape
8.Nigredo
9.Outer Space
10.Winter Solitude
11.Panzer Division
12.Sunset Industry
13.After Autumn
14.Thaw
******************************
Total playing time: 55:03

[more=Technical info]
Input File: 1.uRAn 0 - Clouds.mp3
Channels : 2
Sample Rate : 44100
Precision : 16-bit
Duration : 00:00:58.99 = 2601371 samples = 4424.1 CDDA sectors
File Size : 2.36M
Bit Rate : 320k
Sample Encoding: MPEG audio (layer I, II or III)
Comments :
Title=Clouds
Artist=uRAn 0
Year=2019
Genre=19

[/more]

Register
(6) A.L.Rapsod, Bloodn Lord, Diflock, Hell_Is_Here, Jackyl, Kwaad,

- Lo-Fi Version Support form
Copyrights and abuse reports form
Time is now: 22nd August 2019 - 22:57:59