Welcome Guest ( Log In | Register )

История благодарностей участнику HviteGuden ::: Спасибо сказали: 61 раз(а)
Дата поста: В теме: За сообщение: Спасибо сказали:
Yesterday, 19:06:23 Electric Wizard
Больше всего люблю три альбома. "Come My Fanatics" - за его вязкость и грузность, "Dopethrone" - он чуть менее грузный, зато внезапно наделён резким, если даже не агрессивным настроением, что только добавляет ему эффектности. "Witchcult Today" - за его концентрированную укуренно-расслабляющую атмосфэру. Эти три альбома просто нравятся больше остальных и примерно одинаково по отношению друг к другу.

Потом отметил бы "Let Us Prey" и "We Live", которые менее вязкие и грузные, чем два их предшественника, но всё равно доставляющие. Примерно на том же уровне мне нравится дебютный альбом. Ну а творчество 2010 привлекает куда меньше, хотя тоже неплохое, можно включать время от времени.
(1) vosmidesijatye,
Yesterday, 18:49:21 My Dying Bride
Хорошая группа, и больше всего мне пришлось по нраву их раннее творчество, пиком которого я считаю "Turn Loose the Swans" и "The Angel and the Dark River". Потом отметил бы "Songs of Darkness, Words of Light", представляющий обновлённое звучание в наиболее убедительной форме.
(1) Ghostb,
Yesterday, 18:10:39 Обсудим карьеру Bethlehem
Группа шикарная, но в большей степени она была такой.

Конечно, альбомы 1994, 1996 и 1998 - вершина их творчества. "Dark Metal" - это эталон депрессивной музыки, поистине гнетущий и давящий альбом. "Dictius Te Necare" и "Sardonischer Untergang im Zeichen irreligiöser Darbietung", в свою очередь, получились более хаотичными и гротескными, при этом они успешно развивают идеи дебюта. И, говоря о творчестве 90-х, я бы не забывал миньон "Profane Fetmilch lenzt elf krank", короткий, но убедительный релиз, настолько же шизофреничный, насколько Bethlehem могли быть в то время.

К последующему творчеству отношусь неоднозначно, но всё же положительно в целом. "Schatten aus der Alexander Welt" - странный альбом, чем, наверное, он и берёт. "Mein Weg" я всегда считал провальным, но в то же время "Hexakosioihexekontahexaphobia", который стилистически не особо отличен от того, мне понравился. Период с Кварфортом тоже был не плох, там и альбом 98-го неплохо переиграли. По крайней мере, более убедительно, чем группа пытается переиграть стиль ранних работ сейчас. Альбомы 16-го и 19-го - как говорится, уже не то, хотя и слушабельны.
(1) vosmidesijatye,
Yesterday, 14:33:31 Bathory - Under The Sign Of The Black Mark (1987)
Отличный альбом. Здесь формация стала воистину разнообразной. Тут есть и драйвовые вещи, например, "Woman Of Dark Desires" и "13 Candles", и злющие, такие как "Massacre" и "Equimanthorn". А чего только стоит раскачивающая и мрачная "Call From The Grave". В кульминации работы - атмосферная "Enter The Eternal Fire".
(1) kim666,
Jul 13 2019, 14:30:28 Non - In The Shadow Of The Sword (1992)


*Artist: Non
*Album: In The Shadow Of The Sword
*Year: 1992
*Genre: Industrial/Martial Industrial/Noise/Dark Ambient
*Country: United States
*Format: mp3@VBR288kbps
*Size: 88MB

Tracklist:
1. Introduction / Total War 5:23
2. Eternal Ice 1:03
3. Sunrise / Fire in the Organism / Vengeance 5:25
4. Without Judgement 1:50
5. Scorched Earth 3:07
6. Invocation 0:57
7. Abraxas 5:24
8. Prey 6:17
9. The Time will Come 4:20
10. Number One Law 2:29
11. A World on Fire 3:18
12. Love and Love's Murder 2:21
******************************
Total playing time: 41:54



[more=Technical info]
Input File: 01. Introduction Total War.mp3
Channels : 2
Sample Rate : 44100
Precision : 16-bit
Duration : 00:05:23.97 = 14286857 samples = 24297.4 CDDA sectors
File Size : 13.0M
Bit Rate : 320k
Sample Encoding: MPEG audio (layer I, II or III)
Comments :
Title=Introduction / Total War
Artist=NON
Album=In The Shadow Of The Sword
Tracknumber=01
Year=1992

[/more]

Register
(3) A.L.Rapsod, Evgen79, Olethros,
Jul 13 2019, 12:34:36 Nordvargr - For The Blood Is The Life (2007)
Этот альбом называют одним из самых примечательных у проекта, что, в общем-то, не зря.

320:
Register
(1) thenecromancer,
Jul 13 2019, 11:48:11 Henrik Nordvargr Björkk - Vitagen (2005)


*Artist: Henrik Nordvargr Björkk
*Album: Vitagen
*Year: 2005
*Genre: Dark Ambient/Industrial
*Country: Sweden
*Format: mp3@CBR320kbps
*Size: 118MB

Tracklist:
1. Steril 08:22
2. I See Shadows 04:25
3. Voidum 06:01
4. Orgasmo Nero 05:59
5. Munus 05:24
6. Surreal Adaptation 04:13
7. Omega 05:32
8. Snokth 04:39
9. Sesso Nero (Live Improv) 07:14
******************************
Total playing time: 51:49



[more=Extended info]Recorded 2004 @ Villa Bohult. All compositions and arrangements by Henrik N Björkk.[/more]

[more=Technical info]
Input File: 02-i-see-shadows.mp3
Channels : 2
Sample Rate : 48000
Precision : 16-bit
Duration : 00:04:25.73 = 12755088 samples ~ 19929.8 CDDA sectors
File Size : 10.6M
Bit Rate : 320k
Sample Encoding: MPEG audio (layer I, II or III)
Comments :
Title=I See Shadows
Artist=Henrik Nordvargr Bjorkk
Album=Vitagen
Tracknumber=02

[/more]

Register
(2) nannoblack, Olethros,
Jul 13 2019, 10:39:32 Bolt Thrower - Those Once Loyal (2005)
ЦИТАТА(vo140182fav @ Jul 13 2019, 10:47:23) *
Жаль, конечно, что группа распалась, но именно такими альбомами нужно ставить финальную точку, уходя достойно с гордо поднятой головой.

PS Какой там Мемориам... Бледная тень вот таких работ!

Да наверняка, если б не распались, выпускали бы материал, не многим интереснее Мемориама, если вообще не тот же самый. Последний Мемориам, к слову, я даже не слушал.
(1) Emm Human,
Jul 12 2019, 17:16:05 Maniac - Liles - Czral - Det Skjedde Noe Når Du Var I Belgia (2009)


*Artist: Maniac - Liles - Czral
*Album: Det Skjedde Noe Når Du Var I Belgia
*Year: 2009
*Genre: Noise/Experimental Electronica/Experimental Rock
*Country: International
*Format: mp3@VBR289kbps
*Size: 98MB

Tracklist:
1 Umåtelige ekvinoktiale krav 0:42
2 Lamentuoso 5:13
3 Det skjedde noe 1:46
4 Piker, våpen og gitarer (Generalen kommer som en reddende engel) 3:28
5 Ekvinoktial flue 5:48
6 Dissonanser i prosessen 1:36
7 Menneskelige relasjoner satt i relasjon til meg 4:20
8 Trygt hjemme mens jeg drømmer baklengs 3:05
9 Salme 3:03
10 Terrence Macandrews' klagesang 2:25
11 En dråpe av meg 5:40
12 Jeg hørte aldri på fremtiden og jeg hørte aldri stemmer 2:50
13 Scenens svøpe 2:32
14 Noe skjedde når du var i Belgia 4:03
******************************
Total playing time: 46:31



[more=Extended info]Maniac - Mayhem, Skitliv.

Lilis - Andrew Liles, Nurse With Wound, Current 93.

Czral (Carl-Michael Eide) - Aura Noir, Ved Buens Ende.[/more]

[more=Technical info]
Input File: 11. En Dråpe Av Meg.mp3
Channels : 2
Sample Rate : 44100
Precision : 16-bit
Duration : 00:05:03.69 = 13392861 samples = 22777 CDDA sectors
File Size : 12.2M
Bit Rate : 320k
Sample Encoding: MPEG audio (layer I, II or III)
Comments :
Title=En Dråpe Av Meg
Artist=Maniac - Liles - Czral
Album=Det Skjedde Noe Når Du Var I Belgia
Tracknumber=11/14
Year=2009
Genre=Dark Ambient

[/more]

Register
(2) A.L.Rapsod, craP_cillA,
Jul 11 2019, 17:55:46 Nordvargr - Pyrrhula (2008)
Отличный альбом. Обволакивающие саундскейпы, создающие концентрированную атмосферу ужаса.

320:
Register
(1) sethurius,
Jul 10 2019, 18:42:51 Nordvargr - For The Blood Is The Life - The Second Strain [ep] (2014)


*Artist: Nordvargr
*Album: For The Blood Is The Life - The Second Strain [ep]
*Year: 2014
*Genre: Dark Ambient
*Country: Sweden
*Format: mp3@CBR320kbps
*Size: 53MB

Tracklist:
1. Masani (Second Strain) 6:22
2. Varghulf 3:57
3. Pelesit (Second Species) 5:06
4. Dhamphiri 5:40
5. Tiyanak 2:32
******************************
Total playing time: 23:37



[more=Extended info]This EP contains previously unreleased and reworked material from "For the life is the blood" album.[/more]

[more=Technical info]
Input File: 01 - Masani (Second Strain).mp3
Channels : 2
Sample Rate : 44100
Precision : 16-bit
Duration : 00:06:22.95 = 16888227 samples = 28721.5 CDDA sectors
File Size : 15.3M
Bit Rate : 320k
Sample Encoding: MPEG audio (layer I, II or III)
Comments :
Title=Masani (Second Strain)
Artist=Nordvargr
Album=For The Blood Is The Life - The Second Strain
Tracknumber=1/5
Year=2014
Genre=Ambient

[/more]

Register
(2) thenecromancer, wtk.412,
Jul 9 2019, 19:34:44 Vacuum Templi - Death Chamber Musick (2018)


*Artist: Vacuum Templi
*Album: Death Chamber Musick
*Year: 2018
*Genre: Dark Ambient/Drone/Ritual Ambient
*Country: Italy
*Format: mp3@CBR320kbps
*Size: 76MB

Tracklist:
1. Corpus Christi 05:01
2. Satvrno Cvlto 04:26
3. Aseptic 05:21
4. In Womb 02:56
5. Self-Abusing Ritual 04:11
6. Virginalia 04:22
7. Mnemonic Nightmare 07:10
******************************
Total playing time: 33:27



[more=Extended info]Vacuum Templi is an Italian experimental music project lead by Loris Cericola formed in 2014.
The project was focused on ambient/drone loops,after two tape release,he started to move on Ritual / Industrial influences as Zos Kia/Coil,Zero Kama and Rosemary's Baby.[/more]

[more=Technical info]
Input File: 01 - Corpus Christi.mp3
Channels : 2
Sample Rate : 44100
Precision : 16-bit
Duration : 00:05:01.39 = 13291475 samples = 22604.5 CDDA sectors
File Size : 12.1M
Bit Rate : 321k
Sample Encoding: MPEG audio (layer I, II or III)
Comments :
Title=Corpus Christi
Artist=Vacuum Templi
Album=Death Chamber Musick
Tracknumber=1
Year=2018
Genre=Dark Ambient

[/more]

Register
(6) Horghraahr, Occultas, Olethros, sethurius, wtk.412, Абигор,
Jul 4 2019, 16:53:17 Zeegang - Dialectica Oceanus (2019)
Достаточно интересный материал. Сырой, преимущественно неторопливый, с клавишными, записанный в атмосферно-депрессивном ключе. Не сказать, что особо коррелирует с предложенной тематикой, но в любом случае впечатляет, особенно второй композицией.
(2) sethurius, Абигор,
Jul 2 2019, 20:17:53 Óreiða - Óreiða (2019)
Отличный альбом. В топ года. На демках проект звучал многообещающе, и вот он раскрылся в полной мере. Монотонный и гипнотизирующий материал, с приятным сырым звуком и завораживающей электроникой, усиливающей и без того мощные гипнотические качества музыки.
(2) Alexis The Best, TDM,
Jul 2 2019, 08:32:16 Rivers Like Veins - Z Iskier Srebrnych Orszaków (2019)
Хороший атмосферик. Живописный и мелодичный, в то же время напористый и экспрессивный. Клавишные порой добавляют нечто архаичное музыке.
(1) vosmidesijatye,
Jun 30 2019, 19:12:09 Devorator - По Следам Звериного Беса (2019)
Добротный классический блэк. Но больше всего с первого раза впечатлила спокойная инструменталка "Траур", всецело олицетворяющая своё название.
(4) infiltrator, sethurius, Skogvaktar, Абигор,
Jun 28 2019, 18:39:08 Inquisition - Invoking The Majestic Throne Of Satan (2002)
ЦИТАТА(vosmidesijatye @ Jun 28 2019, 20:32:05) *
Горшки звали? 1488.gif

Я тогда был с корешом, который ни разу не блэк метл фэн. Он пытался свалить чуть ли не после каждого трека. Когда группа ушла на перерыв он, естественно, использовал шанс.
(1) vosmidesijatye,
Jun 28 2019, 18:18:21 Verwüstung - Gospel Ov Fury (2019)
ЦИТАТА(judaz @ Jun 28 2019, 10:12:28) *
Треш со скримом? Спасибо, но нет.

Почему бы и нет? Для меня это вообще как повод послушать трэшак.
(1) DarkHorde,
Jun 26 2019, 16:13:17 Verwüstung - Gospel Ov Fury (2019)
Вокал крут.
(2) infiltrator, Абигор,
Jun 26 2019, 15:56:14 Лучшие Black Metal релизы 2019
Без даркворлда тяжело вспомнить все. smile4.gif

Blue Hummingbird on the Left, Darkthrone, Alkymist, Enthroned, Misþyrming, Vaal.

А вообще рано ж ещё на такие темы базарить.
(2) infiltrator, judaz,
Jun 23 2019, 15:36:40 Satyricon - Now, Diabolical (2006)
ЦИТАТА(Exorcist @ Jun 23 2019, 17:19:57) *
Nemesis Divina, конечно же.

По-любому. Уже из-за одной "Mother North".
(2) Exorcist, infiltrator,
Jun 22 2019, 21:59:53 Black Metal
ЦИТАТА(babanguida @ Jun 22 2019, 23:52:47) *
no


Yes.
(1) thenecromancer,
Jun 22 2019, 21:32:27 Black Metal
ЦИТАТА(wolverine @ Jun 22 2019, 21:37:13) *
Very early bands like Venom, Hellhammer, Samael and Bathory were Satanic. Of course Bathory evolved into Pagan/Viking. Note that bands like Mercyful Fate/King Diamond, Destruction, Death SS, Slayer, Morbid Angel, Possessed etc. inspired BM as well and they were Satanic. Actually the debut of Burzum and ''Aske'' are kinda Satanic but Burzum was more about darkness and Paganism, while Mayhem was more into theistic Satanism.

Black metal artists from the 90s found their inspiration not only in these bands. And actually even not only in metal music.
(1) SSWolf88,
Jun 22 2019, 08:14:38 Havohej
Надо бы Purple Cloak [ep] (2012) добавить к первому посту.
(1) UlvhedinGrom,
Jun 21 2019, 13:17:09 Muert
Отличная группа. Брутальный и зловещий блэк с трэшевыми и дэтовыми примесями. Цепляет своей неподдельной злобушкой. Вокал - одно из основных достоинств формации.
(1) DarkHorde,

2 Pages V   1 2 >
- Lo-Fi Version Support form
Copyrights and abuse reports form
Time is now: 17th July 2019 - 05:46:44