Welcome Guest ( Log In | Register )

История благодарностей участнику sundowning ::: Спасибо сказали: 497 раз(а)
Дата поста: В теме: За сообщение: Спасибо сказали:
Jun 7 2020, 14:35:48 Starless Domain - Ursa [ep] (2020)


*Artist: Starless Domain
*Album: Ursa [ep]
*Year: 2020
*Genre: Atmospheric/Ambient Black Metal
*Country: United States
*Format: mp3@CBR320kbps
*Size: 66MB

Tracklist:
01. URSA 29:01
******************************
Total playing time: 29:01




[more=Extended info]Starless Domain is a trinity of individual underground artists coming together under the banner of Deep Field Black Metal. Through gazing upon the night sky from the tops of mountains, cosmic prayers were absorbed through each members minds eye. It has been the fate of the infinite universe that brought each member together to mold and harness the vastness of space in its music.[/more]

[more=Technical info]
Input File: 01. URSA.mp3
Channels : 2
Sample Rate : 44100
Precision : 16-bit
Duration : 00:29:01.16 = 76785156 samples = 130587 CDDA sectors
File Size : 69.7M
Bit Rate : 320k
Sample Encoding: MPEG audio (layer I, II or III)
Comments :
Title=URSA
Artist=Starless Domain
Album=URSA
Tracknumber=01
Year=2020

[/more]

Register
(18) 1968_janeart, doomTemplar, infiltrator, kim666, Occultas, Olethros, Ostinato, randumbum, robertho777, Rosen, senecazm, sergsazan, SilentNidhogg, simonalacacarisa, stub888, Tyrone, vasiljev_sergej, wreak,
Mar 23 2020, 12:33:57 Today Needed (2) INDARKNESS, infiltrator,
Feb 27 2020, 21:21:50 Frimaire - Frimaire [ep] (2017)


*Artist: Frimaire
*Album: Frimaire [ep]
*Year: 2017
*Genre: Blackgaze/Post-Black Metal/Post-Punk
*Country: Russian Federation
*Format: mp3@CBR320kbps
*Size: 47MB

Tracklist:
01. Liere 05:12
02. Raiponce 05:01
03. Ajonc 05:36
04. Miel 04:58
******************************
Total playing time: 20:47




[more=Extended info]Blackgaze/Post-Black Metal band from St. Petersburg, Russia. Since 2017.[/more]

[more=Technical info]
Input File: 01. Liere.mp3
Channels : 2
Sample Rate : 44100
Precision : 16-bit
Duration : 00:05:12.34 = 13774282 samples = 23425.6 CDDA sectors
File Size : 12.6M
Bit Rate : 322k
Sample Encoding: MPEG audio (layer I, II or III)
Comments :
Title=Liere
Artist=Frimaire
Album=Frimaire
Tracknumber=01
Year=2017

[/more]

Register
(10) ASkyThatBurns, infiltrator, kim666, Misanthrope@, murian, Olethros, Rosen, varlam4, vasiljev_sergej, wreak,
Feb 27 2020, 20:55:50 Blue Noise - Everyone Goes Away Eventually (2019)


*Artist: Blue Noise
*Album: Everyone Goes Away Eventually
*Year: 2019
*Genre: Blackgaze/Blackened Screamo
*Country: United States
*Format: mp3@CBR320kbps
*Size: 88MB

Tracklist:
01. Hapless 02:32
02. What A Pity 04:18
03. Take It Upon Yourself 03:30
04. Sleight of Hand 03:40
05. Regression 01:43
06. Everyone Goes Away Eventually 03:30
07. It Cannot Be Helped 03:27
08. Drained 04:17
09. Memory 06:53
10. Return to Form 04:41
******************************
Total playing time: 38:31




[more=Extended info]Blue Noise is the solo project of Maya Chun (Youth Novel, Bonzo, Death Flags, Vampires, Bonglord, The Virgin Spring). After two demo tapes, this is the first LP by Blue Noise and one that is granted to cause more than a few ripples in the alternative music scene. Maya Chun manages to combine the violent ambiance of black-metal, the emotional energy of post-hardcore and the fierceness of screamo. The end result is a wrecking ball of huge proportions. There is a well thought out balance between agressiveness and introspection, with brazen vocals harmonized with calm passages and even some catchy riffing as in the songs, Regression and Everyone Goes Away Eventually.[/more]

[more=Technical info]
Input File: 01. Hapless.mp3
Channels : 2
Sample Rate : 44100
Precision : 16-bit
Duration : 00:02:32.67 = 6732791 samples = 11450.3 CDDA sectors
File Size : 6.24M
Bit Rate : 327k
Sample Encoding: MPEG audio (layer I, II or III)
Comments :
Title=Hapless
Artist=Blue Noise
Album=Everyone Goes Away Eventually
Tracknumber=01
Year=2019

[/more]

Register
(4) A.L.Rapsod, infiltrator, kim666, Olethros,
Feb 10 2020, 17:59:04 Omniscient - Ultima Destructo Infinitus [ep] (2003)
MP3 VBR@V0-V2, 30 MB

Register
(3) boba, kim666, varlam4,
Feb 9 2020, 11:22:02 Shaam Larein - Sculpture (2020)


*Artist: Shaam Larein
*Album: Sculpture
*Year: 2020
*Genre: Doom Metal/Goth Rock
*Country: Sweden
*Format: mp3@CBR320kbps
*Size: 77MB

Tracklist:
01. Aurora 04:56
02. Volcano 07:06
03. Lifes Coma 05:28
04. Memories 05:23
05. Zaman 01:56
06. Lunar Crater 06:27
07. Traveler 05:35
******************************
Total playing time: 36:51




[more=Extended info]The music on "Sculpture" is written with three strong female voices in focus and this choir is-allowed-to command as much space as the lead vocal. It is dark and barren but with a beauty that shines like a beacon through the desperation.

Shaam says: "My inspiration comes from a wide range of artist, the somber and gloomy as well as the lucent and dazzling. Sculpture have become a pit of many expressions, where I have created freely. Since I come from the Middle East myself, it becomes quite obvious in my creation that that touch comes in and mixes with the heavy rock we play. It may not be so obvious to all listeners, but it usually falls into place for those who knows the Middle Eastern sound. The scales are pretty clear in the songs."[/more]

[more=Technical info]
Input File: 01. Aurora.mp3
Channels : 2
Sample Rate : 44100
Precision : 16-bit
Duration : 00:04:56.09 = 13057613 samples = 22206.8 CDDA sectors
File Size : 11.9M
Bit Rate : 323k
Sample Encoding: MPEG audio (layer I, II or III)
Comments :
Title=Aurora
Artist=Shaam Larein
Album=Sculpture
Tracknumber=01
Year=2020

[/more]

Register
(21) ASkyThatBurns, Cartman223, grimmstone, Ice Gnoll, infiltrator, marilin, metala, Mogozoz, nospeedlimit, Olethros, postal67, robertho777, rocesid, Rosen, Sanctus, senecazm, sergsazan, skidnik, stumpheavyrock, VALERY, Velmi,
Feb 9 2020, 11:10:13 Ancient Moon - Vvltvre (2015)
320@MP3, 66 MB

Register
(3) stub888, wolverine, Xor,
Feb 9 2020, 07:37:13 Fjara - Inkerinmaa [ep] (2020)


*Artist: Fjara
*Album: Inkerinmaa [ep]
*Year: 2020
*Genre: Dark Folk
*Country: Russian Federation
*Format: mp3@CBR320kbps
*Size: 49MB

Tracklist:
01. Kullervo 03:48
02. Interlude I 00:50
03. Inkerinmaa 03:48
04. Interlude II 00:42
05. Karjalan Vartia 03:10
06. Interlude III 00:44
07. Sulava Jää 03:50
08. Interlude IV 00:36
09. Konevitsan Kirkonkellot 04:08
******************************
Total playing time: 21:36




[more=Extended info]Instrumental acoustic music by Nikita Kislov, dedicated to the nature of Karelia.[/more]

[more=Technical info]
Input File: 03. Inkerinmaa.mp3
Channels : 2
Sample Rate : 48000
Precision : 16-bit
Duration : 00:03:48.00 = 10944144 samples ~ 17100.2 CDDA sectors
File Size : 9.16M
Bit Rate : 321k
Sample Encoding: MPEG audio (layer I, II or III)
Comments :
Title=Inkerinmaa
Artist=Fjara
Album=Inkerinmaa
Tracknumber=03
Year=2020

[/more]

Register
(12) 6666666, Battaleon, Boozer, Cartman223, DarkYantar, Dragonballz, Druidir, infiltrator, nsmetalhead, Olethros, tOmV, ZA670,
Feb 6 2020, 20:31:05 My Purest Heart For You - Change Of Heart [ep] (2020)


*Artist: My Purest Heart For You
*Album: Change Of Heart [ep]
*Year: 2020
*Genre: Atmospheric Black Metal/Blackgaze
*Country: United States
*Format: mp3@CBR320kbps
*Size: 29MB

Tracklist:
01. Change of Heart 04:11
02. Heavy Lights 03:00
03. Mirror Water 05:29
******************************
Total playing time: 12:40



[more=Extended info]My Purest Heart for You is a US depressive/atmospheric black metal/blackgaze act from Myrtle Beach, South Carolina.[/more]

[more=Technical info]
Input File: 02. Heavy Lights.mp3
Channels : 2
Sample Rate : 44100
Precision : 16-bit
Duration : 00:03:00.15 = 7944747 samples = 13511.5 CDDA sectors
File Size : 7.33M
Bit Rate : 326k
Sample Encoding: MPEG audio (layer I, II or III)
Comments :
Title=Heavy Lights
Artist=My Purest Heart for You
Album=Change of Heart
Tracknumber=02
Year=2020

[/more]

Register
(18) 1968_janeart, Alexis The Best, ASkyThatBurns, fallen, infiltrator, kim666, Misanthrope@, morbidangelo, Ostinato, robertho777, Rosen, senecazm, Shadechaser, stone88, stub888, VALERY, vasiljev_sergej, wreak,
Jan 1 2020, 20:37:24 Wintergeist - Kalte Fluten (2019)


*Artist: Wintergeist
*Album: Kalte Fluten
*Year: 2019
*Genre: Atmospheric/Depressive Black Metal
*Country: Germany
*Format: mp3@CBR320kbps
*Size: 104MB

Tracklist:
01. Einklang 03:51
02. In rasender Macht aus Eis 04:39
03. Welt der Kristalle 07:05
04. Gewalten aus scharfem Geroell 04:43
05. Monotonie ohne Wiederkehr 09:15
06. Des klaren Baches Ruf 05:19
07. Ertrunken in der Einsamkeit 03:50
08. Der schwere Weg III 06:48
******************************
Total playing time: 45:30




[more=Extended info]"During the darkest icy nights they've created a mixture of depressive and atmospheric black metal. Wintergeist is telling tales from the old cold ways in the mountains and the life in the darkest woods, sometimes pleasantly primitive, often complex." —from the label[/more]

[more=Technical info]
Input File: 02. In rasender Macht aus Eis.mp3
Channels : 2
Sample Rate : 44100
Precision : 16-bit
Duration : 00:04:39.76 = 12337548 samples = 20982.2 CDDA sectors
File Size : 11.4M
Bit Rate : 326k
Sample Encoding: MPEG audio (layer I, II or III)
Comments :
Title=In rasender Macht aus Eis
Artist=Wintergeist
Album=Kalte Fluten
Tracknumber=02
Year=2019

[/more]

Register
(27) 0x13, 1968_janeart, AlexSmith, ASkyThatBurns, GorAtheist, Ildjarn, kim666, lestllk, metala, Misanthrope@, multizwilling, Olethros, Ostinato, robertho777, Rosen, satanist666, senecazm, SilentNidhogg, stub888, tim47, TREVAS, VALERY, varlam4, vasiljev_sergej, Victim of fate, warrr, zotyo1975,
Dec 31 2019, 14:53:54 Nox Arcana - The Haunted Symphony (2019)


*Artist: Nox Arcana
*Album: The Haunted Symphony
*Year: 2019
*Genre: Neoclassical Darkwave
*Country: United States
*Format: mp3@CBR320kbps
*Size: 145MB

Tracklist:
01. Curse 02:14
02. Ravenwood 02:51
03. Darkfall 03:30
04. Forsaken 02:33
05. Sins of the Past 03:11
06. Requiem 01:47
07. Mourning Hours 02:24
08. Whispering Shadows 01:40
09. Virtuoso 03:00
10. Velvet Darkness 02:51
11. Lords of the Night 03:01
12. Cobwebbed Corridors 02:46
13. Dark Embrace 03:53
14. Crimson Tears 02:39
15. Desolation 03:36
16. The Phantom Waltz 03:34
17. A Touch of Evil 02:33
18. Shattered Reflections 02:46
19. Unleashed 02:46
20. Obsession 03:37
21. Bloodstained Legacy 06:06
******************************
Total playing time: 1:03:18




[more=Extended info]Nox Arcana is renowned for creating haunting, gothic-themed soundscapes with classic horror references, strong literary influences, original and captivating storylines, and hidden riddles and elaborate puzzles. The name Nox Arcana is derived from two Latin words, which roughly translate to "mysteries of the night."[/more]

[more=Technical info]
Input File: 05. Sins of the Past.mp3
Channels : 2
Sample Rate : 44100
Precision : 16-bit
Duration : 00:03:11.88 = 8462040 samples = 14391.2 CDDA sectors
File Size : 7.82M
Bit Rate : 326k
Sample Encoding: MPEG audio (layer I, II or III)
Comments :
Title=Sins of the Past
Artist=Nox Arcana
Album=The Haunted Symphony
Tracknumber=05
Year=2019

[/more]

Register
(18) A.L.Rapsod, AHBAnep, carpathian, Cartman223, DarkYantar, gwar, Infidel, leks, lucifix, MAYH, nsmetalhead, oldvarg, Olethros, stone88, Strygaldwir, thenecromancer, tOmV, v.v.m,
Dec 31 2019, 14:23:56 Les Chants Du Hasard - Livre Second (2019)


*Artist: Les Chants Du Hasard
*Album: Livre Second
*Year: 2019
*Genre: Neoclassical
*Country: France
*Format: mp3@CBR320kbps
*Size: 98MB

Tracklist:
01. Chant I - Le Bossu 05:51
02. Chant II - La Marche 01:29
03. Chant III - Thelxiope 06:04
04. Chant IV - Le Voleur d'Yeux 07:34
05. Chant V - La Marche 02:26
06. Chant VI - La Course 06:18
07. Chant VII - L'Eveil 06:03
08. Chant VIII - La Marche 02:57
09. Chant IX - La Défaite 04:01
******************************
Total playing time: 42:43




[more=Extended info]Les Chants du Hasard debuted in 2017 with an impressive, eponymous album of neoclassical music pervaded by a venomous black metal aura; a work that brought together the enthusiasts of Mussorgsky, Prokofiev and R. Strauss, the orphans of Elend and the fans of Ulver, Arcturus and Emperor.

Arguably the band's sophomore release, "Livre Second" is definitely more focused and confident than its predecessor, getting sole member Hazard closer to what he always wanted to achieve: orchestral music as dark and violent as black metal. The production is clearer, deeper and stronger; the arrangements, richer and full of exquisite details; the atmospheres are more majestic than before, and Hazard's vocals never sounded more tortured, cavernous and evil.[/more]

[more=Technical info]
Input File: 05. Chant V - La Marche.mp3
Channels : 2
Sample Rate : 44100
Precision : 16-bit
Duration : 00:02:26.22 = 6448214 samples = 10966.4 CDDA sectors
File Size : 6.00M
Bit Rate : 328k
Sample Encoding: MPEG audio (layer I, II or III)
Comments :
Title=Chant V - La Marche
Artist=Les Chants du Hasard
Album=Livre Second
Tracknumber=05
Year=2019

[/more]

Register
(8) as71, Cartman223, leks, MAYH, Olethros, Reverend, stone88, tOmV,
Dec 30 2019, 20:37:23 Semper Dolens - Eeuwige Rouw [demo] (2006)
MP3@320, 48 MB (2011 CD-Rip)

Register
(1) thenecromancer,
Dec 30 2019, 17:20:46 Ragana - We Know That The Heavens Are Empty [ep] (2019)


*Artist: Ragana
*Album: We Know That The Heavens Are Empty [ep]
*Year: 2019
*Genre: Atmospheric Black/Sludge/Doom Metal
*Country: United States
*Format: mp3@CBR320kbps
*Size: 32MB

Tracklist:
01. Waiting/The Tower 14:05
******************************
Total playing time: 14:05


Official

[more=Extended info]Ragana (Latvian for "witch") is a two-piece band composed of drummer Nicole and guitarist Maria. Formed in Olympia, WA. Ragana's music can be described as stripped-down, experimental black metal/sludge.[/more]

[more=Technical info]
Input File: 01. Waiting-The Tower.mp3
Channels : 2
Sample Rate : 44100
Precision : 16-bit
Duration : 00:14:05.14 = 37270542 samples = 63385.3 CDDA sectors
File Size : 33.9M
Bit Rate : 321k
Sample Encoding: MPEG audio (layer I, II or III)
Comments :
Title=Waiting/The Tower
Artist=Ragana
Album=We Know That the Heavens Are Empty
Tracknumber=01
Year=2019

[/more]

Register
(17) aleon, ASkyThatBurns, boby9052, Daale, denver, gena, judaz, morbidangelo, murian, Olethros, Ostinato, Rosen, senecazm, thenecromancer, VALERY, varlam4, vasiljev_sergej,
Dec 30 2019, 10:29:11 ◊ - Helios [ep] (2018)


*Artist:
*Album: Helios [ep]
*Year: 2018
*Genre: Atmospheric/Progressive Black Metal
*Country: Germany
*Format: mp3@CBR320kbps
*Size: 35MB

Tracklist:
01. Helios 09:00
02. Flucht 06:03
******************************
Total playing time: 15:03



[more=Extended info]One-man atmospheric/cosmic black metal band with electronic influences, formed by Moritz Paul (Nurez, Innig).[/more]

[more=Technical info]
Input File: 02. Flucht.mp3
Channels : 2
Sample Rate : 44100
Precision : 16-bit
Duration : 00:06:03.78 = 16042610 samples = 27283.4 CDDA sectors
File Size : 14.7M
Bit Rate : 323k
Sample Encoding: MPEG audio (layer I, II or III)
Comments :
Title=Flucht
Artist=◊
Album=Helios
Tracknumber=02
Year=2018

[/more]

Register
(15) 1968_janeart, ASkyThatBurns, czeski21, kimkayoung, lestllk, murian, Olethros, Ostinato, Rosen, russ777, senecazm, VALERY, varlam4, vasiljev_sergej, Zash,
Nov 27 2019, 08:04:49 Pale & Nhomme & 冬蟲夏草 & 明日の叙景 - Two [split] (2019)


*Artist: Pale & Nhomme & 冬蟲夏草 & 明日の叙景
*Album: Two [split]
*Year: 2019
*Genre: Post-Black Metal | Post-Hardcore | Chaotic Hardcore | Post-Black Metal
*Country: Japan | Japan | Japan | Japan
*Format: mp3@CBR320kbps
*Size: 36MB

Tracklist:
Pale:
01. Dakhme 05:43
nhomme:
02. 淋檎の謳 02:50
冬蟲夏草:
03. 玩弄物 02:38
明日の叙景:
04. 冷たい傍ら 04:35
******************************
Total playing time: 15:46







[more=Extended info]Translated titles:
01. Pale - Dakhme
02. nhomme - Apple Poetry
03. Tochu-Kaso - Toy
04. Asunojokei - Dear Coldness


Official page: two-4waysplit.com[/more]

[more=Technical info]
Input File: 02. 淋檎の謳.mp3
Channels : 2
Sample Rate : 44100
Precision : 16-bit
Duration : 00:02:50.33 = 7511553 samples = 12774.8 CDDA sectors
File Size : 7.01M
Bit Rate : 329k
Sample Encoding: MPEG audio (layer I, II or III)
Comments :
Title=淋檎の謳
Artist=nhomme
Album=Two
Tracknumber=02
Year=2019

[/more]

Register
(6) marilin, Rosen, Tyrone, varlam4, vasiljev_sergej, wreak,
Nov 26 2019, 19:57:39 Starless Domain - Alma (2019)


*Artist: Starless Domain
*Album: Alma
*Year: 2019
*Genre: Atmospheric/Ambient Black Metal
*Country: United States
*Format: mp3@CBR320kbps
*Size: 101MB

Tracklist:
01. ALMA 44:42
******************************
Total playing time: 44:42




[more=Extended info]Starless Domain is a trinity of individual underground artists coming together under the banner of Deep Field Black Metal. Through gazing upon the night sky from the tops of mountains, cosmic prayers were absorbed through each members minds eye. It has been the fate of the infinite universe that brought each member together to mold and harness the vastness of space in its music.

Floating in monochromatic nothingness, ambient black metal trio Starless Domain returns with ALMA. A horrifying 46 minute journey into the emptiness between galaxies, Starless Domain's second album explores the terror of the unknown, the ancient hollows of the Deep Field.[/more]

[more=Technical info]
Input File: 01. ALMA.mp3
Channels : 2
Sample Rate : 44100
Precision : 16-bit
Duration : 00:44:42.25 = 118287137 samples = 201169 CDDA sectors
File Size : 107M
Bit Rate : 321k
Sample Encoding: MPEG audio (layer I, II or III)
Comments :
Title=ALMA
Artist=Starless Domain
Album=ALMA
Tracknumber=01
Year=2019

[/more]

Register
(19) 1968_janeart, Kehl05, kim666, Occultas, Olethros, Ostinato, Razorbladeswaltz, Rosen, Sanctus, senecazm, sergsazan, SilentNidhogg, simonalacacarisa, stub888, VALERY, varlam4, vasiljev_sergej, wreak, Козлотролль,
Nov 24 2019, 13:52:38 Beach Pneumatic - Beach Pneumatic [demo] (2014)


*Artist: Beach Pneumatic
*Album: Beach Pneumatic [demo]
*Year: 2014
*Genre: Atmospheric Black Metal
*Country: United States
*Format: mp3@CBR320kbps
*Size: 24MB

Tracklist:
01. Advancing the Shield 05:15
02. Testing the Position at Night 05:09
******************************
Total playing time: 10:24



[more=Extended info]US black metal duo formed by Damian Master (A Pregnant Light, Aksumite, Alluring, Bound Bible, Ornamental Headpiece, Purple Light, Secret Creation, This Station of Life, Vestal Virgin) and AA.[/more]

[more=Technical info]
Input File: 02. Testing the Position at Night.mp3
Channels : 2
Sample Rate : 44100
Precision : 16-bit
Duration : 00:05:09.60 = 13653228 samples = 23219.8 CDDA sectors
File Size : 12.5M
Bit Rate : 324k
Sample Encoding: MPEG audio (layer I, II or III)
Comments :
Title=Testing the Position at Night
Artist=Beach Pneumatic
Album=Beach Pneumatic
Tracknumber=02
Year=2014

[/more]

Register
(10) 1968_janeart, aleon, herkusmontas, kim666, Olethros, Rosen, satanist666, stub888, Tyrone, vasiljev_sergej,
Nov 24 2019, 13:32:01 Sertraline - These Mills Are Oceans [ep] (2019)


*Artist: Sertraline
*Album: These Mills Are Oceans [ep]
*Year: 2019
*Genre: Post-Black Metal
*Country: United States
*Format: mp3@CBR320kbps
*Size: 46MB

Tracklist:
01. Eyes As Tableau 05:13
02. Their Cities 07:19
03. Prague 07:36
******************************
Total playing time: 20:08



[more=Extended info]Fresh off the release of "From Both Our Hands" and their eastern North American tour this summer, Sertraline returns with "These Mills Are Oceans", another sublime collection of songs that will conjure up a plethora of emotion through its fantastic use of dynamics and juxtaposition between delicate and ominous atmospheres and vibrant crescendos of lush and mesmerizing sections that feel deeply cathartic. From the start of "Eyes As Tableau", Sertraline will enthrall, enchant, hypnotize and hold a trance on you until the last note is played.[/more]

[more=Technical info]
Input File: 01. Eyes As Tableau.mp3
Channels : 2
Sample Rate : 44100
Precision : 16-bit
Duration : 00:05:13.54 = 13827202 samples = 23515.6 CDDA sectors
File Size : 12.6M
Bit Rate : 322k
Sample Encoding: MPEG audio (layer I, II or III)
Comments :
Title=Eyes As Tableau
Artist=Sertraline
Album=These Mills Are Oceans
Tracknumber=01
Year=2019

[/more]

Register
(13) 1968_janeart, craP_cillA, kim666, kryuger, Olethros, Ostinato, robertho777, Rosen, satanist666, VALERY, varlam4, vasiljev_sergej, wreak,
Nov 17 2019, 10:46:01 Der Dunkle Zeitverlauf - I (2019)


*Artist: Der Dunkle Zeitverlauf
*Album: I
*Year: 2019
*Genre: Atmospheric/Ambient Black Metal
*Country: Sweden
*Format: flac
*Size: 145MB

Tracklist:
01. -- 1 13:37
02. -- 2 13:46
******************************
Total playing time: 27:23




[more=Extended info]One man raw astral black metal project from Sweden, formed by Vonhagen (Abyss of Life, ex-Thyroid, Light of Rebirth, Nightworld of Endings). Originally released on 22nd of March, 2019 under the name "Die dunkle Zeitverlauf". This album contains remastered tracks.[/more]

Register
(15) 1968_janeart, craP_cillA, kim666, Occultas, Olethros, Ostinato, Rosen, satanist666, senecazm, Sjelekval, squall8fr, stone88, stub888, Tarkron, vasiljev_sergej,
Nov 17 2019, 09:27:03 E-L-R - Mænad (2019)


*Artist: E-L-R
*Album: Mænad
*Year: 2019
*Genre: Doom/Post-Metal
*Country: Switzerland
*Format: mp3@CBR320kbps
*Size: 108MB

Tracklist:
01. Glancing Limbs 08:48
02. Devotee 05:42
03. Above The Mountains There Is Light 10:10
04. Ambrosia 06:16
05. Lunar Nights 07:39
06. The Wild Shore 08:43
******************************
Total playing time: 47:18




[more=Extended info]On their debut full-length "Mænad", Swiss post doomers E-L-R offer a new perspective on panoramic musical vistas. Bassist I.R. and guitarist S.M., both of whom are singing, and drummer M.K. concoct an atmospheric, heavy and heady brew that sounds familiar and fresh at once.

With its title originating from the name of Greek god Dionysus' female followers, who are associated with nature and excessive feasting respectively, "Mænad" follows the group's celebrated 2018 demo "In Splendour & Sedation". The album tells a tale in different stages wherein emotions are constantly shifting like landscapes in passing. "It's mainly our own interpretation of texts and poems, combined with things we lived through ourselves," explains S.M.., "often describing sceneries and events or feelings." Summing up their sound, she speaks of "hypnotic rhythms suspended in a haze of eternal reverberation."[/more]

[more=Technical info]
Input File: 02. Devotee.mp3
Channels : 2
Sample Rate : 44100
Precision : 16-bit
Duration : 00:05:42.88 = 15120964 samples = 25715.9 CDDA sectors
File Size : 13.8M
Bit Rate : 323k
Sample Encoding: MPEG audio (layer I, II or III)
Comments :
Title=Devotee
Artist=E-L-R
Album=Mænad
Tracknumber=02
Year=2019

[/more]

Register
(21) Barlak, chefo, Ellaya, ErikGoth, gena, Ludwig Hagen, Lunaris, MeatWolf, Old Vyaine, oldvarg, Olethros, pothead, robertho777, Rosen, Sanctus, SatanicPanzer, sergsazan, Sunbeam, taiachi, tOmV, VALERY,
Nov 12 2019, 10:18:33 Katharos Xiii - Palindrome (2019)


*Artist: Katharos Xiii
*Album: Palindrome
*Year: 2019
*Genre: Atmospheric Black Metal/Doom Metal/Dark Jazz
*Country: Romania
*Format: mp3@CBR320kbps
*Size: 132MB

Tracklist:
01. Vidma 08:15
02. To a Secret Voyage 11:29
03. Caloian Voices 14:22
04. No Sun Swims Thundered 12:35
05. Xavernah Glory 10:57
******************************
Total playing time: 57:38



[more=Extended info]Katharos XIII's third opus, Palindrome, is made of five long tracks that shifted from the traditional Depressive Black Metal into a more eclectic art form of expression with Dark Doom Metal and Post-Jazz elements, a certain evolution into a more personal unearthly ambiance that represent a new path in the journey that this band embarked more than twelve years ago. The same paranoia and weirdness but with different tools this time.[/more]

[more=Technical info]
Input File: 01. Vidma.mp3
Channels : 2
Sample Rate : 48000
Precision : 16-bit
Duration : 00:08:15.39 = 23778576 samples ~ 37154 CDDA sectors
File Size : 20.1M
Bit Rate : 324k
Sample Encoding: MPEG audio (layer I, II or III)
Comments :
Title=Vidma
Artist=Katharos XIII
Album=Palindrome
Tracknumber=01
Year=2019

[/more]

Register
(27) as71, BlackTroll, CryptOn, Evilded, Hell_Is_Here, infiltrator, Irimias, KVRT, metaljosue, mirotvorets, Misanthrope@, nadin85, Olethros, Olrak, Ostinato, pothead, Reverend, Rosen, SatanicPanzer, satanist666, scorn33, senecazm, Shadechaser, svartrest, varlam4, vasiljev_sergej, yuratroll,
Nov 12 2019, 10:00:26 Muscle And Marrow - Love (2016)


*Artist: Muscle And Marrow
*Album: Love
*Year: 2016
*Genre: Doom Metal/Ethereal Wave
*Country: United States
*Format: mp3@CBR320kbps
*Size: 74MB

Tracklist:
01. My Fear 04:10
02. Black Hole 04:50
03. Womb 04:29
04. The Drooling Mouth 04:50
05. Sacs of Teeth 04:51
06. Bereft Body 03:34
07. Light 06:24
******************************
Total playing time: 33:08



[more=Extended info]Muscle & Marrow, which features Kira Clark (guitar, vocals) and Keith McGraw (drums, samples) are a doom duo from Portland, Oregon. Their sound is surprisingly full, with either lush and drone like guitars or drastically fuzzed, as well as heavy drums. The songs, however, are powered by Clark's voice, soaringly operatic and high at times, while shaking and guttural at others.[/more]

[more=Technical info]
Input File: 06. Bereft Body.mp3
Channels : 2
Sample Rate : 44100
Precision : 16-bit
Duration : 00:03:34.58 = 9463154 samples = 16093.8 CDDA sectors
File Size : 8.64M
Bit Rate : 322k
Sample Encoding: MPEG audio (layer I, II or III)
Comments :
Title=Bereft Body
Artist=Muscle and Marrow
Album=Love
Tracknumber=06
Year=2016

[/more]

Register
(6) marilin, metala, Olethros, Ostinato, Rosen, VALERY,
Nov 11 2019, 11:29:18 Ketoret - Departure [ep] (2019)


*Artist: Ketoret
*Album: Departure [ep]
*Year: 2019
*Genre: Post-Black Metal/Blackgaze
*Country: Israel
*Format: mp3@CBR320kbps
*Size: 60MB

Tracklist:
01. Ivy 07:12
02. Box 08:13
03. Departure in a Heartbeat 10:43
******************************
Total playing time: 26:08




[more=Extended info]Formed in Jerusalem by Alex Krivinski, Slava Kishka, Geva Or and Liav Ben Tolila. Influenced by black metal, shoegazing and doom atmospheres and soundscapes.[/more]

[more=Technical info]
Input File: 01. Ivy.mp3
Channels : 2
Sample Rate : 44100
Precision : 16-bit
Duration : 00:07:12.61 = 19078277 samples = 32446 CDDA sectors
File Size : 17.5M
Bit Rate : 325k
Sample Encoding: MPEG audio (layer I, II or III)
Comments :
Title=Ivy
Artist=Ketoret
Album=Departure
Tracknumber=01
Year=2019

[/more]

Register
(16) ahp, aleon, Buregon, Deusmortem, kim666, Misanthrope@, murian, Olethros, Ostinato, Razorbladeswaltz, robertho777, Rosen, satanist666, VALERY, varlam4, vasiljev_sergej,
Nov 11 2019, 10:53:31 King Woman - Doubt [ep] (2015)


*Artist: King Woman
*Album: Doubt [ep]
*Year: 2015
*Genre: Atmospheric Sludge/Doomgaze
*Country: United States
*Format: mp3@CBR320kbps
*Size: 41MB

Tracklist:
01. Wrong 04:42
02. King of Swords 06:02
03. Burn 04:05
04. Candescent Soul 03:50
******************************
Total playing time: 18:39




[more=Extended info]Formed in 2009 by vocalist Kristina Esfandiari, the Bay Area's King Woman began as a solo project then later developed into a full band. King Woman have crafted a sound thoroughly their own - a sound that harnesses the elastic textures and temporality of drone and metallic shoegaze alongside the transcendental, melancholic power of doom.[/more]

[more=Technical info]
Input File: 03. Burn.mp3
Channels : 2
Sample Rate : 44100
Precision : 16-bit
Duration : 00:04:05.18 = 10812218 samples = 18388.1 CDDA sectors
File Size : 9.91M
Bit Rate : 323k
Sample Encoding: MPEG audio (layer I, II or III)
Comments :
Title=Burn
Artist=King Woman
Album=Doubt
Tracknumber=03
Year=2015

[/more]

Register
(12) ctulhudagon, denver, marilin, Olethros, Ostinato, rammmirez, Rosen, senecazm, stub888, stumpheavyrock, Synthaeon, VALERY,

2 Pages V   1 2 >
- Lo-Fi Version Support form
Copyrights and abuse reports form
Time is now: 1st December 2020 - 16:21:19