Welcome Guest ( Log In | Register )

История благодарностей участнику Indstrlfrppl ::: Спасибо сказали: 18 раз(а)
Дата поста: В теме: За сообщение: Спасибо сказали:
Jan 23 2020, 20:06:05 Jaakko Vanhala - Cuts Of Grace [ep] (2019)


*Artist: Jaakko Vanhala
*Album: Cuts Of Grace [ep]
*Year: 2019
*Genre: Noise/Harsh Noise/Industrial
*Country: Finland
*Format: mp3@CBR320kbps
*Size: 48MB

Tracklist:
01. Pain Enigma 02:58
02. Phosphorous Nostalgia 03:04
03. Iris Star 03:25
04. Blood Arcanum 03:15
05. Sword Of Death 08:16
******************************
Total playing time: 20:58



[more=Extended info]Already years ago announced 3rd CD of Jaakko Vanhala was being postponed several times. Finally, decision was to not make it as full length album but 21 minutes long mini CD. And what a CD it is! If one would feel necessity for another genre tag, it could be "composed noise". As opposite of free flowing jam or formless static rumble, there are many works that feel nearly orchestral. Certainly composed. Cuts of Grace is one of those examples where cut-up harsh noise reaches such a high level, it is not only cut-up for sake of being fragmented and busy. It is cut-up in absolute precision, where sound elements, textures, transitions, all flow perfectly into place. Yet it is noise. Noise composition where juicy and tasty sound sources are arranged into tracks that suck you into whirlwind of noise. Perhaps seemingly chaos, yet these cuts of grace have been assembled by man who clearly is not only noise maker, but noise artist.[/more]

[more=Technical info]
Input File: 05. Sword Of Death.mp3
Channels : 2
Sample Rate : 44100
Precision : 16-bit
Duration : 00:08:16.49 = 21895077 samples = 37236.5 CDDA sectors
File Size : 19.9M
Bit Rate : 321k
Sample Encoding: MPEG audio (layer I, II or III)
Comments :
Title=Sword Of Death
Artist=Jaakko Vanhala
Album=Cuts Of Grace
Tracknumber=05
Year=2019
Genre=Noise

[/more]

Register
(4) FUDEDOR, garmonbozia, Hell_Is_Here, Olethros,
Jan 23 2020, 17:09:04 Grunt - Kraniometria [ep] (2019)


*Artist: Grunt
*Album: Kraniometria [ep]
*Year: 2019
*Genre: Noise/Harsh Noise
*Country: Finland
*Format: mp3@CBR320kbps
*Size: 44MB

Tracklist:
01. Eschatological Uterus 03:59
02. Sex-Paralys-Appeal 01:49
03. Kraniometria 15:09
******************************
Total playing time: 20:57



[more=Extended info]For many years, Grunt have published mainly material leaning to power electronics / industrial noise. There has always been harsh noise element in Grunt. "Kraniometria" is combination of many known elements of Grunt noise: Physicality, analogue rawness, electronic sharpness, yet it is much more than you have formerly heard. From hours of recordings and experiments over 2018, new tools and methods were applied. Result is all instrumental, all harsh, most often free flowing fast paced modulations. It is step to different direction from grinding loops and acoustic metal junks often dominating in the past. Grunt shows it is still able to renew it's approach after over 25 years of work.[/more]

[more=Technical info]
Input File: 01. Eschatological Uterus.mp3
Channels : 2
Sample Rate : 44100
Precision : 16-bit
Duration : 00:03:59.36 = 10555952 samples = 17952.3 CDDA sectors
File Size : 9.73M
Bit Rate : 325k
Sample Encoding: MPEG audio (layer I, II or III)
Comments :
Title=Eschatological Uterus
Artist=Grunt
Album=Kraniometria
Tracknumber=01
Year=2019
Genre=Noise

[/more]

Register
(6) FUDEDOR, garmonbozia, Hell_Is_Here, Olethros, stub888, wtk.412,
Dec 30 2019, 14:24:49 Trepaneringsritualen - ᛉᛦ – Algir; Eller Algir I Merkstave (2019)


*Artist: Trepaneringsritualen
*Album: ᛉᛦ – Algir; Eller Algir I Merkstave
*Year: 2019
*Genre: Dark Ambient/Industrial
*Country: Sweden
*Format: mp3@CBR320kbps
*Size: 85MB

Tracklist:
01. ᛉ 19:00
02. ᛦ 19:00
******************************
Total playing time: 38:00




[more=Technical info]
Input File: 01. ᛉ.mp3
Channels : 2
Sample Rate : 44100
Precision : 16-bit
Duration : 00:19:00.15 = 50280791 samples = 85511.5 CDDA sectors
File Size : 45.9M
Bit Rate : 322k
Sample Encoding: MPEG audio (layer I, II or III)
Comments :
Title=ᛉ
Artist=Trepaneringsritualen
Album=ᛉᛦ – Algir; Eller Algir I Merkstave
Tracknumber=01
Year=2019
Genre=Dark Ambient; Industrial

[/more]

Register
(8) gena, Hell_Is_Here, kefka, marilin, Olethros, wtk.412, zoog, Абигор,

- Lo-Fi Version Support form
Copyrights and abuse reports form
Time is now: 16th February 2020 - 20:51:31