Welcome Guest ( Log In | Register )

История благодарностей участнику Cramloth ::: Спасибо сказали: 2801 раз(а)
Дата поста: В теме: За сообщение: Спасибо сказали:
Feb 24 2021, 22:43:24 Nächtlich - Bygone Winds Of A Black Curse [demo] (2021)


*Artist: Nächtlich
*Album: Bygone Winds Of A Black Curse [demo]
*Year: 2021
*Genre: Raw Black Metal
*Country: Canada
*Format: mp3@CBR320kbps
*Size: 35MB

Tracklist:
1. Bygone Winds of a Black Curse 04:24
2. The Eyes of Hatred 08:44
3. Spiritual Conquest... Into My Kingdom 02:06
******************************
Total playing time: 15:14



[more=Extended info]Comes on black professionally-printed tapes with a silver imprint.[/more]

[more=Technical info]
Input File: Nächtlich - Bygone Winds of a Black Curse.mp3
Channels : 2
Sample Rate : 48000
Precision : 16-bit
Duration : 00:04:24.20 = 12681648 samples ~ 19815.1 CDDA sectors
File Size : 10.6M
Bit Rate : 320k
Sample Encoding: MPEG audio (layer I, II or III)
Comments :
Title=Bygone Winds of a Black Curse
Album=Bygone Winds of a Black Curse
Tracknumber=1
Year=2021
Genre=Raw Black Metal

[/more]

Register
(10) Alexis The Best, heinz88, lunaraurora, Olethros, robertho777, SilentNidhogg, smysl, Taakeferd, varlam4, wreak,
Feb 24 2021, 22:14:58 The Cavern - The Binding Of Dark Wings (2021)


*Artist: The Cavern
*Album: The Binding Of Dark Wings
*Year: 2021
*Genre: Raw/Atmospheric Black Metal
*Country: United Kingdom
*Format: mp3@CBR320kbps
*Size: 90MB

Tracklist:
1. A Tomb Of Fog, Encased In Ice 11:02
2. The Binding Of Dark Wings 07:00
3. Behind A Black Door 08:53
4. Nightmares Of Red Men 12:10
******************************
Total playing time: 39:05





[more=Technical info]
Input File: The Cavern - Nightmares Of Red Men.mp3
Channels : 2
Sample Rate : 44100
Precision : 16-bit
Duration : 00:12:10.22 = 32202482 samples = 54766.1 CDDA sectors
File Size : 29.2M
Bit Rate : 320k
Sample Encoding: MPEG audio (layer I, II or III)
Comments :
Title=Nightmares Of Red Men
Album=The Binding Of Dark Wings
Tracknumber=4
Year=2021
Genre=Black Metal

[/more]

Register
(8) AlexSmith, blacky66, Olethros, Ostinato, robertho777, SilentNidhogg, Taakeferd, wreak,
Feb 24 2021, 20:14:06 Kvltmor - Xiii Ritual [ep] (2021)


*Artist: Kvltmor
*Album: Xiii Ritual [ep]
*Year: 2021
*Genre: Black Metal/Dark Ambient
*Country: Russian Federation
*Format: mp3@CBR320kbps
*Size: 101MB

Tracklist:
1. Sancti I: Opening the Gates of the Diabolica Quimbanda 06:46
2. Salve Exu Mor, Salve Beelzebuth 08:53
3. Hail Ama-Lilith, Goddess of Gehinnom! 12:48
4. Agios Qayin Rex Mortis 15:40
******************************
Total playing time: 44:07


Metal Archives

[more=Technical info]
Input File: Kvltmor - Agios Qayin Rex Mortis.mp3
Channels : 2
Sample Rate : 44100
Precision : 16-bit
Duration : 00:15:40.25 = 41465069 samples = 70518.8 CDDA sectors
File Size : 37.6M
Bit Rate : 320k
Sample Encoding: MPEG audio (layer I, II or III)
Comments :
Title=Agios Qayin Rex Mortis
Album=XIII Ritual
Tracknumber=4
Year=2021
Genre=Black Metal

[/more]

Register
(7) Olethros, Ostinato, robertho777, SilentNidhogg, smysl, Taakeferd, wreak,
Feb 21 2021, 15:17:44 Murmúrio - Memento Mori Necrosóphico [demo] (2014)


*Artist: Murmúrio
*Album: Memento Mori Necrosóphico [demo]
*Year: 2014
*Genre: Raw Black Metal
*Country: Portugal
*Format: mp3@CBR320kbps
*Size: 43MB

Tracklist:
1. ? 02:53
2. Caveira 06:39
3. Prece 05:18
4. O Coveiro 03:29
******************************
Total playing time: 18:19

Metal Archives


[more=Technical info]
Input File: Murmúrio - O Coveiro.mp3
Channels : 2
Sample Rate : 44100
Precision : 16-bit
Duration : 00:03:29.44 = 9236084 samples = 15707.6 CDDA sectors
File Size : 8.38M
Bit Rate : 320k
Sample Encoding: MPEG audio (layer I, II or III)
Comments :
Title=O Coveiro
Artist=Murmúrio
Album=Memento Mori Necrosóphico
Tracknumber=4
Year=2014
Genre=Black Metal

[/more]

Register
(11) BlaspherionFLUL, infiltrator, kim666, korovakaska, Olethros, respect, SilentNidhogg, smysl, supremo, Taakeferd, wreak,
Feb 20 2021, 20:23:14 Nubile Moon - Through The Window Which Separates Worlds... [demo] (2021)


*Artist: Nubile Moon
*Album: Through The Window Which Separates Worlds... [demo]
*Year: 2021
*Genre: Raw Black Metal
*Country: United States
*Format: mp3@CBR320kbps
*Size: 50MB

Tracklist:
1. Memory of Those Forgotten 10:17
2. Through the Window Which Separates Worlds... 11:16
******************************
Total playing time: 21:33

Metal Archives


[more=Extended info]Recorded during September, 2020.[/more]

[more=Technical info]
Input File: Nubile Moon - Memory of Those Forgotten.mp3
Channels : 2
Sample Rate : 44100
Precision : 16-bit
Duration : 00:10:17.80 = 27245156 samples = 46335.3 CDDA sectors
File Size : 24.7M
Bit Rate : 320k
Sample Encoding: MPEG audio (layer I, II or III)
Comments :
Title=Memory of Those Forgotten
Artist=Nubile Moon
Album=Through the Window Which Separates Worlds...
Tracknumber=1
Year=2021
Genre=Raw Black Metal

[/more]

Register
(4) kim666, murian, Olethros, smysl,
Feb 19 2021, 23:09:14 Wømb - Here, The World Falls... [demo] (2020)


*Artist: Wømb
*Album: Here, The World Falls... [demo]
*Year: 2020
*Genre: Raw Black Metal
*Country: Portugal
*Format: mp3@CBR320kbps
*Size: 43MB

Tracklist:
1. Abraxas in Ecstasy 03:39
2. Great Mother of Destruction, Time and Death 03:19
3. Kalika 06:16
4. Finis Mundi 05:15
******************************
Total playing time: 18:29

Metal Archives


[more=Extended info]Limited to 100 copies, handnumbered.[/more]

[more=Technical info]
Input File: Wømb - 1 - Abraxas in Ecstasy.mp3
Channels : 2
Sample Rate : 48000
Precision : 16-bit
Duration : 00:03:39.14 = 10518912 samples ~ 16435.8 CDDA sectors
File Size : 8.77M
Bit Rate : 320k
Sample Encoding: MPEG audio (layer I, II or III)
Comments :
Title=Abraxas in Ecstasy
Artist=Wømb
Album=Here, the World Falls...
Tracknumber=1
Year=2020
Genre=Black Metal

[/more]

Register
(10) infiltrator, kim666, Olethros, Ostinato, SilentNidhogg, smysl, stub888, Taakeferd, VALERY, wreak,
Feb 19 2021, 20:09:44 Old Castles - Die Wampyriskra Symphonie [compilation] (2021)


*Artist: Old Castles
*Album: Die Wampyriskra Symphonie [compilation]
*Year: 2021
*Genre: Raw Black Metal/Dungeon Synth
*Country: Unknown
*Format: mp3@CBR320kbps
*Size: 80MB

Tracklist:
1. Oubliette 03:05
2. Orgiastic Feast in Excrement 05:33
3. Scepter of Translucent Virulence 06:53
4. Burial Into the Mist 03:38
5. Forsaken Relics of Wisdom 03:58
6. Tyrant Supremacy 02:47
7. Apparitions From the Burial 04:16
8. Funeral Sorcery 04:14
******************************
Total playing time: 34:24




Discogs

[more=Extended info]A strange and solemn piece of ancient art recreated in the Raw Black Metal & Old School Dungeon Synth. A demo, initially recorded in 2012 in a primitive analogue way, and an unreleased Dungeon Synth demo, recorded the same year, make a joint album dedicated to the dark tyrants, with a unique and intricate purpose towards this monolith Relive once again the glorious and majestic melancholy, loneliness and eternal darkness with a fierce spirit of the Dark Ages ... those hymns consecrated to the mist of old forgotten kingdoms and black sorcery. Reverberant cacophonies from the shattered tombs are emanated to morbid sound of the raw black metal side, rotten and orgiastic feast of the black noise… devotees of vampyrism art.[/more]

[more=Technical info]
Input File: Old Castles - Scepter of Translucent Virulence.mp3
Channels : 2
Sample Rate : 44100
Precision : 16-bit
Duration : 00:06:53.52 = 18236012 samples = 31013.6 CDDA sectors
File Size : 16.5M
Bit Rate : 320k
Sample Encoding: MPEG audio (layer I, II or III)
Comments :
Title=Scepter of Translucent Virulence
Album=Die Wampyriskra Symphonie
Tracknumber=3
Year=2021
Genre=Raw Black Metal

[/more]

Register
(4) craP_cillA, MortSathynr, Olethros, smysl,
Feb 18 2021, 19:06:46 Mortuarial Avshy - Arcano Ente Nocturno (2020)


*Artist: Mortuarial Avshy
*Album: Arcano Ente Nocturno
*Year: 2020
*Genre: Black Metal
*Country: Chile
*Format: mp3@CBR320kbps
*Size: 90MB

Tracklist:
1. Enter!! The Lord of Fateful Domains 01:02
2. Satan Rides Under the Sign of the Midnight 05:17
3. Necrotica Ascendencia 03:45
4. Lunar Suicide Act 06:34
5. The Horrific Shadows of My Throne 02:29
6. Under the Ruins 05:18
7. Walking Through the Dismal Path of Obscurity 06:43
8. The Rising Dying Light 03:08
9. Blackwinds of Pandemic 04:30
******************************
Total playing time: 38:46



Metal Archives

[more=Technical info]
Input File: Mortuarial Avshy - Walking Through the Dismal Path of Obscurity.mp3
Channels : 2
Sample Rate : 48000
Precision : 16-bit
Duration : 00:06:43.81 = 19382832 samples ~ 30285.7 CDDA sectors
File Size : 16.2M
Bit Rate : 320k
Sample Encoding: MPEG audio (layer I, II or III)
Comments :
Title=Walking Through the Dismal Path of Obscurity
Album=Arcano Ente Nocturno
Tracknumber=7
Year=2020
Genre=Black Metal

[/more]

Register
(14) AlexSmith, atavist, HecTheWreck, infiltrator, kim666, korovakaska, Olethros, SilentNidhogg, smysl, Taakeferd, toly1917, VALERY, varlam4, wreak,
Feb 18 2021, 16:42:06 Sulmata - Jad, Otrov I Tuga [demo] (2021)


*Artist: Sulmata
*Album: Jad, Otrov I Tuga [demo]
*Year: 2021
*Genre: Raw Black Metal
*Country: Croatia
*Format: mp3@CBR320kbps
*Size: 49MB

Tracklist:
1. Jad, Otrov i Tuga 21:05
******************************
Total playing time: 21:05

Metal Archives



[more=Technical info]
Input File: Sulmata - Jad, Otrov i Tuga.mp3
Channels : 2
Sample Rate : 44100
Precision : 16-bit
Duration : 00:21:05.81 = 55822089 samples = 94935.5 CDDA sectors
File Size : 50.6M
Bit Rate : 320k
Sample Encoding: MPEG audio (layer I, II or III)
Comments :
Album=Jad, Otrov i Tuga
Year=2021
Genre=Black Metal

[/more]

Register
(9) caro, infiltrator, kim666, Olethros, stub888, Taakeferd, VALERY, varlam4, wreak,
Feb 17 2021, 00:56:34 The Night Specter - They Leaned From The Heights Of Cloud To Direct The Way Of Swords (2020)


*Artist: The Night Specter
*Album: They Leaned From The Heights Of Cloud To Direct The Way Of Swords
*Year: 2020
*Genre: Black Metal/Drone
*Country: Netherlands
*Format: mp3@CBR320kbps
*Size: 67MB

Tracklist:
1. They leaned from the heights of cloud to direct the way of swords 05:04
2. A solemn entry into the black kingdom of solitude 05:20
3. He has cloaked the world in darkness and will cloak in darkness again after the last sunrise 04:38
4. The aërial crimson falls 05:11
5. Realm of the ultimate emptiness 04:42
6. ...and lost in infinite hovering wings 03:57
******************************
Total playing time: 28:52



Discogs

[more=Technical info]
Input File: The Night Specter - 1 They leaned from the heights of cloud to direct the way of swords.mp3
Channels : 2
Sample Rate : 48000
Precision : 16-bit
Duration : 00:05:04.88 = 14634336 samples ~ 22866.2 CDDA sectors
File Size : 12.2M
Bit Rate : 320k
Sample Encoding: MPEG audio (layer I, II or III)
Comments :
Title=They leaned from the heights of cloud to direct the way of swords
Album=They leaned from the heights of cloud to direct the way of swords
Tracknumber=1
Year=2020
Genre=Black Metal

[/more]

Register
(9) AlexSmith, Corpuscul, craP_cillA, gena, infiltrator, Occultas, Olethros, Tyrone, Vitald,
Feb 16 2021, 04:54:45 Poço Negro - Demo I [demo] (2020)


*Artist: Poço Negro
*Album: Demo I [demo]
*Year: 2020
*Genre: Raw Black Metal
*Country: Unknown
*Format: mp3@CBR320kbps
*Size: 55MB

Tracklist:
1. Intro 01:42
2. A Passagem 05:21
3. O Destino 05:41
4. Renascimento Abismal 04:59
5. Viagem Apocaliptica 06:00
******************************
Total playing time: 23:43

Metal Archives


[more=Technical info]
Input File: Poço Negro - 2 - A Passagem.mp3
Channels : 2
Sample Rate : 44100
Precision : 16-bit
Duration : 00:05:21.95 = 14197995 samples = 24146.2 CDDA sectors
File Size : 12.9M
Bit Rate : 320k
Sample Encoding: MPEG audio (layer I, II or III)
Comments :
Title=A Passagem
Artist=Poço Negro
Album=Demo I
Tracknumber=2
Year=2020
Genre=Black Metal

[/more]

Register
(7) aleon, dermarsoran, infiltrator, kim666, Olethros, varlam4, zurru,
Feb 14 2021, 22:20:05 Bezperit - Tenebrae Circumdant Me Maledicti Gravis [demo] (2020)


*Artist: Bezperit
*Album: Tenebrae Circumdant Me Maledicti Gravis [demo]
*Year: 2020
*Genre: Raw Black Metal
*Country: United States
*Format: mp3@CBR320kbps
*Size: 35MB

Tracklist:
1. I 06:04
2. II 06:22
******************************
Total playing time: 12:26




[more=Extended info]Cassette through Harvest of Death[/more]

[more=Technical info]
Input File: bezperit - Tenebrae Circumdant Me Maledicti Gravis - 01 I.mp3
Channels : 2
Sample Rate : 44100
Precision : 16-bit
Duration : 00:06:04.69 = 16082785 samples = 27351.7 CDDA sectors
File Size : 14.8M
Bit Rate : 326k
Sample Encoding: MPEG audio (layer I, II or III)
Comments :
Title=I
Artist=bezperit
Album=Tenebrae Circumdant Me Maledicti Gravis
Tracknumber=1
Year=2020

[/more]

Register
(10) infiltrator, kim666, Olethros, randumbum, SilentNidhogg, Taakeferd, Tyrone, VALERY, varlam4, wreak,
Feb 11 2021, 23:00:39 Ruohtta - Reetessä [ep] (2021)


*Artist: Ruohtta
*Album: Reetessä [ep]
*Year: 2021
*Genre: Black Metal/Dark Ambient
*Country: Sweden
*Format: mp3@CBR320kbps
*Size: 52MB

Tracklist:
1. Liket 04:25
2. Raato 04:48
3. Jábmekk 06:08
4. Ealáska 07:21
******************************
Total playing time: 22:42


Instagram

[more=Technical info]
Input File: Ruohtta - Ealáska.mp3
Channels : 2
Sample Rate : 44100
Precision : 16-bit
Duration : 00:07:22.20 = 19500976 samples = 33164.9 CDDA sectors
File Size : 17.7M
Bit Rate : 320k
Sample Encoding: MPEG audio (layer I, II or III)
Comments :
Title=Ealáska
Album=Reetessä
Tracknumber=4
Year=2021
Genre=Black Metal

[/more]

Register
(15) gena, infiltrator, judaz, kim666, Olethros, Ostinato, randumbum, satanist666, SilentNidhogg, Sjelekval, stub888, Taakeferd, VALERY, varlam4, wreak,
Feb 10 2021, 22:10:50 Asregen - Saturnus’ Nacht (2014)


*Artist: Asregen
*Album: Saturnus’ Nacht
*Year: 2014
*Genre: Atmospheric Black Metal
*Country: Netherlands
*Format: mp3@CBR320kbps
*Size: 112MB

Tracklist:
1. Koperen poort, ingang naar het rijk der driften 04:53
2. Verderf zaaiend met ijzeren scepter 04:19
3. Gekweld onder kosmisch lood, het sterfelijke vat verterend 08:15
4. Ware kracht, interne zwarte macht 04:03
5. De astrale reis van bloed en vuur 04:49
6. Buiten het rijk van deze wereld 02:37
7. Ongeraffineerd, gouden sfeer van ongeremde energie 05:57
8. Desolaat, pokdalig en volmaakt zilver 04:24
9. Grenzen van het fysieke overschrijdend 05:56
10. Kosmische sleutel 03:02
******************************
Total playing time: 48:15



Metal Archives


[more=Technical info]
Input File: Asregen - Saturnus\' nacht - 01 Koperen poort, ingang naar het rijk der driften.mp3
Channels : 2
Sample Rate : 44100
Precision : 16-bit
Duration : 00:04:53.45 = 12941101 samples = 22008.7 CDDA sectors
File Size : 11.9M
Bit Rate : 324k
Sample Encoding: MPEG audio (layer I, II or III)
Comments :
Title=Koperen poort, ingang naar het rijk der driften
Artist=Asregen
Album=Saturnus' nacht
Tracknumber=1
Year=2020

[/more]

Register

Register
(19) aleon, AlexSmith, cist, El_Chibo, infiltrator, kim666, Marek, metala, multizwilling, Olethros, randumbum, sergsazan, SilentNidhogg, stub888, Taakeferd, VALERY, varlam4, vasiljev_sergej, wreak,
Feb 9 2021, 18:08:46 Odagra - Unveiling Mesporah [demo] (2021)


*Artist: Odagra
*Album: Unveiling Mesporah [demo]
*Year: 2021
*Genre: Raw Black Metal/Dark Ambient
*Country: Croatia
*Format: mp3@CBR320kbps
*Size: 35MB

Tracklist:
1. Intro 01:25
2. I 04:03
3. II 03:49
4. III 05:46
******************************
Total playing time: 15:03


Metal Archives


[more=Technical info]
Input File: Odagra - 1 Intro.mp3
Channels : 2
Sample Rate : 44100
Precision : 16-bit
Duration : 00:01:25.97 = 3791453 samples = 6448.05 CDDA sectors
File Size : 3.44M
Bit Rate : 320k
Sample Encoding: MPEG audio (layer I, II or III)
Comments :
Title=Intro
Album=Unveiling Mesporah
Tracknumber=1
Year=2021
Genre=Raw Black Metal

[/more]

Register
(11) Alexis The Best, Borderline1991, infiltrator, kim666, Olethros, robertho777, Rosen, SilentNidhogg, stub888, varlam4, wreak,
Feb 9 2021, 03:14:28 Occulted Death Stance - Some Things Are Eternal [ep] (2017)


*Artist: Occulted Death Stance
*Album: Some Things Are Eternal [ep]
*Year: 2017
*Genre: Raw Black Metal/Drone
*Country: United Kingdom
*Format: mp3@CBR320kbps
*Size: 58MB

Tracklist:
1. C U N Hell 05:50
2. Drowning 03:09
3. Obsidian Mirror 04:43
4. Sex Through Grieving 02:41
5. Some Things Are Eternal 08:51
******************************
Total playing time: 25:14

Metal Archives


[more=Extended info]CD-R includes alternative version of tape tracks.

First 10 copies comes with condom filled with soil from the artists grave.[/more]

[more=Technical info]
Input File: Occulted Death Stance - 2 Drowning.mp3
Channels : 2
Sample Rate : 44100
Precision : 16-bit
Duration : 00:03:09.35 = 8350115 samples = 14200.9 CDDA sectors
File Size : 7.57M
Bit Rate : 320k
Sample Encoding: MPEG audio (layer I, II or III)
Comments :
Title=Drowning
Album=Some Things Are Eternal
Tracknumber=2
Year=2017
Genre=Black Metal

[/more]

Register
(11) Alexis The Best, caro, infiltrator, Olethros, Ostinato, randumbum, Rosen, stub888, varlam4, vasiljev_sergej, wreak,
Feb 6 2021, 22:28:12 Necromantical Invocation - Dogme Et Rituel De La Haute Magie [demo] (2021)


*Artist: Necromantical Invocation
*Album: Dogme Et Rituel De La Haute Magie [demo]
*Year: 2021
*Genre: Black Metal
*Country: Greece
*Format: mp3@CBR320kbps
*Size: 77MB

Tracklist:
1. Nυχτερινή Επίκληση 02:42
2. Necromantical Ritual 10:48
3. Dogme et Rituel de la Haute Magie 15:51
4. Αι Σκιαί Του Άδου 03:36
******************************
Total playing time: 32:57


Metal Archives


[more=Extended info]Handnumbered copies.

Co-released with Medieval Prophecy Records.

This release is dedicated to Baron Blood.[/more]

[more=Technical info]
Input File: Necromantical Invocation - Nυχτερινή Επίκληση.mp3
Channels : 2
Sample Rate : 48000
Precision : 16-bit
Duration : 00:02:42.39 = 7794816 samples ~ 12179.4 CDDA sectors
File Size : 6.50M
Bit Rate : 320k
Sample Encoding: MPEG audio (layer I, II or III)
Comments :
Title=Nυχτερινή Επίκληση
Album=Dogme et Rituel de la Haute Magie
Tracknumber=1
Year=2021
Genre=Black Metal

[/more]

Register
(22) Boozer, dermarsoran, El_Chibo, igore2911, Ildjarn, infiltrator, kim666, milosdjor, mizantrophist, Occultas, Olethros, rammmirez, randumbum, robertho777, Rosen, SilentNidhogg, Taakeferd, undeadlich, VALERY, varlam4, vasiljev_sergej, wreak,
Feb 6 2021, 19:30:07 Pseudotsuga - Forest Magick [demo] (2020)


*Artist: Pseudotsuga
*Album: Forest Magick [demo]
*Year: 2020
*Genre: Black Metal
*Country: Canada
*Format: mp3@CBR320kbps
*Size: 31MB

Tracklist:
1. Intro 00:58 instrumental
2. The Spirit of the Defiled Woodland at the Throat of the King 04:30
3. Midtro 00:45 instrumental
4. Reclaiming the Land in Which They Paved (Beheading the Black Snake) 04:54
5. Outro 01:54
******************************
Total playing time: 13:01

Metal Archives



[more=Extended info]Liatriis Vorst, The Blazing Star - Vocals, Guitar

Thuringwethil, The High Priestess - Drums, Keys

Tapes out soon on Food For Dogs Records, limited to 25 copies.[/more]

[more=Technical info]
Input File: Pseudotsuga - Forest Magick (Demo 2020) - 01 Intro.mp3
Channels : 2
Sample Rate : 44100
Precision : 16-bit
Duration : 00:00:58.18 = 2565606 samples = 4363.28 CDDA sectors
File Size : 2.40M
Bit Rate : 330k
Sample Encoding: MPEG audio (layer I, II or III)
Comments :
Title=Intro
Artist=Pseudotsuga
Album=Forest Magick (Demo 2020)
Tracknumber=1
Year=2020

[/more]

Register
(6) infiltrator, killingod, Olethros, Rosen, varlam4, vasiljev_sergej,
Feb 6 2021, 01:11:38 White Nights - Solanaceae [ep] (2021)


*Artist: White Nights
*Album: Solanaceae [ep]
*Year: 2021
*Genre: Black Metal/Deathrock
*Country: United States
*Format: mp3@CBR320kbps
*Size: 60MB

Tracklist:
1. Halluncinogenic Black Cubes 05:23
2. Nightshade Mornings in Bloodred Satin 03:42
3. Cannabaceae III 03:41
4. Solanaceae 13:18
******************************
Total playing time: 26:04




[more=Extended info]Wasting no time in wasting the listener's last threads of sanity, WHITE NIGHTS deliver a new warped recording from the psychedelic void: the four-song/27-minute mini-album Solanaceae. From the opening track/title of "Hallucinogenic Black Cubes" onward, this mysterious entity makes it (malformed) mission clear - that you're gonna get headfucked by a darker 'n' more drugged (d)evolution of sound. The muse may be more immediately deathrock in composition, but the execution of such defies conventional definitions of such; here, WHITE NIGHTS make sadistic dance music for malcontents and deviants, and drugs are optional if not encouraged. And while the soundfield may be raw 'n' distant, wrapping around these more melodic ruminations and evoking hauntological sensations, there's actually a great deal of Technicolor tweaking going on above and below Solanaceae: a record ripe for headphone exploration. Which it so say nothing of the closing 13-minute title track....hearing is believing.

Life is grim. Find salvation within the magick mushroom cloud of WHITE NIGHTS' Solanaceae.[/more]

[more=Technical info]
Input File: White Nights - Cannabaceae III.mp3
Channels : 2
Sample Rate : 44100
Precision : 16-bit
Duration : 00:03:41.19 = 9754523 samples = 16589.3 CDDA sectors
File Size : 8.85M
Bit Rate : 320k
Sample Encoding: MPEG audio (layer I, II or III)
Comments :
Title=Cannabaceae III
Album=Solanaceae
Tracknumber=3
Year=2021
Genre=Black Metal

[/more]

Register
(13) acerbus, Borderline1991, cist, El_Chibo, ent404, infiltrator, marilin, Moonshtook, Olethros, Rosen, varlam4, vasiljev_sergej, wreak,
Feb 5 2021, 23:36:30 Erythrite Throne & Ullr - Remnants Of Old Beneath Cold Soil [split] (2021)


*Artist: Erythrite Throne & Ullr
*Album: Remnants Of Old Beneath Cold Soil [split]
*Year: 2021
*Genre: Black Metal/Dark Ambient | Black Metal
*Country: Canada | Canada
*Format: mp3@CBR320kbps
*Size: 97MB

Tracklist:
Erythrite Throne:
1. The Great Harvest 03:29
2. As They Weep at His Altar 05:36
3. Cast Into a Pit of Despair 03:46
4. Desecrating Holy Ground 03:46
5. An Age Before the Light 04:21

Ullr:
6. Old Woman of the Woods 07:46
7. A Spirit in Eternal Pain 06:36
8. As the Summer Moon Passes 06:32
******************************
Total playing time: 41:52

Metal Archives




[more=Technical info]
Input File: 1 Erythrite Throne - The Great Harvest.mp3
Channels : 2
Sample Rate : 44100
Precision : 16-bit
Duration : 00:03:29.67 = 9246491 samples = 15725.3 CDDA sectors
File Size : 8.39M
Bit Rate : 320k
Sample Encoding: MPEG audio (layer I, II or III)
Comments :
Title=The Great Harvest
Artist=Erythrite Throne/Ullr
Album=Remnants of Old Beneath Cold Soil
Tracknumber=1
Year=2021
Genre=Black Metal

[/more]

Register
(4) infiltrator, Rosen, varlam4, vasiljev_sergej,
Feb 4 2021, 23:29:53 Heimland - Fimbulvinter [ep] (2021)


*Artist: Heimland
*Album: Fimbulvinter [ep]
*Year: 2021
*Genre: Black Metal
*Country: Norway
*Format: mp3@CBR320kbps
*Size: 29MB

Tracklist:
1. Sjellaus 03:57
2. Fallen Konge 03:34
3. Fimbulvinter 05:05
******************************
Total playing time: 12:36

Metal Archives

Instagram


[more=Technical info]
Input File: Heimland - Fimbulvinter.mp3
Channels : 2
Sample Rate : 44100
Precision : 16-bit
Duration : 00:05:06.75 = 13527455 samples = 23005.9 CDDA sectors
File Size : 12.3M
Bit Rate : 320k
Sample Encoding: MPEG audio (layer I, II or III)
Comments :
Title=Fimbulvinter
Album=Fimbulvinter
Tracknumber=3
Year=2021
Genre=Black Metal

[/more]

Register
(26) Bzth, cancer1974, Cyrci, Dark_Viking, El_Chibo, Ildjarn, infiltrator, kim666, kryptor, legion01, Marek, Olethros, Ostinato, randumbum, robertho777, Rosen, SadistikSlayer, SilentNidhogg, Sjelekval, stub888, Taakeferd, VALERY, varlam4, vasiljev_sergej, Vitald, wreak,
Feb 3 2021, 23:15:12 Black Candle Wax - The Cinderlands [demo] (2021)


*Artist: Black Candle Wax
*Album: The Cinderlands [demo]
*Year: 2021
*Genre: Raw Black Metal
*Country: United States
*Format: mp3@CBR320kbps
*Size: 48MB

Tracklist:
1. Iron Sky 00:36
2. Warrior's Horse 03:12
3. Dead Grazer 04:27
4. Dust Phantom 02:02
5. Lobo 04:32
6. Mirage 02:25
7. Mud Dolmen 03:22
******************************
Total playing time: 20:36





[more=Technical info]
Input File: Black Candle Wax - 1 Iron Sky.mp3
Channels : 2
Sample Rate : 44100
Precision : 16-bit
Duration : 00:00:36.78 = 1622086 samples = 2758.65 CDDA sectors
File Size : 1.47M
Bit Rate : 320k
Sample Encoding: MPEG audio (layer I, II or III)
Comments :
Title=Iron Sky
Album=The Cinderlands
Tracknumber=1
Year=2021
Genre=Black Metal

[/more]

Register
(23) Alexis The Best, Bekkerev, Bzth, caro, ent404, Glakvalekla, heinz88, Ildjarn, INDARKNESS, infiltrator, kim666, nemx, Olethros, randumbum, Rosen, SaintVitus, SilentNidhogg, smysl, Taakeferd, Torolv, varlam4, vasiljev_sergej, wreak,
Feb 3 2021, 03:06:12 Injuria - Demo I [demo] (2020)


*Artist: Injuria
*Album: Demo I [demo]
*Year: 2020
*Genre: Raw Black Metal
*Country: Portugal
*Format: mp3@CBR320kbps
*Size: 62MB

Tracklist:
1. Pelos Escombros da Maldade 07:04
2. Negritude Cai sobre o Altar 08:56
3. As trevas do mal olhar satânico 06:45
4. Capelas Ardentes dos Confins da noite 04:09
******************************
Total playing time: 26:54


Metal Archives

[more=Extended info]Most likely unreleased material from the Portuguese Black Circle[/more]

[more=Technical info]
Input File: Injuria - Negritude Cai sobre o Altar.mp3
Channels : 2
Sample Rate : 48000
Precision : 16-bit
Duration : 00:08:56.70 = 25761408 samples ~ 40252.2 CDDA sectors
File Size : 21.5M
Bit Rate : 320k
Sample Encoding: MPEG audio (layer I, II or III)
Comments :
Title=Negritude Cai sobre o Altar
Album=Demo I
Tracknumber=2
Year=2020
Genre=Raw Black Metal

[/more]

Register
(15) Alexis The Best, andivi, Ildjarn, infiltrator, kim666, Olethros, randumbum, respect, Rosen, SilentNidhogg, Taakeferd, VALERY, varlam4, vasiljev_sergej, wreak,
Feb 1 2021, 22:33:25 Kastijder - Kastijder [demo] (2021)


*Artist: Kastijder
*Album: Kastijder [demo]
*Year: 2021
*Genre: Black Metal
*Country: Netherlands
*Format: mp3@CBR320kbps
*Size: 53MB

Tracklist:
1. Toorts in het duister 03:50
2. Nabij is het hellegezang 05:21
3. Satans spelonk 04:14
4. In den kiel gesmoord 05:26
5. Slechts vuur in de ogen 04:08
******************************
Total playing time: 22:59




[more=Technical info]
Input File: Kastijder - Toorts in het Duister.mp3
Channels : 2
Sample Rate : 48000
Precision : 16-bit
Duration : 00:03:50.26 = 11052624 samples ~ 17269.7 CDDA sectors
File Size : 9.21M
Bit Rate : 320k
Sample Encoding: MPEG audio (layer I, II or III)
Comments :
Title=Toorts in het Duister
Album=Kastijder
Tracknumber=1
Year=2021
Genre=Black Metal

[/more]

Register
(24) baptism1488, Bzth, El_Chibo, EvilPiet, Ildjarn, infiltrator, kim666, Korpse, Marek, murian, nemx, Olethros, Ostinato, randumbum, robertho777, Rosen, SilentNidhogg, Storky, Taakeferd, VALERY, varlam4, vasiljev_sergej, vovenom, wreak,
Jan 30 2021, 19:43:33 Pandiscordian Necrogenesis - Immortal Initiation [ep] (2021)


*Artist: Pandiscordian Necrogenesis
*Album: Immortal Initiation [ep]
*Year: 2021
*Genre: Raw Black Metal
*Country: United States
*Format: mp3@CBR320kbps
*Size: 45MB

Tracklist:
1. Initiation I 04:06
2. Initiation II 02:46
3. Initiation III 01:35
4. Initiation IV 04:01
5. Initiation V 06:47
******************************
Total playing time: 19:15



Metal Archives


[more=Extended info]All music composed, improvised, recorded and performed live MMX-MMXII.[/more]

[more=Technical info]
Input File: Pandiscordian Necrogenesis - Initiation III.mp3
Channels : 2
Sample Rate : 44100
Precision : 16-bit
Duration : 00:01:35.88 = 4228088 samples = 7190.63 CDDA sectors
File Size : 3.83M
Bit Rate : 320k
Sample Encoding: MPEG audio (layer I, II or III)
Comments :
Title=Initiation III
Album=Immortal Initiation
Tracknumber=3
Year=2021
Genre=Black Metal

[/more]

Register
(18) Alexis The Best, gena, infiltrator, judaz, kim666, nemx, Olethros, randumbum, robertho777, Rosen, SilentNidhogg, Storky, Taakeferd, Torolv, VALERY, varlam4, vasiljev_sergej, wreak,

8 Pages V   1 2 3 > » 
- Lo-Fi Version Support form
Copyrights and abuse reports form
Time is now: 26th February 2021 - 07:34:43