Welcome Guest ( Log In | Register )

История благодарностей участнику Cramloth ::: Спасибо сказали: 1014 раз(а)
Дата поста: В теме: За сообщение: Спасибо сказали:
Yesterday, 19:41:48 Drowning The Light - On Astral Wings Of Wamphyric Shadows (2020)


*Artist: Drowning The Light
*Album: On Astral Wings Of Wamphyric Shadows
*Year: 2020
*Genre: Depressive Black Metal
*Country: Australia
*Format: mp3@CBR320kbps
*Size: 79MB

Tracklist:
1. Crypt of Nocturnal Spectres 02:21
2. Within the Womb of a Dragon (Spiritual Predator Awakens) 05:06
3. Ouroboros Portals of Set-Apep (Ancient Gateways Open) 05:09
4. The Fading of the Need-Fires 05:17
5. Drink the Clairvoyants Blood 04:42
6. On Astral Wings of Wamphyric Shadows 05:17
7. Melancholic Tides of Time (Black Magick of Wamphyri) 06:15
******************************
Total playing time: 34:07



Metal Archives

[more=Extended info]Lyrics for "The Fading of the Need-Fires" by Akhtya Nachttoter.[/more]

[more=Technical info]
Input File: Drowning the Light - 7 - Melancholic Tides of Time (Black Magick of Wamphyri).mp3
Channels : 2
Sample Rate : 44100
Precision : 16-bit
Duration : 00:06:15.22 = 16547114 samples = 28141.4 CDDA sectors
File Size : 15.0M
Bit Rate : 320k
Sample Encoding: MPEG audio (layer I, II or III)
Comments :
Title=Melancholic Tides Of Time (Black Magick Of Wamphyri)
Album=On Astral Wings of Wamphyric Shadows
Tracknumber=7
Year=2020
Genre=Raw Black Metal

[/more]

Register
(25) 1968_janeart, acerbus, Bzth, ChaosArcana, durandal, Evgen79, gena, infiltrator, kim666, Korpse, Moonshtook, Morgoth, Olethros, Ostinato, Pinhead666, stub888, supremo, the_cleanser, The_Hound, VALERY, varlam4, vasiljev_sergej, Vidder242, vosmidesijatye, Vraithee,
Nov 26 2020, 20:48:40 Ius Talionis - Theomorphose [ep] (2020)


*Artist: Ius Talionis
*Album: Theomorphose [ep]
*Year: 2020
*Genre: Black Metal
*Country: Germany
*Format: mp3@CBR320kbps
*Size: 30MB

Tracklist:
1. Divide et frange 06:13
2. Per ignem ad lucem 06:32
******************************
Total playing time: 12:45



Metal Archives

[more=Technical info]
Input File: Ius Talionis - Per Ignem Ad Lucem.mp3
Channels : 2
Sample Rate : 48000
Precision : 16-bit
Duration : 00:06:41.72 = 19282560 samples ~ 30129 CDDA sectors
File Size : 16.1M
Bit Rate : 320k
Sample Encoding: MPEG audio (layer I, II or III)
Comments :
Title=Per ignem ad lucem
Album=Theomorphose
Tracknumber=2
Year=2020
Genre=Black Metal

[/more]

Register
(13) 1968_janeart, El_Chibo, infiltrator, kim666, Marek, Occultas, Olethros, Ostinato, robertho777, stub888, VALERY, varlam4, vasiljev_sergej,
Nov 25 2020, 22:35:34 Venymysgourvleydh - Crossed Paths Of The True Self Reborn [demo] (2020)


*Artist: Venymysgourvleydh
*Album: Crossed Paths Of The True Self Reborn [demo]
*Year: 2020
*Genre: Black Metal/Dark Ambient
*Country: United Kingdom
*Format: mp3@CBR320kbps
*Size: 138MB

Tracklist:
1. ...Of the Psilocybin Blood Mine 30:31
2. Heathenish Starfire Meditation 29:46
******************************
Total playing time: 1:00:17




[more=Extended info]No information on this project until the time is right. First demo...
Self beheaded to reveal the hidden faces. For not only do they stand upon the shoulders of the mystic but also manifest within the darkest reaches of the pathless fauna and shine on the moonlit stone. From the deepest pit to the furthest star, from the peaks of rock to the depths of the watery abyss. Three paths become one.[/more]

[more=Technical info]
Input File: Venymysgourvleydh - .Of the Psilocybin Blood Mine.mp3
Channels : 2
Sample Rate : 44100
Precision : 16-bit
Duration : 00:30:31.89 = 80786217 samples = 137392 CDDA sectors
File Size : 73.3M
Bit Rate : 320k
Sample Encoding: MPEG audio (layer I, II or III)
Comments :
Title=...Of the Psilocybin Blood Mine
Album=Crossed Paths of the True Self Reborn
Tracknumber=1
Year=2020
Genre=Raw Black Metal

[/more]

Register
(8) 1968_janeart, infiltrator, kim666, Olethros, robertho777, stub888, varlam4, vasiljev_sergej,
Nov 25 2020, 22:18:29 Wandelaars - De Archieven. 2014-2017 [compilation] (2020)


*Artist: Wandelaars
*Album: De Archieven. 2014-2017 [compilation]
*Year: 2020
*Genre: Atmospheric/Raw Black Metal
*Country: Netherlands
*Format: mp3@CBR320kbps
*Size: 223MB

Tracklist:
Side A - Sneeuwwind
1. Sneeuwwind I 05:16
2. Sneeuwwind II 05:18
3. Sneeuwwind III 07:02
4. Sneeuwwind IV 05:45
5. Sneeuwwind V 11:33
6. Het Gloren van de Dooi 06:24
7. Untitled 03:20
8. Untitled 04:17
Side B - Wedergeboorte vond zijn plaats opnieuw / Wat nooit geweest is
9. Callisto en Arlas 10:34
10. Deel I 01:11
11. Deel II 03:04
12. Deel III 04:03
13. Deel IV 03:33
14. Uitzicht 01:48
15. Diep geworteld 05:58
16. Mistige bossen 07:40
17. Wat nooit geweest is 03:08
18. Verlaten vlaktes 04:36
19. Vergaan 02:42
******************************
Total playing time: 1:37:12



Metal Archives

[more=Extended info]Hand-numbered copies.

This reissue includes the Het gloren van de dooi EP from 2017.

Recording information:

Sneeuwwind songs (tracks 1-5) were recorded in October 2014.

The Het gloren van de dooi songs (tracks 6-9) were recorded on several occasions between 2014 and 2015.

Wedergeboorte vond zijn plaats opnieuw songs (tracks 10-13) were recorded in December 2014.

Wat nooit geweest is songs (tracks 14-19) were recorded on several occasions.

Guitars were recorded in spring 2015.
Drums were recorded in the summer of 2015.
"Vergaan" was recorded in November 2016.
Vocals were recorded in May 2017.[/more]

[more=Technical info]
Input File: Wandelaars - 18 Verlaten vlaktes.mp3
Channels : 2
Sample Rate : 44100
Precision : 16-bit
Duration : 00:04:36.37 = 12187697 samples = 20727.4 CDDA sectors
File Size : 11.1M
Bit Rate : 320k
Sample Encoding: MPEG audio (layer I, II or III)
Comments :
Album=De archieven. 2014-2017
Year=2020
Genre=Atmospheric Raw Black Metal

[/more]

Register
(10) 1968_janeart, aleon, infiltrator, kim666, MortSathynr, Olethros, stub888, VALERY, varlam4, vasiljev_sergej,
Nov 25 2020, 00:45:16 Hellgoat - Goatfather [ep] (2020)


*Artist: Hellgoat
*Album: Goatfather [ep]
*Year: 2020
*Genre: Raw Black Metal
*Country: Sweden
*Format: mp3@CBR320kbps
*Size: 54MB

Tracklist:
1. GoatFather 03:14
2. Invoking Dark Spells of Annihilation 03:49
3. Praise The Dark Lord 03:44
4. Fuck Jesus Christ 04:08
5. The World Devoured By Flames 04:02
6. Eternal Flames of Hate 04:24
******************************
Total playing time: 23:21


Metal Archives


[more=Technical info]
Input File: HellGoat - 6 - Eternal Flames of Hate.mp3
Channels : 2
Sample Rate : 44100
Precision : 16-bit
Duration : 00:04:25.05 = 11688837 samples = 19879 CDDA sectors
File Size : 10.6M
Bit Rate : 320k
Sample Encoding: MPEG audio (layer I, II or III)
Comments :
Title=Eternal Flames of Hate
Album=Goatfather
Tracknumber=6
Year=2020
Genre=Raw Black Metal

[/more]

Register
(21) 1968_janeart, Bzth, heinz88, hellbibber, infiltrator, Kaotik, kim666, M0ns1gn0r, Olethros, Pinhead666, Rosen, sacrut, Sjelekval, stub888, thenecromancer, uk82grind, VALERY, varlam4, vasiljev_sergej, Vidder242, wgs73,
Nov 24 2020, 02:11:08 Auro - Auro (2020)


*Artist: Auro
*Album: Auro
*Year: 2020
*Genre: Black Metal
*Country: Germany
*Format: mp3@CBR320kbps
*Size: 115MB

Tracklist:
1. Dämmerung: Einlass des Äußersten 01:11
2. Im Nebelland 05:49
3. Ouroboros - Schuppengott 05:29
4. Brodelnde Wasser - Rufe und Zeichen 06:09
5. Rammbock - Durchbruch zur Entmenschlichung 05:22
6. Vision - Das allsehende Auge 05:38
7. Von Flammentod und Wiederkehr 04:31
8. Aura 06:13
9. Zwischen den Welten 05:29
10. Unnahbar... 04:10
******************************
Total playing time: 50:01




[more=Technical info]
Input File: Auro - Unnahbar.mp3
Channels : 2
Sample Rate : 48000
Precision : 16-bit
Duration : 00:04:11.07 = 12051408 samples ~ 18830.3 CDDA sectors
File Size : 10.0M
Bit Rate : 320k
Sample Encoding: MPEG audio (layer I, II or III)
Comments :
Title=Unnahbar...
Album=Auro
Tracknumber=10
Year=2020
Genre=Black Metal

[/more]

Register
(25) 1968_janeart, aleon, alikkon, atavist, craP_cillA, Cyrci, EvilPiet, infiltrator, kim666, Korpse, Kuratsu, M0ns1gn0r, Marek, Mencae77, Morgoth, Olethros, rimfrost, robertho777, Rosen, squall8fr, stub888, Taragorm, VALERY, varlam4, vasiljev_sergej,
Nov 24 2020, 01:48:12 Concatenatus - Vex [ep] (2020)


*Artist: Concatenatus
*Album: Vex [ep]
*Year: 2020
*Genre: Black Metal/Doom Metal
*Country: Chile
*Format: mp3@CBR320kbps
*Size: 28MB

Tracklist:
1. I 06:22
2. II 05:59
******************************
Total playing time: 12:21





[more=Technical info]
Input File: Concatenatus - I.mp3
Channels : 2
Sample Rate : 48000
Precision : 16-bit
Duration : 00:06:22.16 = 18343632 samples ~ 28661.9 CDDA sectors
File Size : 15.3M
Bit Rate : 320k
Sample Encoding: MPEG audio (layer I, II or III)
Comments :
Title=I
Album=Vex
Tracknumber=1
Year=2020

[/more]

Register
(10) 1968_janeart, infiltrator, korovakaska, Olethros, robertho777, Rosen, sergsazan, VALERY, varlam4, vasiljev_sergej,
Nov 22 2020, 23:30:23 Torva Caedis - Torva Cædis [demo] (2017)
Register
(2) MortSathynr, varlam4,
Nov 21 2020, 00:57:40 Svartalfar - Von Niedergang Und Neubeginn [ep] (2020)


*Artist: Svartalfar
*Album: Von Niedergang Und Neubeginn [ep]
*Year: 2020
*Genre: Black Metal
*Country: Austria
*Format: mp3@CBR320kbps
*Size: 54MB

Tracklist:
1. In Schatten Gtränkt 01:27
2. Flammenhauch 04:15
3. Durch Trümmer toter Träume 04:50
4. Schwingen der Finsternis 05:23
5. Aus Asche Gwoben 07:32
******************************
Total playing time: 23:27




[more=Technical info]
Input File: 05 Svartalfar - Aus Asche Gwoben.mp3
Channels : 2
Sample Rate : 48000
Precision : 16-bit
Duration : 00:07:32.26 = 21708720 samples ~ 33919.9 CDDA sectors
File Size : 18.1M
Bit Rate : 320k
Sample Encoding: MPEG audio (layer I, II or III)
Comments :
Title=Aus Asche Gwoben
Album=Von Niedergang und Neubeginn
Tracknumber=5
Year=2020
Genre=Black Metal

[/more]

Register
(24) 1968_janeart, aleon, Bzth, craP_cillA, El_Chibo, garmonbozia, infiltrator, kim666, Marek, MortSathynr, multizwilling, nirvana666, Olethros, robertho777, Rosen, SaintVitus, SilentNidhogg, Surt, thenecromancer, VALERY, Vargskog, varlam4, vasiljev_sergej, Wail,
Nov 19 2020, 02:37:33 Ärid - I [demo] (2015)
QUOTE(Alexis The Best @ Dec 19 2018, 20:38:37) *
reup please


vbr320

Register

(2) Alexis The Best, Wail,
Nov 18 2020, 06:17:57 Oppressive Descent - Nocte Venari [ep] (2020)


*Artist: Oppressive Descent
*Album: Nocte Venari [ep]
*Year: 2020
*Genre: Black Metal
*Country: United States
*Format: mp3@CBR320kbps
*Size: 63MB

Tracklist:
1. Shadowed Recesses Unkown 07:55
2. Nocte Venari 05:03
3. Returning to the Purity of Nothingness 03:03
4. Alone I Bled on the Forest Floor 05:40
5. Corridors of Symmetrical Darkness 05:22
******************************
Total playing time: 27:03


Metal Archives


[more=Technical info]
Input File: Oppressive Descent - 1 - Shadowed Recesses Unknown.mp3
Channels : 2
Sample Rate : 44100
Precision : 16-bit
Duration : 00:07:55.53 = 20971049 samples = 35665 CDDA sectors
File Size : 19.0M
Bit Rate : 320k
Sample Encoding: MPEG audio (layer I, II or III)
Comments :
Title=Oppressive Descent
Album=Nocte Venari
Year=2020
Genre=Black Metal

[/more]

Register
(16) 1968_janeart, grimoir, Ildjarn, infiltrator, kim666, Olethros, Ostinato, robertho777, Rosen, SilentNidhogg, squall8fr, stub888, VALERY, varlam4, vasiljev_sergej, Wail,
Nov 12 2020, 21:07:31 Mergelland - Verloren In De Groeve [ep] (2020)


*Artist: Mergelland
*Album: Verloren In De Groeve [ep]
*Year: 2020
*Genre: Black Metal
*Country: Netherlands
*Format: mp3@CBR320kbps
*Size: 50MB

Tracklist:
1. In Steen Begraven (intro) 03:21
2. Duister 04:39
3. Als Bloed Zich Met Drek Vermengd 04:07
4. Het Quaet Gespuys 05:00
5. Rijders Door De Nacht 04:18
******************************
Total playing time: 21:25



Metal Archives

[more=Technical info]
Input File: Mergelland - 4 - Het Quaet Gespuys.mp3
Channels : 2
Sample Rate : 48000
Precision : 16-bit
Duration : 00:05:00.13 = 14406144 samples ~ 22509.6 CDDA sectors
File Size : 12.0M
Bit Rate : 320k
Sample Encoding: MPEG audio (layer I, II or III)
Comments :
Artist=Mergelland
Album=Verloren in de groeve
Year=2020

[/more]

Register
(11) 1968_janeart, craP_cillA, infiltrator, kim666, Marek, murian, Olethros, Rosen, thenecromancer, varlam4, vasiljev_sergej,
Nov 12 2020, 20:32:57 Viha Surma & Luciferian Rites - Astral Projection [split] (2020)


*Artist: Viha Surma & Luciferian Rites
*Album: Astral Projection [split]
*Year: 2020
*Genre: Black Metal | Black Metal
*Country: Mexico | Mexico
*Format: mp3@CBR320kbps
*Size: 97MB

Tracklist:
Side A
1. Viha Surma - Hermetic Path (intro) 01:41
2. Viha Surma - Ectoplasmic Dust 07:45
3. Viha Surma - Trascendence to Apsis 05:25
4. Viha Surma - The Chant of the Hexer 11:28
Side B
5. Luciferian Rites - Intro 02:38
6. Luciferian Rites - Twilight of the Dead Stars 04:36
7. Luciferian Rites - Baptized by Death 05:19
8. Luciferian Rites - Bitter Wake of Destruction 03:20
******************************
Total playing time: 42:12

Metal Archives


[more=Technical info]
Input File: 2 Viha Surma - Ectoplasmic Dust.mp3
Channels : 2
Sample Rate : 44100
Precision : 16-bit
Duration : 00:07:45.17 = 20513953 samples = 34887.7 CDDA sectors
File Size : 18.6M
Bit Rate : 320k
Sample Encoding: MPEG audio (layer I, II or III)
Comments :
Artist=Viha Surma/Luciferian Rites
Album=Astral Projection
Year=2020

[/more]

Register
(3) Alexis The Best, kim666, Lanceatum,
Nov 10 2020, 23:43:31 Desert Eagle - The Festering Wound [demo] (2020)


*Artist: Desert Eagle
*Album: The Festering Wound [demo]
*Year: 2020
*Genre: Black Metal
*Country: United States
*Format: mp3@CBR320kbps
*Size: 44MB

Tracklist:
1. I 06:33
2. II 02:07
3. III 05:03
4. IV 05:19
******************************
Total playing time: 19:02


Metal Archives

[more=Technical info]
Input File: Desert Eagle - I .mp3
Channels : 2
Sample Rate : 48000
Precision : 16-bit
Duration : 00:06:33.13 = 18870144 samples ~ 29484.6 CDDA sectors
File Size : 15.7M
Bit Rate : 320k
Sample Encoding: MPEG audio (layer I, II or III)
Comments :
Title=Desert Eagle
Album=The Festering Wound
Year=2020

[/more]

Register
(14) 1968_janeart, Ildjarn, infiltrator, kim666, Olethros, Ostinato, rammmirez, robertho777, Rosen, SilentNidhogg, VALERY, varlam4, vasiljev_sergej, Wail,
Nov 10 2020, 23:07:11 Wampyric Rites & Funeral Fullmoon - Spectral Shadows Of The Forgotten Castle [split] (2020)


*Artist: Wampyric Rites & Funeral Fullmoon
*Album: Spectral Shadows Of The Forgotten Castle [split]
*Year: 2020
*Genre: Raw Black Metal | Black Metal
*Country: Ecuador | Chile
*Format: mp3@CBR320kbps
*Size: 64MB

Tracklist:
Side A - Sprectral Shadows
1. Wampyric Rites - I 05:56
2. Wampyric Rites - II 03:32
3. Wampyric Rites - III 04:00
Side B - Forgotten Castle
4. Funeral Fullmoon - A Lonely Wars 05:40
5. Funeral Fullmoon - Death Winds 05:40
6. Funeral Fullmoon - Lost Under the Moon Brightness 03:00
******************************
Total playing time: 27:48

Metal Archives



[more=Technical info]
Input File: 1 - Wampyric Rites - I.mp3
Channels : 2
Sample Rate : 44100
Precision : 16-bit
Duration : 00:05:56.16 = 15706568 samples = 26711.9 CDDA sectors
File Size : 14.2M
Bit Rate : 320k
Sample Encoding: MPEG audio (layer I, II or III)
Comments :
Title=Wampyric Rites
Album=Spectral Shadows of the Forgotten Castle
Year=2020

[/more]

Register
(14) craP_cillA, grimoir, heinz88, INDARKNESS, infiltrator, kim666, Lanceatum, metaljosue, nemx, Reverend, Rosen, Tarkron, varlam4, vasiljev_sergej,
Nov 7 2020, 00:01:23 Forbidden Tomb - Templum Impiorum (2020)


*Artist: Forbidden Tomb
*Album: Templum Impiorum
*Year: 2020
*Genre: Raw Black Metal
*Country: Indonesia
*Format: mp3@CBR320kbps
*Size: 75MB

Tracklist:
1. Prelude 01:33
2. Sculpture of the Unseen 04:34
3. Burying the Night 05:12
4. Skulled Memoire 04:43
5. The Awakening 02:01
6. Flame of Purity 04:34
7. Impiorum Nocte 07:21
8. Lumina Morte 02:23
******************************
Total playing time: 32:21

Metal Archives



[more=Technical info]
Input File: Forbidden Tomb - 1 - Prelude.mp3
Channels : 2
Sample Rate : 44100
Precision : 16-bit
Duration : 00:01:33.15 = 4108091 samples = 6986.55 CDDA sectors
File Size : 3.73M
Bit Rate : 320k
Sample Encoding: MPEG audio (layer I, II or III)

[/more]

Register
(9) AlexSmith, infiltrator, kim666, metala, Olethros, Rosen, varlam4, vasiljev_sergej, Wail,
Nov 6 2020, 23:44:23 Gelkhammar - The Sword Of Gelfiser (2020)


*Artist: Gelkhammar
*Album: The Sword Of Gelfiser
*Year: 2020
*Genre: Raw Black Metal
*Country: Germany
*Format: mp3@CBR320kbps
*Size: 70MB

Tracklist:
1. Intro 01:05
2. Daughter of the Wind 06:08
3. Marsa 05:43
4. Gibbiuna's Graves 04:58
5. Sibà 05:38
6. The Sword of Gelfiser 06:11
******************************
Total playing time: 29:43


Metal Archives


[more=Technical info]
Input File: Gelkhammar - 1 - Intro.mp3
Channels : 2
Sample Rate : 44100
Precision : 16-bit
Duration : 00:01:05.23 = 2876555 samples = 4892.1 CDDA sectors
File Size : 2.61M
Bit Rate : 320k
Sample Encoding: MPEG audio (layer I, II or III)

[/more]

Register
(19) 1968_janeart, AlexSmith, Ildjarn, infiltrator, kim666, Korpse, Lamby90, legion01, metala, Olethros, randumbum, Rosen, SilentNidhogg, stub888, supremo, VALERY, varlam4, vasiljev_sergej, Wail,
Nov 5 2020, 20:21:56 Esoctrilihum - F'htansg [ep] (2020)


*Artist: Esoctrilihum
*Album: F'htansg [ep]
*Year: 2020
*Genre: Black Metal
*Country: France
*Format: mp3@CBR320kbps
*Size: 47MB

Tracklist:
1. F'htansg 07:04
2. Sustutgrielh L'ayhs 06:38
3. Lugalugkuh 06:47
******************************
Total playing time: 20:29

Metal Archives


[more=Technical info]
Input File: Esoctrilihum - 02 - Sustutgrielh L\'ayhs.mp3
Channels : 2
Sample Rate : 44100
Precision : 16-bit
Duration : 00:06:38.66 = 17580950 samples = 29899.6 CDDA sectors
File Size : 15.9M
Bit Rate : 320k
Sample Encoding: MPEG audio (layer I, II or III)

[/more]

Register
(31) 1968_janeart, Daale, garml2, grimoir, Gylve, Hell_Is_Here, infiltrator, kim666, Marek, metaljosue, nadin85, nemx, nsk2008, nsmetalhead, Occultas, Olethros, randumbum, robertho777, Rosen, sethurius, SilentNidhogg, smes, stub888, Tino, Tyrone, VALERY, varlam4, vasiljev_sergej, Wail, yuratroll, Авел,
Nov 3 2020, 00:43:38 Sidekut Slave - Скорбный Казус [demo] (2020)


*Artist: Sidekut Slave
*Album: Скорбный Казус [demo]
*Year: 2020
*Genre: Raw Black Metal/Punk
*Country: Russian Federation
*Format: mp3@CBR320kbps
*Size: 51MB

Tracklist:
1. Мутная поездка с неясной целью 02:14
2. Мёрзнуть и греться 01:14
3. На острие ноября 03:34
4. Батульба 03:55
5. Гадость 02:58
6. Водный бизнес 00:44
7. Ничтожество 02:37
8. Лунтик 02:01
9. Скорбный казус 02:57
******************************
Total playing time: 22:14


Metal Archives



[more=Technical info]
Input File: Sidekut Slave - 01 - Мутная Поездка с Неясной Целью.mp3
Channels : 2
Sample Rate : 44100
Precision : 16-bit
Duration : 00:02:14.45 = 5929421 samples = 10084 CDDA sectors
File Size : 5.38M
Bit Rate : 320k
Sample Encoding: MPEG audio (layer I, II or III)

[/more]

Register
(12) 1968_janeart, Fryz, Hell_Is_Here, infiltrator, Olethros, Rosen, SilentNidhogg, VALERY, varlam4, vasiljev_sergej, Wail, wreak,
Nov 2 2020, 23:21:18 Feldvehn - The Oak (2020)


*Artist: Feldvehn
*Album: The Oak
*Year: 2020
*Genre: Black Metal
*Country: Italy
*Format: mp3@CBR320kbps
*Size: 68MB

Tracklist:
1. Only Ashes (Intro) 01:47
2. Sky Ablaze 05:51
3. Lights on the Mountain 03:47
4. Ancient Blood 05:13
5. Sun Spear 04:31
6. Archaic Transformation 04:23
7. Mist of Winter Dreams 03:55
******************************
Total playing time: 29:27


Metal Archives


[more=Technical info]
Input File: Feldvehn - 02 - Sky Ablaze.mp3
Channels : 2
Sample Rate : 48000
Precision : 16-bit
Duration : 00:05:52.03 = 16897536 samples ~ 26402.4 CDDA sectors
File Size : 14.1M
Bit Rate : 320k
Sample Encoding: MPEG audio (layer I, II or III)

[/more]

Register
(14) El_Chibo, infiltrator, kim666, Marek, Olethros, Ostinato, robertho777, Rosen, SilentNidhogg, VALERY, varlam4, vasiljev_sergej, Wail, wreak,
Nov 2 2020, 23:03:04 Slagmark - Radical Malice [demo] (2020)


*Artist: Slagmark
*Album: Radical Malice [demo]
*Year: 2020
*Genre: Black Metal
*Country: Germany
*Format: mp3@CBR320kbps
*Size: 45MB

Tracklist:
1. Behold the Raging Darkness 05:06
2. Radical Malice 04:32
3. Loathing Spreads 05:29
4. Hate Redemption 04:31
******************************
Total playing time: 19:38

Metal Archives




[more=Extended info]Radical Malice Demo
4-Panel Digipak[/more]

[more=Technical info]
Input File: Slagmark - 01 - Behold the Raging Darkness.mp3
Channels : 2
Sample Rate : 48000
Precision : 16-bit
Duration : 00:05:06.02 = 14689152 samples ~ 22951.8 CDDA sectors
File Size : 12.2M
Bit Rate : 320k
Sample Encoding: MPEG audio (layer I, II or III)

[/more]

Register
(20) Ildjarn, IncendiaryMight, infiltrator, kim666, Lucju, Marek, noxspiritus, Olethros, rickzammuto, rimfrost, robertho777, Rosen, RUSP73, SilentNidhogg, Storky, VALERY, varlam4, vasiljev_sergej, Wail, wreak,
Nov 2 2020, 02:15:25 Withered Planet - Communication Transference #1 [demo] (2020)


*Artist: Withered Planet
*Album: Communication Transference #1 [demo]
*Year: 2020
*Genre: Raw Black Metal/Noise/Dark Ambient
*Country: Unknown
*Format: mp3@CBR320kbps
*Size: 59MB

Tracklist:
1. Vibrational Frequencies #1 10:18
2. Vibrational Frequencies #2 15:27
******************************
Total playing time: 25:45




[more=Extended info]Is there still life on this Withered Planet?
First Frequencies contain black metal UFO noise worship.
Second Frequencies contain free form UFO noise, followed by a dark ambient piece at the end.

Inspired by Ahulabrum and Klaus Schulze

LR-013[/more]

[more=Technical info]
Input File: Withered Planet - Vibrational Frequencies #1.mp3
Channels : 2
Sample Rate : 44100
Precision : 16-bit
Duration : 00:10:17.54 = 27233602 samples = 46315.6 CDDA sectors
File Size : 24.7M
Bit Rate : 320k
Sample Encoding: MPEG audio (layer I, II or III)

[/more]

Register
(11) 1968_janeart, Alexis The Best, heinz88, infiltrator, kim666, Olethros, Rosen, thenecromancer, varlam4, vasiljev_sergej, wreak,
Nov 1 2020, 22:03:47 Haatkou - Storm [demo] (2019)


*Artist: Haatkou
*Album: Storm [demo]
*Year: 2019
*Genre: Raw Black Metal
*Country: Portugal
*Format: mp3@CBR320kbps
*Size: 63MB

Tracklist:
1. Oude wegen 02:50
2. De wederopstanding uit het as van verval 04:16
3. Winterfrost 05:20
4. Storm 07:13
5. Hearts of Fire (Forest cover) 08:01
******************************
Total playing time: 27:40

Metal Archives


[more=Extended info]Translation
1st track: Old Paths
2nd track: The Resurrection from the ashes of decay.

Cover is from the "Обрекая надежду на вечность" Album[/more]

[more=Technical info]
Input File: 04 Haatkou - Storm.mp3
Channels : 2
Sample Rate : 44100
Precision : 16-bit
Duration : 00:07:13.55 = 19119643 samples = 32516.4 CDDA sectors
File Size : 17.3M
Bit Rate : 320k
Sample Encoding: MPEG audio (layer I, II or III)

[/more]

Register
(9) heinz88, infiltrator, kim666, Olethros, Rosen, satanist666, varlam4, vasiljev_sergej, Wail,
Nov 1 2020, 19:09:29 Konfession - Spells From The Hanged Demo [demo] (2020)


*Artist: Konfession
*Album: Spells From The Hanged Demo [demo]
*Year: 2020
*Genre: Black Metal
*Country: Austria
*Format: mp3@CBR320kbps
*Size: 50MB

Tracklist:
1. Intro 01:52
2. Enter the Pyre 07:08
3. Capiat, qui capere potest 05:52
4. Nine Steps to Eternity 04:46
5. Outro 01:54
******************************
Total playing time: 21:32


Metal Archives


[more=Technical info]
Input File: 01 Konfession - Intro.mp3
Channels : 2
Sample Rate : 48000
Precision : 16-bit
Duration : 00:01:52.03 = 5377536 samples ~ 8402.4 CDDA sectors
File Size : 4.48M
Bit Rate : 320k
Sample Encoding: MPEG audio (layer I, II or III)

[/more]

Register
(15) Alexis The Best, Ildjarn, infiltrator, kim666, Olethros, robertho777, Rosen, RunningWild_AT, satanist666, stub888, VALERY, varlam4, vasiljev_sergej, Wail, wreak,
Nov 1 2020, 00:07:39 Moujahidine - L-Demm U-‘Erd [demo] (2019)


*Artist: Moujahidine
*Album: L-Demm U-‘Erd [demo]
*Year: 2019
*Genre: Raw Black Metal
*Country: Netherlands
*Format: mp3@CBR320kbps
*Size: 73MB

Tracklist:
Side A - Rzuliya
1. Goum 03:00
2. Janbiya 03:51
3. Nimcha 05:40
4. Marocchinate 02:05
5. L-helq d-rzuliya (Outro) 01:34
Side B - Ɛazima
6. Mechta-Afalou 04:12
7. Thaheer 04:51
8. Hlek 04:11
9. L-helq d-Ɛazima (Outro) 02:22
******************************
Total playing time: 31:46

Metal Archives


[more=Extended info]"L-demm u-'erd was recorded during September 2017"[/more]

[more=Technical info]
Input File: 01 Moujahidine - Goum.mp3
Channels : 2
Sample Rate : 44100
Precision : 16-bit
Duration : 00:03:00.20 = 7946908 samples = 13515.1 CDDA sectors
File Size : 7.21M
Bit Rate : 320k
Sample Encoding: MPEG audio (layer I, II or III)

[/more]

Register
(9) infiltrator, kim666, Kodel, Olethros, Rosen, satanist666, varlam4, vasiljev_sergej, Wail,

4 Pages V   1 2 3 > » 
- Lo-Fi Version Support form
Copyrights and abuse reports form
Time is now: 28th November 2020 - 14:41:24