Welcome Guest ( Log In | Register )

История благодарностей участнику BlackTroll ::: Спасибо сказали: 2372 раз(а)
Дата поста: В теме: За сообщение: Спасибо сказали:
Feb 18 2020, 16:16:44 Dark Spark - Noční Jezdec (2017)
ЦИТАТА(AHBAnep @ Feb 18 2020, 12:34:34) *
Назгул?

Не, ночной ездец.
(2) Battaleon, infiltrator,
Jan 8 2020, 23:10:16 Angelwarrior Ace - Noble Precious Metal (2017)
ЦИТАТА(varlam4 @ Jan 8 2020, 20:59:05) *
Перезалейте плз
Register
(1) varlam4,
Nov 15 2019, 23:29:09 Abigail Williams - Walk Beyond The Dark (2019)
(3) Fess, Legacy100, Sanctus,
Oct 26 2019, 13:21:19 Swans - Leaving Meaning (2019)
Register
(5) ENDSMOUTH, garmonbozia, infiltrator, Krosis, vosmidesijatye,
Jul 21 2019, 17:00:50 Dimlight - A Symphony Of Horrors (2019)
Register
(2) avkruchinin, Emhyr var Emreis,
Jul 21 2019, 04:59:30 Sartanah - R.I.P. [ep] (2013)


*Artist: Sartanah
*Album: R.I.P. [ep]
*Year: 2013
*Genre: Psychedelic/Surf Rock/Instrumental
*Country: Italy
*Format: mp3@CBR320kbps
*Size: 75MB

Tracklist:
01. Santannera (the Undertaker) 05:30
02. Psychedelic Surf 05:02
03. R.I.P. 05:56
04. Vento alla Polvere 05:13
05. Nocturama 03:41
06. Mezzanotte di Fuoco 06:08
******************************
Total playing time: 31:30



[more=Extended info]Проект Agghiastru из Inchiuvatu, чей альбом Addisiu меня как зацепил в конце 90х, так до сих пор не отпускает.[/more]

[more=Technical info]
Input File: 01 - Santannèra (the Undertaker).mp3
Channels : 2
Sample Rate : 44100
Precision : 16-bit
Duration : 00:05:30.91 = 14593307 samples = 24818.5 CDDA sectors
File Size : 13.4M
Bit Rate : 323k
Sample Encoding: MPEG audio (layer I, II or III)
Comments :
Title=Santannèra (the Undertaker)
Artist=Sartanah
Album=R.I.P. EP
Tracknumber=1
Year=2013
Genre=Psychedelic Rock

[/more]

Register
(3) artscald, infiltrator, Olethros,
Jul 20 2019, 22:28:19 Ihlo - Union (2019)


*Artist: Ihlo
*Album: Union
*Year: 2019
*Genre: Progressive Metal/Rock
*Country: United Kingdom
*Format: mp3@CBR320kbps
*Size: 127MB

Tracklist:
01. Union 06:07
02. Reanimate 05:31
03. Starseeker 07:33
04. Hollow 06:58
05. Triumph 04:54
06. Parhelion 07:26
07. Coalescence 15:14
******************************
Total playing time: 53:43



[more=Extended info]За наводку спасибо Yarri. Музыка и впрямь сильно напоминает Haken, разве что чуть больше электроники.

Альбом был найден на просторах интернета, однако трек 06. Parhelion имеет явные признаки апконверта из 160kbps. После долгих поисков нормального качества я сдался и купил этот трек на официальном BandCamp, но там оказалось то же самое :([/more]

[more=Technical info]
Input File: 01 - Union.mp3
Channels : 2
Sample Rate : 44100
Precision : 16-bit
Duration : 00:06:07.59 = 16210807 samples = 27569.4 CDDA sectors
File Size : 14.7M
Bit Rate : 321k
Sample Encoding: MPEG audio (layer I, II or III)
Comments :
Title=Union
Artist=Ihlo
Album=Union
Tracknumber=1
Year=2019
Genre=Progressive Metal
Discnumber=1

[/more]

Register
(17) ahp, andgrek28, artscald, ddx1, dimitriusk, LEGION69, metala, Ogidni, Old Vyaine, Olethros, Phlebotomized, Rosen, Rover, SatanicPanzer, wreak, Yarri, скептик,
Jul 6 2019, 18:39:44 Molasses - Mourning Haze/Drops Of Sunlight [ep] (2019)
Если что, это проект Фариды Лемучи (вокал) и других музыкантов из The Devil's Blood.
(4) Diflock, Ghostb, wolverine, Абигор,
Mar 20 2019, 18:57:41 Oblivion's Eye - Radiance (2010)

Free Download
(1) AHBAnep,
Mar 9 2019, 19:15:15 Harold Budd & Hector Zazou - Glyph (1995)
[youtube]5SjdlXjxloQ[/youtube]

Я так понимаю, инструментал?
(1) vosmidesijatye,
Mar 1 2019, 17:51:53 Inter Omega - Inter Omega (2019)
Модерн+Джент
NYP
(3) AHBAnep, Ogidni, Shadowman,
Feb 4 2019, 01:00:15 Traun - Deleted Scenes (2017)


*Artist: Traun
*Album: Deleted Scenes
*Year: 2017
*Genre: Experimental/Avant Prog Metal
*Country: United States
*Format: mp3@CBR320kbps
*Size: 80MB

Tracklist:
01. The Sunrise Heist 03:25
02. Lost Ar'Pege 02:05
03. Malcytol of Planet Zombie (2nd Draft) 02:54
04. Transient Stream (2nd Draft) 01:39
05. The Clearing House (2nd Draft) 01:31
06. The Men's Group 02:01
07. The Club Zed Investigation (2nd Draft) 04:48
08. Marsh Madness (2nd Draft) 01:41
09. Shuttle Amurensis 00:56
10. OWP3 (2nd Draft) 02:14
11. Starflight Cafe (2nd Draft) 01:38
12. Ariliaun Found (1st Draft) 00:54
13. Electro-Navigator (1st Draft) 01:18
14. Might Be Trouble (1st Draft) 00:31
15. A Flat Celebration (1st Draft) 01:25
16. Ghari's Outpost (1st Draft) 00:51
17. The Helm at the Bath (1st Draft) 00:47
18. The First Elevator (1st Draft) 00:52
******************************
Total playing time: 31:30



[more=Extended info]Проект Dave Murray из Estradasphere. Это композиции, которые не вошли в трилогию, а также незаконченные.[/more]

[more=Technical info]
Input File: 01 - The Sunrise Heist.mp3
Channels : 2
Sample Rate : 44100
Precision : 16-bit
Duration : 00:03:25.94 = 9081822 samples = 15445.3 CDDA sectors
File Size : 8.40M
Bit Rate : 326k
Sample Encoding: MPEG audio (layer I, II or III)
Comments :
Title=The Sunrise Heist
Artist=Traun
Album=Deleted Scenes
Tracknumber=1
Year=2017
Genre=Avant-Garde Rock

[/more]

Register
(5) artscald, csgmnk, kimkayoung, Olethros, Rosen,
Feb 4 2019, 00:59:08 Traun - Escape From Spa 9 (2017)


*Artist: Traun
*Album: Escape From Spa 9
*Year: 2017
*Genre: Experimental/Avant Prog Metal
*Country: United States
*Format: mp3@CBR320kbps
*Size: 57MB

Tracklist:
01. The Deserts of Traun 01:41
02. Making Haste 01:13
03. Mayor of Ghost Town 01:35
04. The Lone Coachman 01:47
05. Pirate Stronghold 01:38
06. Lizardback 02:54
07. Escape from Spa 9 03:09
08. Vampire Invasion 01:55
09. Flight of the Water Baron 02:00
10. The Fruitless Kingdom 01:14
11. Mel's Home 00:39
******************************
Total playing time: 19:45



[more=Extended info]Проект Dave Murray из Estradasphere. Это последняя из трёх частей.[/more]

[more=Technical info]
Input File: 07 - Escape from Spa 9.mp3
Channels : 2
Sample Rate : 44100
Precision : 16-bit
Duration : 00:03:09.14 = 8341074 samples = 14185.5 CDDA sectors
File Size : 7.73M
Bit Rate : 327k
Sample Encoding: MPEG audio (layer I, II or III)
Comments :
Title=Escape from Spa 9
Artist=Traun
Album=Escape From Spa 9
Tracknumber=7
Year=2017
Genre=Avant-Garde Rock

[/more]

Register
(5) artscald, csgmnk, Ludwig Hagen, Olethros, Rosen,
Feb 4 2019, 00:57:53 Traun - The Black Metal Princess (2017)


*Artist: Traun
*Album: The Black Metal Princess
*Year: 2017
*Genre: Experimental/Avant Prog Metal
*Country: United States
*Format: mp3@CBR320kbps
*Size: 62MB

Tracklist:
01. The Voyage Home 01:48
02. Preparing the Pit 02:20
03. A Stranger in the Landing 01:33
04. An Undisclosed Location 02:15
05. Looking for Clues 03:15
06. The Terrace Computer 01:44
07. Miriaun Crossing 01:59
08. Mel Function 02:12
09. Passage Through the Mire 03:35
10. The Black Metal Princess 02:11
******************************
Total playing time: 22:52



[more=Extended info]Проект Dave Murray из Estradasphere. Это вторая из трёх частей.[/more]

[more=Technical info]
Input File: 02 - Preparing the Pit.mp3
Channels : 2
Sample Rate : 44100
Precision : 16-bit
Duration : 00:02:20.55 = 6198211 samples = 10541.2 CDDA sectors
File Size : 5.73M
Bit Rate : 326k
Sample Encoding: MPEG audio (layer I, II or III)
Comments :
Title=Preparing the Pit
Artist=Traun
Album=The Black Metal Princess
Tracknumber=2
Year=2017
Genre=Avant-Garde Rock

[/more]

Register
(4) artscald, csgmnk, Olethros, Rosen,
Feb 4 2019, 00:56:31 Traun - The Lilac Moon (2017)


*Artist: Traun
*Album: The Lilac Moon
*Year: 2017
*Genre: Experimental/Avant Prog Metal
*Country: United States
*Format: mp3@CBR320kbps
*Size: 59MB

Tracklist:
01. The Crystal Caverns 03:29
02. Aervallis 01:50
03. The Broken Barge 01:32
04. Inn of the Dreaded Hippy 01:59
05. The Thieving Wall 01:54
06. Greywater Hideaway 01:21
07. The Lilac Moon 01:05
08. Errands of Captain Yargh 00:34
09. The Old Road 02:00
10. Valeriana 01:37
11. Brig to Nowhere 02:31
12. Embers in Snowfall 01:40
******************************
Total playing time: 21:32



[more=Extended info]Проект Dave Murray из Estradasphere, тот который раньше назывался The Deserts of Träun. Это первая из трёх частей.

Maria Grigoryeva: Violin & Viola Sections
Lyudmila Kadyrbaeva: Cello
Timba Harris: Violin Solo (track 12)
Amir Yagmai: Violin & Violin Solo (Track 2)
Ben Wendel: Flute Solo (Track 6), Sax Solo (Track 1), Bassoon
Jamison Smeltz: Tenor & Baritone Sax
Adam Stacey: Accordion
Scott Nelson: Electric Guitar
Tim Smolens: Upright Bass
Paul McKee: Bass, Guitar, Mandolin
Joe Willis: Rhodes
Hugo LaNauEstudii: Acoustic Guitar, Bass
Dave Murray: Drums, Percussion, Metal Vox, Flute, Acoustic Guitar

Music by: Dave Murray with additional compositions by Joe Willis, Daedelus and Michael Johnson[/more]

[more=Technical info]
Input File: 01 - The Crystal Caverns.mp3
Channels : 2
Sample Rate : 44100
Precision : 16-bit
Duration : 00:03:29.80 = 9252356 samples = 15735.3 CDDA sectors
File Size : 8.52M
Bit Rate : 325k
Sample Encoding: MPEG audio (layer I, II or III)
Comments :
Title=The Crystal Caverns
Artist=Traun
Album=The Lilac Moon
Tracknumber=1
Year=2017
Genre=Avant-Garde Rock

[/more]

Register
(4) artscald, csgmnk, Olethros, Rosen,
Jan 23 2019, 22:05:02 Ouzo Bazooka - Transporter (2019)


*Artist: Ouzo Bazooka
*Album: Transporter
*Year: 2019
*Genre: Psychedelic Rock
*Country: Israel
*Format: mp3@CBR320kbps
*Size: 110MB

Tracklist:
01. It's a Sin 04:02
02. Latest News 03:24
03. Space Camel 06:37
04. Trip Train 03:14
05. Killing Me 04:21
06. Relax 04:38
07. Sleep Walk 04:35
08. Revolution Eyes 02:51
09. Coming from the Wild 03:04
10. Falling 08:32
******************************
Total playing time: 45:18



[more=Technical info]
Input File: 01 - It\'s a Sin.mp3
Channels : 2
Sample Rate : 44100
Precision : 16-bit
Duration : 00:04:02.82 = 10708538 samples = 18211.8 CDDA sectors
File Size : 9.97M
Bit Rate : 329k
Sample Encoding: MPEG audio (layer I, II or III)
Comments :
Title=It's a Sin
Artist=Ouzo Bazooka
Album=Transporter
Tracknumber=1/10
Year=2019
Genre=Rock

[/more]

Register
(7) marilin, Olethros, paganheart, PLamenism, VALERY, xska, yuratroll,
Jan 18 2019, 15:16:50 Oxús - D E M I S E (2019)

NYP
(1) Ostinato,
Jan 1 2019, 14:00:11 Mogh - Paradigm Shift (2018)
Samaritianin,
Ты бы не пил так много, а то начнёшь на все Black-релизы бросаться и обвинять их в антирелигиозной направленности smile1.gif
По музыке: нудновато.
(2) aesteticvice, Razorbladeswaltz,
Dec 2 2018, 19:20:51 Ufych - All Stars (2010)


*Artist: Ufych
*Album: All Stars
*Year: 2010
*Genre: Avant-Garde Heavy Metal
*Country: France
*Format: mp3@CBR320kbps
*Size: 127MB

Tracklist:
01. Galactic Saloon 06:20
02. Dream Land 04:12
03. My Wild Country Friends 04:02
04. Cybercity Cops 03:48
05. The Grand Architect 03:58
06. The Traveller 04:09
07. Starfisherman 03:30
08. Time Trip 02:00
09. Scary Manor 07:22
10. Modern Gods 05:11
11. Death Choice 04:43
12. Westbound Lane 03:25
******************************
Total playing time: 52:40

[more=Extended info]Это те безбашенные, которые Ufych Sormeer.

[youtube]_subj78yZeE[/youtube]
[youtube]8h5Aj4ulm_o[/youtube]
[youtube]fTWcO1bhOJk[/youtube][/more]

[more=Technical info]
Input File: 02 - Dream Land.mp3
Channels : 2
Sample Rate : 44100
Precision : 16-bit
Duration : 00:04:12.82 = 11149230 samples = 18961.3 CDDA sectors
File Size : 10.2M
Bit Rate : 322k
Sample Encoding: MPEG audio (layer I, II or III)
Comments :
Title=Dream Land
Artist=Ufych
Album=All Stars
Tracknumber=2/12
Year=2010
Genre=Рок
Discnumber=1/1

[/more]

Register
(12) AHBAnep, artscald, BlackArrow, Bloodn Lord, csgmnk, Foneg, metala, Olethros, pichileon, Rosen, VALERY, zhol,
Sep 23 2018, 23:07:09 Menace Ruine - Alight In Ashes (2012)
ЦИТАТА(PerYngveOhlin @ Sep 24 2018, 01:58:15) *
Перезалейте, умоляю

Параметры из шапки:
Register
(2) PerYngveOhlin, varg-38ru,
Aug 11 2018, 01:10:40 Paralelum - Under The Roots (2018)
ЦИТАТА(Samaritianin @ 11th August 2018 - 04:24:52) *
(fixed) сочинитель хренов!

Кстати, в превьюшке я тоже мелодет не услышал smile3.gif
(1) Samaritianin,
Jul 13 2018, 14:13:36 Mordant Rapture - The Abnegation [ep] (2018)
А не добавить ли в стиль симфу?
Если кому надо, потрековый лось:
Register
(2) aesteticvice, VLADISLAV_V_K,
May 18 2018, 08:37:45 Antisoph - Antisoph (2018)
[youtube]d9DY1_d-skY[/youtube]
(2) MMMMM, yuratroll,
May 10 2018, 17:36:38 Viper Solfa - Carving An Icon (2015)
ЦИТАТА(carla667 @ May 10 2018, 13:26:02) *
can anybody reup this file?

320:
Register
(4) carla667, kimkayoung, legion01, Rodriga,
May 4 2018, 22:40:32 Quest Of Aidance - Misanthropic Propaganda (2013)
320:
Register
(1) zyklon,

9 Pages V   1 2 3 > » 
- Lo-Fi Version Support form
Copyrights and abuse reports form
Time is now: 29th February 2020 - 08:27:23