Welcome Guest ( Log In | Register )

История благодарностей участнику BlackTroll ::: Спасибо сказали: 2508 раз(а)
Дата поста: В теме: За сообщение: Спасибо сказали:
Jun 22 2020, 00:59:10 Hail Spirit Noir - Eden In Reverse (2020)
ЦИТАТА(sTerLingaz @ Jun 22 2020, 00:22:56) *
Сделайте одолжение, если не затруднит.

Легко. Наслаждайтесь. (FLAC tracks / 96.0 kHz / 24 bits / 917 MB):
Register
(4) Daale, ErikGoth, sTerLingaz, wtk.412,
Jun 19 2020, 09:46:45 Hail Spirit Noir - Eden In Reverse (2020)
Лосик:
Register

С бэндкампа скачивается флак с безумными параметрами 96.0 kHz / 24 bits. Если есть вожделеющие, могу залить, весит 917 МБ.

Жаль, конечно, что они от блека ушли, диапазон вызываемых эмоций был гораздо шире. Но и так здорово.
(12) acerbus, Daale, ErikGoth, Evilded, Ghostb, infiltrator, Metalass, rgwm37, SlimBZ, sonicavocado, Unkle Jonny, скептик,
May 28 2020, 14:42:01 Tristwood - Blackcrowned Majesty (2020)


*Artist: Tristwood
*Album: Blackcrowned Majesty
*Year: 2020
*Genre: Industrial Death/Black Metal
*Country: Austria
*Format: mp3@CBR320kbps
*Size: 92MB

Tracklist:
01. Re-Enthronement Of The Damned 04:16
02. He Who Traversed A Greater Oblivion 04:24
03. A Blackcrowned Majesty 05:18
04. Her Wraith Through Stygonian Lands 04:54
05. The Hall Of Rauthra?s Fate 04:08
06. Acherontic Deathcult 04:24
07. Bone Cathedral 04:24
08. Nightshade Eternal 06:16
******************************
Total playing time: 38:04



[more=Technical info]
Input File: 01 - Re-Enthronement Of The Damned.mp3
Channels : 2
Sample Rate : 44100
Precision : 16-bit
Duration : 00:04:16.07 = 11292511 samples = 19205 CDDA sectors
File Size : 10.5M
Bit Rate : 329k
Sample Encoding: MPEG audio (layer I, II or III)
Comments :
Title=Re-Enthronement Of The Damned
Artist=Tristwood
Album=Blackcrowned Majesty
Tracknumber=1
Year=2020
Genre=Industrial Death/Black Metal

[/more]

Register
(31) AlexSmith, atavist, BaKu, chipsgott, Dark Sage, Doooomed, gwar, Hell_Is_Here, Indamage, infiltrator, Korpse, metala, multizwilling, Olethros, Ostinato, randumbum, Rosen, RunningWild_AT, Samogon, Shadechaser, SilentNidhogg, skinnyboo, Stariy, VALERY, varlam4, vasiljev_sergej, Vladimir, vov7609, wtk.412, yuratroll, Сварог Барг,
May 25 2020, 10:28:16 Dool - Summerland (2020)
(1) Brann,
May 22 2020, 01:40:33 Caligula's Horse - Rise Radiant (2020)
А чё все молчат-то? Классный же альбом! Даже вспомнился шедевральный Bilateral от Leprous. Понятно, что музыка совсем другая, может, из-за вокала?
(3) BleedingSun, Ghostb, infiltrator,
May 8 2020, 19:09:34 Combat Astronomy - Ahgmat (2020)


*Artist: Combat Astronomy
*Album: Ahgmat
*Year: 2020
*Genre: Instrumental Rock/Noise
*Country: United States
*Format: mp3@CBR320kbps
*Size: 90MB

Tracklist:
01. Ahgmat 05:52
02. Hybrids 06:32
03. Strange Rebels 05:40
04. Curving Tapes 07:16
05. Everything is a Demon 12:04
******************************
Total playing time: 37:24



[more=Extended info]Кинулся покупать, даже не ознакомившись с превьюхой. Как выяснилось - очень зря. Вместе с участниками коллектива (там остался только один дядька-мультиинструменталист) исчезла та шизоидная космичность, из-за которой, собственно, и было так интересно. Не исключаю, что после нескольких прослушиваний восприятие изменится, но надежды мало. Как-то убого всё стало smile2.gif[/more]

[more=Technical info]
Input File: 01 - Ahgmat.mp3
Channels : 2
Sample Rate : 44100
Precision : 16-bit
Duration : 00:05:52.21 = 15532329 samples = 26415.5 CDDA sectors
File Size : 14.3M
Bit Rate : 325k
Sample Encoding: MPEG audio (layer I, II or III)
Comments :
Title=Ahgmat
Artist=Combat Astronomy
Album=Ahgmat
Tracknumber=01
Year=2020
Genre=Jazz Metal

[/more]

Register
(19) Alpha_Prime, atom72, chipsgott, craP_cillA, fuoco, gena, Goatlord666, gwar, infiltrator, metala, mirotvorets, Old Vyaine, Orgasmik, Ostinato, sarcophagus, SatanicPanzer, terron, Tular, VALERY,
May 1 2020, 23:57:36 Vacantfield - Idle [ep] (2020)


*Artist: Vacantfield
*Album: Idle [ep]
*Year: 2020
*Genre: Avant-Garde Black Metal
*Country: Greece
*Format: mp3@CBR320kbps
*Size: 49MB

Tracklist:
01. Echidna 02:23
02. Aslant Meridian Satellites 07:28
03. Frequencies Total Symmetrik 02:27
04. Fluid Earth Delusions 07:29
******************************
Total playing time: 19:47



[more=Extended info]Vacantfield are:
MXT - guitars, electronics
Domu - shrieks
Edrha - electronics
Draenzarth - bass
George Christoforidis - drums

Guest musicians:
Konstantinos S. Chaostouched - clean vocals
Vangelis Dimos - additional drums[/more]

[more=Technical info]
Input File: 02 - Aslant Meridian Satellites.mp3
Channels : 2
Sample Rate : 48000
Precision : 16-bit
Duration : 00:07:28.27 = 21517056 samples ~ 33620.4 CDDA sectors
File Size : 18.1M
Bit Rate : 322k
Sample Encoding: MPEG audio (layer I, II or III)
Comments :
Title=Aslant Meridian Satellites
Artist=Vacantfield
Album=Idle
Tracknumber=2
Year=2020
Genre=Avant-Garde Black Metal

[/more]

Register
(18) Evilded, grimmstone, Gylve, Hell_Is_Here, infiltrator, lestllk, Olethros, Ostinato, Panacea, rammmirez, robertho777, Rosen, VALERY, varg-38ru, varlam4, vasiljev_sergej, yuratroll, zhol,
Apr 24 2020, 17:58:07 Lewis And The Strange Magics - Velvet Skin (2015)
320
Register

UPD. Обнаружил, что пара треков там с дефектами. Более того: пошуршал по инету и в суслике - там то же самое. Пришлось купить smile1.gif Оно того стоит, хорошая музыка.
Ссыль обновил, перекачайте.
(1) vosmidesijatye,
Apr 18 2020, 23:59:34 Dronte - Quelque Part Entre La Guerre Et La Lâcheté (2019)


*Artist: Dronte
*Album: Quelque Part Entre La Guerre Et La Lâcheté
*Year: 2019
*Genre: Avant-garde/Acoustic Post-Metal
*Country: France
*Format: mp3@CBR320kbps
*Size: 112MB

Tracklist:
01. Champion en série 03:33
02. Théâtre du vacarme 04:59
03. Sarcophage du succès 08:18
04. Notre grande machine 01:37
05. Un orage... 03:34
06. Sagesse gardée 06:42
07. Escalade en chute libre 07:53
08. Un vide confortable 07:27
09. ...et puis plus rien 02:26
******************************
Total playing time: 46:29



[more=Extended info]Речитатив, конечно, напрягает. Но инструментальная часть и гроул хороши.
UPD: Расслушал и решил добавить в стиль авангард.

Nicolas Aubert : guitare
Beno”t Bedrossian : contrebasse
Ève-Rosemarie Boulada : saxophone
Frédéric Braud : chant, shruti et bâton de pluie
Lucas de Geyter : batterie
Camille Segouin : vibraphone et percussions
Grégory Tranchant : guitare

Christophe Lasserre : textes[/more]

[more=Technical info]
Input File: 01 - Champion en série.mp3
Channels : 2
Sample Rate : 44100
Precision : 16-bit
Duration : 00:03:33.56 = 9418084 samples = 16017.1 CDDA sectors
File Size : 8.69M
Bit Rate : 326k
Sample Encoding: MPEG audio (layer I, II or III)
Comments :
Title=Champion en série
Artist=Dronte
Album=Quelque part entre la guerre et la lâcheté
Tracknumber=1
Year=2019
Genre=Acoustic Post-Metal

[/more]

Register
(8) Buregon, chipsgott, infiltrator, Olethros, Ostinato, paganheart, SatanicPanzer, yuratroll,
Apr 8 2020, 18:38:30 Pure Reason Revolution - Eupnea (2020)


*Artist: Pure Reason Revolution
*Album: Eupnea
*Year: 2020
*Genre: Progressve Rock
*Country: United Kingdom
*Format: mp3@CBR320kbps
*Size: 113MB

Tracklist:
01. New Obsession 05:07
02. Silent Genesis 10:20
03. Maelstrom 05:44
04. Ghosts & Typhoons 08:46
05. Beyond Our Bodies 04:28
06. Eupnea 13:23
******************************
Total playing time: 47:48

[more=Extended info]
[youtube]nIfrCbRkBww[/youtube]

[youtube]5khMXtZ6YjE[/youtube]

[youtube]dNP9z70zms4[/youtube]
[/more]

[more=Technical info]
Input File: 01 - New Obsession.mp3
Channels : 2
Sample Rate : 44100
Precision : 16-bit
Duration : 00:05:07.19 = 13547255 samples = 23039.5 CDDA sectors
File Size : 12.3M
Bit Rate : 321k
Sample Encoding: MPEG audio (layer I, II or III)
Comments :
Title=New Obsession
Artist=Pure Reason Revolution
Album=Eupnea
Tracknumber=01/6
Year=2020
Genre=Electronic;Rock
Discnumber=1/1

[/more]

Register
(10) Angry_Chair, as71, Ghostb, infiltrator, leks, oldvarg, Olethros, p4B10, ripper33, stone88,
Mar 17 2020, 16:00:21 Rawrorr - Cynism (2020)
ЦИТАТА(Фо @ Mar 17 2020, 13:48:07) *
за выдачу мне люлей, когда я начинаю маяться авангардом 1488.gif

Я не пойму, а что плохого в авангарде? smile1.gif
(1) skidnik,
Mar 14 2020, 17:45:00 Myrkur - Folkesange (2020)
ЦИТАТА(Moonshtook @ Mar 14 2020, 12:21:32) *
А что, правда, атмосферик блэк присутствует?

Отсутствует, причём более, чем полностью. В связи с чем возникает законный вопрос: а что акустик фолк делает в формате?
(2) Ghostb, infiltrator,
Feb 29 2020, 13:27:45 Deadfile - The Oddity Of Human Structures (2019)


*Artist: Deadfile
*Album: The Oddity Of Human Structures
*Year: 2019
*Genre: Experimental/Psychedelic/Orchestral/Post-Rock
*Country: Greece
*Format: mp3@CBR320kbps
*Size: 170MB

Tracklist:
01. This Hollow Land 08:58
02. Red Psalm 10:29
03. Rising Waters 11:52
04. Her Majesty, the Queen of Rats 05:40
05. Black Old Hound 05:49
06. The Secret Names of a Storyteller 10:09
07. Jericho 08:26
08. Choreography of Departures 10:11
******************************
Total playing time: 1:11:34



[more=Extended info]Лось есть, кому надо - пишите, выложу.[/more]

[more=Technical info]
Input File: 02 - Red Psalm.mp3
Channels : 2
Sample Rate : 44100
Precision : 16-bit
Duration : 00:10:29.09 = 27742825 samples = 47181.7 CDDA sectors
File Size : 25.3M
Bit Rate : 322k
Sample Encoding: MPEG audio (layer I, II or III)
Comments :
Title=Red Psalm
Artist=Deadfile
Album=The Oddity of Human Structures
Tracknumber=02/8
Year=2019
Genre=Experimental
Discnumber=1/1

[/more]

Register
(6) A.L.Rapsod, gena, gikaki, infiltrator, Olethros, yuratroll,
Feb 18 2020, 16:16:44 Dark Spark - Noční Jezdec (2017)
ЦИТАТА(AHBAnep @ Feb 18 2020, 12:34:34) *
Назгул?

Не, ночной ездец.
(2) Battaleon, infiltrator,
Jan 8 2020, 23:10:16 Angelwarrior Ace - Noble Precious Metal (2017)
ЦИТАТА(varlam4 @ Jan 8 2020, 20:59:05) *
Перезалейте плз
Register
(1) varlam4,
Nov 15 2019, 23:29:09 Abigail Williams - Walk Beyond The Dark (2019)
(3) Fess, Legacy100, Sanctus,
Oct 26 2019, 13:21:19 Swans - Leaving Meaning (2019)
Register
(6) ENDSMOUTH, garmonbozia, infiltrator, Krosis, vosmidesijatye, партизан,
Jul 21 2019, 17:00:50 Dimlight - A Symphony Of Horrors (2019)
Register
(2) avkruchinin, Emhyr var Emreis,
Jul 21 2019, 04:59:30 Sartanah - R.I.P. [ep] (2013)


*Artist: Sartanah
*Album: R.I.P. [ep]
*Year: 2013
*Genre: Psychedelic/Surf Rock/Instrumental
*Country: Italy
*Format: mp3@CBR320kbps
*Size: 75MB

Tracklist:
01. Santannera (the Undertaker) 05:30
02. Psychedelic Surf 05:02
03. R.I.P. 05:56
04. Vento alla Polvere 05:13
05. Nocturama 03:41
06. Mezzanotte di Fuoco 06:08
******************************
Total playing time: 31:30



[more=Extended info]Проект Agghiastru из Inchiuvatu, чей альбом Addisiu меня как зацепил в конце 90х, так до сих пор не отпускает.[/more]

[more=Technical info]
Input File: 01 - Santannèra (the Undertaker).mp3
Channels : 2
Sample Rate : 44100
Precision : 16-bit
Duration : 00:05:30.91 = 14593307 samples = 24818.5 CDDA sectors
File Size : 13.4M
Bit Rate : 323k
Sample Encoding: MPEG audio (layer I, II or III)
Comments :
Title=Santannèra (the Undertaker)
Artist=Sartanah
Album=R.I.P. EP
Tracknumber=1
Year=2013
Genre=Psychedelic Rock

[/more]

Register
(3) artscald, infiltrator, Olethros,
Jul 20 2019, 22:28:19 Ihlo - Union (2019)


*Artist: Ihlo
*Album: Union
*Year: 2019
*Genre: Progressive Metal/Rock
*Country: United Kingdom
*Format: mp3@CBR320kbps
*Size: 127MB

Tracklist:
01. Union 06:07
02. Reanimate 05:31
03. Starseeker 07:33
04. Hollow 06:58
05. Triumph 04:54
06. Parhelion 07:26
07. Coalescence 15:14
******************************
Total playing time: 53:43



[more=Extended info]За наводку спасибо Yarri. Музыка и впрямь сильно напоминает Haken, разве что чуть больше электроники.

Альбом был найден на просторах интернета, однако трек 06. Parhelion имеет явные признаки апконверта из 160kbps. После долгих поисков нормального качества я сдался и купил этот трек на официальном BandCamp, но там оказалось то же самое :([/more]

[more=Technical info]
Input File: 01 - Union.mp3
Channels : 2
Sample Rate : 44100
Precision : 16-bit
Duration : 00:06:07.59 = 16210807 samples = 27569.4 CDDA sectors
File Size : 14.7M
Bit Rate : 321k
Sample Encoding: MPEG audio (layer I, II or III)
Comments :
Title=Union
Artist=Ihlo
Album=Union
Tracknumber=1
Year=2019
Genre=Progressive Metal
Discnumber=1

[/more]

Register
(19) aGoo, ahp, andgrek28, artscald, ddx1, dimitriusk, LEGION69, metala, Ogidni, Old Vyaine, Olethros, Phlebotomized, Rosen, Rover, SAPOGi, SatanicPanzer, wreak, Yarri, скептик,
Jul 6 2019, 18:39:44 Molasses - Mourning Haze/Drops Of Sunlight [ep] (2019)
Если что, это проект Фариды Лемучи (вокал) и других музыкантов из The Devil's Blood.
(4) Diflock, Ghostb, wolverine, Абигор,
Mar 20 2019, 18:57:41 Oblivion's Eye - Radiance (2010)

Free Download
(1) AHBAnep,
Mar 9 2019, 19:15:15 Harold Budd & Hector Zazou - Glyph (1995)
[youtube]5SjdlXjxloQ[/youtube]

Я так понимаю, инструментал?
(1) vosmidesijatye,
Mar 1 2019, 17:51:53 Inter Omega - Inter Omega (2019)
Модерн+Джент
NYP
(3) AHBAnep, Ogidni, Shadowman,
Feb 4 2019, 01:00:15 Traun - Deleted Scenes (2017)


*Artist: Traun
*Album: Deleted Scenes
*Year: 2017
*Genre: Experimental/Avant Prog Metal
*Country: United States
*Format: mp3@CBR320kbps
*Size: 80MB

Tracklist:
01. The Sunrise Heist 03:25
02. Lost Ar'Pege 02:05
03. Malcytol of Planet Zombie (2nd Draft) 02:54
04. Transient Stream (2nd Draft) 01:39
05. The Clearing House (2nd Draft) 01:31
06. The Men's Group 02:01
07. The Club Zed Investigation (2nd Draft) 04:48
08. Marsh Madness (2nd Draft) 01:41
09. Shuttle Amurensis 00:56
10. OWP3 (2nd Draft) 02:14
11. Starflight Cafe (2nd Draft) 01:38
12. Ariliaun Found (1st Draft) 00:54
13. Electro-Navigator (1st Draft) 01:18
14. Might Be Trouble (1st Draft) 00:31
15. A Flat Celebration (1st Draft) 01:25
16. Ghari's Outpost (1st Draft) 00:51
17. The Helm at the Bath (1st Draft) 00:47
18. The First Elevator (1st Draft) 00:52
******************************
Total playing time: 31:30



[more=Extended info]Проект Dave Murray из Estradasphere. Это композиции, которые не вошли в трилогию, а также незаконченные.[/more]

[more=Technical info]
Input File: 01 - The Sunrise Heist.mp3
Channels : 2
Sample Rate : 44100
Precision : 16-bit
Duration : 00:03:25.94 = 9081822 samples = 15445.3 CDDA sectors
File Size : 8.40M
Bit Rate : 326k
Sample Encoding: MPEG audio (layer I, II or III)
Comments :
Title=The Sunrise Heist
Artist=Traun
Album=Deleted Scenes
Tracknumber=1
Year=2017
Genre=Avant-Garde Rock

[/more]

Register
(5) artscald, csgmnk, kimkayoung, Olethros, Rosen,

10 Pages V   1 2 3 > » 
- Lo-Fi Version Support form
Copyrights and abuse reports form
Time is now: 13th July 2020 - 09:51:26