Welcome Guest ( Log In | Register )

История благодарностей участнику Ildjarn ::: Спасибо сказали: 3552 раз(а)
Дата поста: В теме: За сообщение: Спасибо сказали:
Mar 29 2019, 11:44:42 Gravemoon - Rehearsal Demo [demo] (2005)
Register
(2) Svafrlami, thenecromancer,
Mar 29 2019, 11:33:22 Chains Ov Beleth - Christeos Chaos (2015)
Register
(3) kim666, morbidangelo, stub888,
Dec 21 2018, 12:02:00 Various Artists - Rusty Axe: Under The Axe Vol. 3 (2007)
Register
(1) varg-38ru,
Dec 21 2018, 11:33:16 Triste - Demo October 2006 [demo] (2006)
Register
(3) pain, satanist666, thenecromancer,
Dec 21 2018, 11:31:00 Vomit - Still Rotting [best of/compilation] (2007)
Register
(1) satanist666,
Dec 21 2018, 11:14:58 Warblade - A Crisis In The Gray Space (2003)
Register
(1) varg-38ru,
Dec 19 2018, 14:24:11 The End 666 - The Ultra Violence (2003)
Register
(1) METALHUNTER,
Dec 19 2018, 14:20:58 Terminal Descent - Manifesting The Present (2002)


*Artist: Terminal Descent
*Album: Manifesting The Present
*Year: 2002
*Genre: Death/Thrash Metal
*Country: United States
*Format: mp3@VBR225kbps
*Size: 54MB

Tracklist:
1. I am that I am 03:23
2. The Illusion Barrier 03:19
3. Cultivating the Demon 03:23
4. The Doctrine 05:27
5. Taming of Beasts 02:56
6. Hostage to the Devil 02:25
7. Manifest the Present 03:02
8. The Prophets Profit 04:22
9. Subtle Misanthropy 02:02
10. Cryptic Demise 03:12
******************************
Total playing time: 33:31

[more=Technical info]
Input File: 02-The_Illusion_Barrier-FFF.mp3
Channels : 2
Sample Rate : 44100
Precision : 16-bit
Duration : 00:03:19.18 = 8783970 samples = 14938.7 CDDA sectors
File Size : 5.32M
Bit Rate : 214k
Sample Encoding: MPEG audio (layer I, II or III)
Comments :
Title=The Illusion Barrier
Artist=Terminal Descent
Album=Manifesting the Present
Tracknumber=2
Year=2002
Genre=138

[/more]

Register
(7) artscald, boby9052, METALHUNTER, Proteus_666, Rosen, wgs73, Герб,
Dec 11 2018, 21:27:37 Тевредь - Промо [demo] (2007)
Register
(2) kim666, thenecromancer,
Dec 5 2018, 20:51:30 Чёрная Вдова - Арийские Военные Гимны [demo] (1995)


*Artist: Чёрная Вдова
*Album: Арийские Военные Гимны [demo]
*Year: 1995
*Genre: Black/Thrash Metal
*Country: Russian Federation
*Format: mp3@CBR192kbps
*Size: 60MB

Tracklist:
1. Марш легионов тьмы (Введение) 01:30
2. Кровь за кровь 04:11
3. Глас мастера 04:18
4. Разбуженные кельты 04:42
5. К звезде 05:43
6. Знамя твоё (Убей христиан) 04:51
7. Привиделось 03:49
8. Монолог смерти 05:18
9. Ожидание 04:51
10. Bonus Track 04:47
******************************
Total playing time: 44:00

[more=Technical info]
Input File: 02 - Blood for Blood.mp3
Channels : 2
Sample Rate : 44100
Precision : 16-bit
Duration : 00:04:10.88 = 11063676 samples = 18815.8 CDDA sectors
File Size : 6.02M
Bit Rate : 192k
Sample Encoding: MPEG audio (layer I, II or III)
Comments :
Title=Кровь За Кровь
Artist=Черная Вдова
Album=Арийские Военные Гимны
Tracknumber=2
Year=1995
Genre=Black metal

[/more]

Register
(12) artscald, Borderline1991, comradEnemy, METALHUNTER, Moonshtook, Orkkh, Rosen, SilentNidhogg, Svafrlami, varlam4, wgs73, Xutun,
Dec 4 2018, 21:37:41 Dark Gorgona - Обитель Зла 666 (2006)
Register
(1) Aresson,
Nov 22 2018, 20:07:17 The True Mierdum - Un Hippie Asesine En El Pantano (Remastered) (2007)
Register
(1) varg-38ru,
Nov 22 2018, 20:04:56 The True Mierdum - Donde Los Demonios Violan A Tu Madre [ep] (2007)
Register
(1) varg-38ru,
Nov 22 2018, 20:02:14 The True Mierdum - Destruye A Tú Abuela Por Satán [demo] (2006)


*Artist: The True Mierdum
*Album: Destruye A Tú Abuela Por Satán [demo]
*Year: 2006
*Genre: Black Metal
*Country: Argentina
*Format: mp3@CBR128kbps
*Size: 16MB

Tracklist:
1. Satanic sreams from the forest of unholy forces of satan and the noise of impaled christians 1:52
2. Destruye a tú abuela por Satán 1:18
3. Si tú padre es gay, sacrifícalo a Satán 1:27
4. Un hippie asesiné en el pantano 1:26
5. Sodomizing Pajarola Without Condon 'Cause I'm Immortal 2:09
6. The Day That Occulta Cross The Woods with a thousands of black hordes, looking for the throne of Nyarlathotep 5:51
7. The Haunting Chants of Bleh and the Pagan Immolation of the Ancient Vikings
1:01
8. Muerte al travestido 1:55
9. Oloroso apocalipsis 2:04
******************************
Total playing time: 19:03

Register
(7) artscald, Pinhead666, Rosen, satanist666, Svafrlami, udt4050, vasiljev_sergej,
Nov 22 2018, 10:06:54 Sola Svartnar - Sidera [demo] (2005)
Register
(1) thenecromancer,
Nov 22 2018, 10:03:06 Smouldering In Forgotten - The Bonfire Of The Apocalypse [demo] (2006)
Register
(1) thenecromancer,
Jun 20 2018, 14:29:59 Acarus Sarcopt - Our Words [demo] (2009)
Register
(3) kim666, varg-38ru, Vlosinssrigg,
Jun 19 2018, 13:45:34 Acarus Sarcopt - Demo I [demo] (2004)


*Artist: Acarus Sarcopt
*Album: Demo I [demo]
*Year: 2004
*Genre: Black Metal
*Country: France
*Format: mp3@VBR203kbps
*Size: 25MB

Tracklist:
1. Innoculate the Revolt 02:58
2. Oppressive Burning Times 03:43
3. Slumber Karmic Visions 02:40
4. Sur Le Ponton De La Création 04:35
5. Reflections of the Opaque 03:21
******************************
Total playing time: 17:17

[more=Extended info]Scene release[/more]

[more=Technical info]
Input File: 02_acarus_sarcopt--oppressive_burning_times-vic.mp3
Channels : 2
Sample Rate : 44100
Precision : 16-bit
Duration : 00:03:42.88 = 9828832 samples = 16715.7 CDDA sectors
File Size : 5.55M
Bit Rate : 199k
Sample Encoding: MPEG audio (layer I, II or III)
Comments :
Title=Oppressive Burning Times
Artist=Acarus Sarcopt
Album=Demo I
Tracknumber=2
Year=2004
Genre=138

[/more]

Register
(10) 1968_janeart, infiltrator, kim666, Ostinato, Rosen, SilentNidhogg, SSBandera, thenecromancer, varg-38ru, vasiljev_sergej,
Jun 19 2018, 09:56:36 Accersitus - Lamps Of The Concealed Shrine [demo] (2011)
Register
(5) artscald, FUDEDOR, kim666, Rodin, varg-38ru,
Jun 19 2018, 09:53:54 Funereal Moon - Taumogenesis [best of/compilation] (2003)
Register
(3) artscald, FUDEDOR, RUSP73,
Jun 19 2018, 09:42:18 Funereal Moon - Silent Night Of Full Moon Shine [demo] (1995)
Register
(2) kim666, varg-38ru,
Jun 19 2018, 09:40:23 Funereal Moon - Perpetual Image Of Doom (2009)
Register
(3) FUDEDOR, kim666, varg-38ru,
Jun 19 2018, 09:36:41 Funereal Moon - Goat Of The Necro Abyss [ep] (2011)
Register
(3) FUDEDOR, kim666, varg-38ru,
Jun 19 2018, 09:32:30 Funereal Moon - 15 Years Of Demonic Possession [best of/compilation] (2009)
Register
(2) FUDEDOR, varg-38ru,
Jun 8 2018, 10:16:55 Arch Of Thorns - The Coming Storm [demo] (2004)
Register
(2) kim666, thenecromancer,

29 Pages V   1 2 3 > » 
- Lo-Fi Version Support form
Copyrights and abuse reports form
Time is now: 18th November 2019 - 02:20:27

ищу спонсора в москве.