Welcome Guest ( Log In | Register )

История благодарностей участнику Ildjarn ::: Спасибо сказали: 3739 раз(а)
Дата поста: В теме: За сообщение: Спасибо сказали:
Sep 29 2020, 20:38:05 Hymir - Perish [ep] (2007)
Register
(1) stumpheavyrock,
Sep 16 2020, 18:13:10 Shelf - Frozen Senses [demo] (1998)
Register
(2) stumpheavyrock, Wail,
Sep 16 2020, 18:10:06 War Swallowed - Fantasy Flight (2002)
Register
(1) Wail,
Sep 16 2020, 18:04:14 The No-Mads - Refresh The Thrash [demo] (2000)
Register
(2) stumpheavyrock, Wail,
Sep 16 2020, 18:02:39 The End 666 - Shudder [demo] (2001)
Register
(2) stumpheavyrock, Wail,
Sep 16 2020, 17:58:49 Straight Land - Negative Feelings (2002)
Register
(1) Wail,
Sep 16 2020, 17:56:57 Stomachal Inflammation & CVI - Split [split] (2003)
Register
(1) Wail,
Sep 16 2020, 17:51:09 Reunion - Infernal Kingdom (2002)
Register
(1) Wail,
Sep 16 2020, 10:22:12 Sider - Labyrinth (1997)
Register
(2) dimitriusk, Wail,
Sep 16 2020, 09:31:19 Raped Toad - Demo [demo] (1999)
Register
(2) stumpheavyrock, Wail,
Sep 16 2020, 09:15:54 In Low Spirits - Sunsets Beyond Our Lives [demo] (1997)


*Artist: In Low Spirits
*Album: Sunsets Beyond Our Lives [demo]
*Year: 1997
*Genre: Death/Doom Metal
*Country: Italy
*Format: mp3@VBR232kbps
*Size: 35MB

Tracklist:
1. Life 3:27
2. Landscapes 6:23
3. Visions 5:35
4. Soundless 4:11
5. The Holy Dream 2:02
******************************
Total playing time: 21:38

[more=Technical info]
Input File: 02-Landscapes-FFF.mp3
Channels : 2
Sample Rate : 44100
Precision : 16-bit
Duration : 00:06:23.19 = 16898679 samples = 28739.2 CDDA sectors
File Size : 11.3M
Bit Rate : 236k
Sample Encoding: MPEG audio (layer I, II or III)
Comments :
Title=Landscapes
Artist=In Low Spirits
Album=Sunsets Beyond Our Lives
Tracknumber=2
Year=1997
Genre=22

[/more]

Register
(10) Borderline1991, Evilded, heinz88, infiltrator, Olethros, randumbum, Rosen, VALERY, Wail, wreak,
Sep 16 2020, 09:09:09 Dry Rot - Omneum Gatherum (2003)
Register
(2) stumpheavyrock, Wail,
Sep 16 2020, 09:05:52 Cronation - Five Steps To Die [demo] (1999)
Register
(2) stumpheavyrock, Wail,
Sep 16 2020, 09:04:20 Barbarossa - Inferno Unleashed [demo] (1997)
Register
(2) varlam4, Wail,
Sep 15 2020, 14:19:12 Harskar - The End Of All Kinds [demo] (2003)
Register
(2) vasiljev_sergej, Wail,
Sep 15 2020, 14:07:51 Grenade - The Howling Damned [compilation] (2007)
Register
(3) varlam4, Wail, wanderer73,
Sep 15 2020, 13:45:41 Hakenkreuz - Axis Of Cosmos (2007)
Register
(2) Wail, wanderer73,
Sep 14 2020, 19:11:15 Goatworshipper - Blackgoat Harshnoise (2007)


*Artist: Goatworshipper
*Album: Blackgoat Harshnoise
*Year: 2007
*Genre: Black Metal/Noise
*Country: Japan
*Format: mp3@VBR216kbps
*Size: 99MB

Tracklist:
1. Ave Satanas 11:15
2. The Four Crown Princess Of Hell 08:51
3. The Blackgoat Mass 06:05
4. Bornless Ritual 12:26
5. Glavigula Salomonis 06:08
6. The Invocation 07:32
7. Das Panbaphomerion / Baphomet 11:56
******************************
Total playing time: 1:04:13

[more=Extended info]http://disclose.likesyou.org/kawa.html?i=1[/more]

[more=Technical info]
Input File: 02-goatworshipper-the_four_crown_princess_of_hell-cor.mp3
Channels : 2
Sample Rate : 44100
Precision : 16-bit
Duration : 00:08:51.12 = 23422436 samples = 39834.1 CDDA sectors
File Size : 14.4M
Bit Rate : 217k
Sample Encoding: MPEG audio (layer I, II or III)
Comments :
Title=The Four Crown Princess Of Hel
Artist=Goatworshipper
Album=Goatworshipper CD
Tracknumber=2
Year=2007
Genre=138

[/more]

Register
(15) caro, gena, goatkvlt, heinz88, Hell_Is_Here, infiltrator, marilin, mizantrophist, Olethros, randumbum, Rosen, SilentNidhogg, vasiljev_sergej, Wail, wreak,
Sep 14 2020, 18:50:34 Goat Semen & Levifer - Abominable Trinity Of Evil [split] (2003)
Register
(1) Wail,
Sep 14 2020, 18:43:25 Gnaw Their Tongues - Reeking Pained And Shuddering (2007)
Register
(2) gena, Wail,
Sep 13 2020, 19:16:17 Furdidurke & Bone Awl - Furdidurke/Bone Awl [split] (2007)


*Artist: Furdidurke & Bone Awl
*Album: Furdidurke/Bone Awl [split]
*Year: 2007
*Genre: Black Metal/Punk | Black Metal/Punk
*Country: United States | United States
*Format: mp3@ABR235kbps
*Size: 14MB

Tracklist:
Furdidurke:
1. Main Song 04:58
Bone Awl:
2. Green As He Walks 02:56
******************************
Total playing time: 7:54

[more=Extended info]NOT simply a reissue of the split cassette on vinyl. The artwork and the Furdidurke track are the same but it's different Bone Awl material.[/more]

[more=Technical info]
Input File: 01-Furdidurke-Main Song-jdg.mp3
Channels : 2
Sample Rate : 44100
Precision : 16-bit
Duration : 00:04:58.48 = 13162748 samples = 22385.6 CDDA sectors
File Size : 8.88M
Bit Rate : 238k
Sample Encoding: MPEG audio (layer I, II or III)
Comments :
Title=Main Song
Artist=Furdidurke
Album=Split EP
Tracknumber=1
Year=2007
Genre=Black Metal

[/more]

Register
(11) 1968_janeart, Hell_Is_Here, Lanceatum, randumbum, Rosen, SilentNidhogg, varlam4, vasiljev_sergej, Wail, wreak, Абигор,
Sep 8 2020, 14:33:08 Eulogium - Where Solace Is Mine (2006)
Register
(3) kim666, vasiljev_sergej, Wail,
Sep 8 2020, 14:24:59 Erebos - The Chaos Chronicle (2004)
Register
(1) Wail,
Sep 8 2020, 14:13:03 Enbilulugugal - NunTwat Armageddon [demo] (2001)
Register
(1) Wail,
Sep 7 2020, 15:39:32 Deiphago - Satanik Eon (2006)
Register
(2) varlam4, vasiljev_sergej,

31 Pages V   1 2 3 > » 
- Lo-Fi Version Support form
Copyrights and abuse reports form
Time is now: 21st October 2020 - 17:18:16

ищу спонсора в москве.