Welcome Guest ( Log In | Register )

История благодарностей участнику komhs ::: Спасибо сказали: 22229 раз(а)
Дата поста: В теме: За сообщение: Спасибо сказали:
May 22 2022, 09:14:59 Dawn Of Division - Awaiting The Dawn [demo] (2005)



*Format: mp3@CBR320kbps
*Size: 47MB

Register
(1) kimkayoung,
May 22 2022, 09:08:13 Dawn Of Division - Outrage Of Desolation [demo] (2003)


*Format: mp3@CBR320kbps
*Size: 33MB

Register
(1) kimkayoung,
May 22 2022, 08:49:55 Blade Of Spirit - Shadow's Race (2005)


*Format: mp3@CBR320kbps
*Size: 103MB

+Scans

Register
(1) stumpheavyrock,
May 21 2022, 10:45:33 Varathron & Ungod - Apocalyptic Mysticism [split] (2022)


*Artist: Varathron & Ungod
*Album: Apocalyptic Mysticism [split]
*Year: 2022
*Genre: Black Metal | Black Metal
*Country: Greece | Germany
*Format: mp3@CBR320kbps
*Size: 23MB

Tracklist:
Varathron
1.The Mystic Papyrous 04:15
Ungod
2.Sinister Forms of Fallen Stars 05:23
******************************
Total playing time: 9:38

[more=Technical info]
Input File: 01.Varathron - The Mystic Papyrous.mp3
Channels : 2
Sample Rate : 48000
Precision : 16-bit
Duration : 00:04:15.98 = 12287232 samples ~ 19198.8 CDDA sectors
File Size : 10.2M
Bit Rate : 320k
Sample Encoding: MPEG audio (layer I, II or III)
Comments :
Artist=Varathron
Tracknumber=1
Year=2022
Genre=Black Metal

[/more]

Register
(18) Alexis The Best, ALEXSATHANAS, Antichrist, Bzth, cancer1974, FUDEDOR, gena, kim666, Lux, nord6666, Occultas, older68, Pinhead666, rammmirez, thenecromancer, vasiljev_sergej, volostakoeto, Wail,
May 21 2022, 08:04:15 Sands Of Eternity - Beyond The Realms Of Time (2022)


*Artist: Sands Of Eternity
*Album: Beyond The Realms Of Time
*Year: 2022
*Genre: Power Metal
*Country: Greece
*Format: mp3@CBR320kbps
*Size: 108MB

Tracklist:
1. Still Awake 04:36
2. Enlightened (Mighty Warrior) 04:55
3. The Hitman 04:00
4. Faded 03:53
5. Red Flag 06:44
6. Desire 03:56
7. Shadows of Light 03:28
8. A Different Way 04:38
9. So Far Away (A Soldier's Cry) 05:23
10. Beyond the Limits 06:46
******************************
Total playing time: 48:19





[more=Technical info]
Input File: 01 - Still Awake.mp3
Channels : 2
Sample Rate : 44100
Precision : 16-bit
Duration : 00:04:36.25 = 12182713 samples = 20718.9 CDDA sectors
File Size : 11.0M
Bit Rate : 320k
Sample Encoding: MPEG audio (layer I, II or III)
Comments :
Title=Still Awake
Artist=Sands Of Eternity
Album=Beyond The Realms Of Time
Tracknumber=1
Year=2022
Genre=12

[/more]

Register
(9) after21allD, boby9052, gwar, infozahist, metala, postal67, strato20, zhol, Сварог Барг,
May 21 2022, 08:01:29 Earth Majesty - Quest For Fantasy [demo] (1996)


*Artist: Earth Majesty
*Album: Quest For Fantasy [demo]
*Year: 1996
*Genre: Heavy/Doom/Progressive Metal
*Country: Greece
*Format: mp3@CBR320kbps
*Size: 50MB

Tracklist:
1. Blacklisted
2. Stone Dreamer
3. Land Chosen...by the Gods
4. End of the Centuries
******************************
Total playing time: 22:04

[more=Technical info]
Input File: 1.Blacklisted.mp3
Channels : 2
Sample Rate : 44100
Precision : 16-bit
Duration : 00:04:55.17 = 13016777 samples = 22137.4 CDDA sectors
File Size : 11.8M
Bit Rate : 320k
Sample Encoding: MPEG audio (layer I, II or III)
Comments :
Artist=Earth Majesty
Year=0
Genre=12

[/more]

Register
(8) Carcharoth, Dante_D, metala, nord6666, Proteus_666, Reverend, stumpheavyrock, VALERY,
May 21 2022, 07:58:39 Dragon Skull - Death Dealer [single] (2022)


*Artist: Dragon Skull
*Album: Death Dealer [single]
*Year: 2022
*Genre: Heavy Metal
*Country: Greece
*Format: mp3@CBR320kbps
*Size: 10MB

Tracklist:
1.Death Dealer 04:02
******************************
Total playing time: 4:02

[more=Technical info]
Input File: 01.Death Dealer.mp3
Channels : 2
Sample Rate : 44100
Precision : 16-bit
Duration : 00:04:02.63 = 10700071 samples = 18197.4 CDDA sectors
File Size : 9.71M
Bit Rate : 320k
Sample Encoding: MPEG audio (layer I, II or III)
Comments :
Artist=Dragon Skull
Year=0
Genre=12

[/more]

Register
(2) after21allD, stumpheavyrock,
May 15 2022, 17:06:15 Dream Weaver - Mythreal (2012)


Register
(1) kimkayoung,
May 15 2022, 16:18:28 Dream Weaver - Dream Within A Dream [demo] (1995)


Register
(2) kimkayoung, thenecromancer,
May 15 2022, 16:14:28 Dream Weaver - Promo Tape '93/94 [demo] (1993)


Register
(2) kimkayoung, thenecromancer,
May 14 2022, 16:30:53 Innerwish - Inner Strength (2006)



Register
(2) Ingvar, thenecromancer,
May 14 2022, 16:03:49 Sarissa - Demo 1987 [demo] (1987)



Register
(1) Ingvar,
May 14 2022, 15:44:40 Daylight Misery - Promo 2009 [demo] (2009)


Register
(2) quarantine, thenecromancer,
May 14 2022, 13:13:54 Rise Of Malice - Torment Of Eternity [single] (2013)


*Artist: Rise Of Malice
*Album: Torment Of Eternity [single]
*Year: 2013
*Genre: Black Metal
*Country: Greece
*Format: mp3@CBR320kbps
*Size: 20MB

Tracklist:
1.Scars of Hallucination 04:18
2.Torment of Eternity 04:45
******************************
Total playing time: 9:03

[more=Technical info]
Input File: 1.Scars of Hallucination.mp3
Channels : 2
Sample Rate : 44100
Precision : 16-bit
Duration : 00:04:19.09 = 11425649 samples = 19431.4 CDDA sectors
File Size : 10.4M
Bit Rate : 320k
Sample Encoding: MPEG audio (layer I, II or III)
Comments :
Title=Scars of Hallucination
Artist=Rise of Malice
Album=Torment of Eternity (single)
Tracknumber=1
Year=2013
Genre=Black Metal

[/more]

Register
(3) Ildjarn, seal, vasiljev_sergej,
May 5 2022, 16:32:34 Echelon - Secret Power (2022)


*Artist: Echelon
*Album: Secret Power
*Year: 2022
*Genre: Heavy Metal
*Country: Greece
*Format: mp3@CBR320kbps
*Size: 104MB

Tracklist:
1. Infinity
2. Forsaken Angel
3. Dying Nation
4. Secret Power
5. Pictures of War
6. Inner Confession
7. Unfair
8. Question for Light
9. Wolf in Me
******************************
Total playing time: 44:32





[more=Technical info]
Input File: 02. Forsaken Angel.mp3
Channels : 2
Sample Rate : 44100
Precision : 16-bit
Duration : 00:04:36.00 = 12171600 samples = 20700 CDDA sectors
File Size : 11.3M
Bit Rate : 327k
Sample Encoding: MPEG audio (layer I, II or III)
Comments :
Title=Forsaken Angel
Artist=Echelon
Album=Secret Power
Tracknumber=2
Year=2022-05-06
Discnumber=1

[/more]

Register
(15) ace73pq, after21allD, artscald, Bloodline Christian, BugEyes, caro, csgmnk, gwar, Marek, metala, MеtalHead, postal67, Rover, sergsazan, stumpheavyrock,
May 2 2022, 07:57:26 Acherontas - Malocchio ​-​ The Seven Tongues Of Δαημων (2022)


*Format: mp3@CBR320kbps
*Size: 97MB


Register
(2) Occultas, Wail,
May 2 2022, 07:37:54 Nordor - Caedis (2019)


*Format: mp3@CBR320kbps
*Size: 67MB

Register
(1) kimkayoung,
May 2 2022, 07:31:49 Echoes Of Decay - Dive Into Darkness (2019)


*Format: mp3@CBR320kbps
*Size: 141MB

Register
(3) kimkayoung, Mist13Signifier, Olrak,
May 2 2022, 07:26:21 Mpora - Madness Of Despair [single] (2022)


*Artist: Mpora
*Album: Madness Of Despair [single]
*Year: 2022
*Genre: Death/Thrash Metal
*Country: Greece
*Format: mp3@CBR320kbps
*Size: 9MB

Tracklist:
1.Madness Of Despair 03:39
******************************
Total playing time: 3:39





[more=Technical info]
Input File: 01.Madness Of Despair.mp3
Channels : 2
Sample Rate : 44100
Precision : 16-bit
Duration : 00:03:40.04 = 9703588 samples = 16502.7 CDDA sectors
File Size : 8.80M
Bit Rate : 320k
Sample Encoding: MPEG audio (layer I, II or III)
Comments :
Artist=Mpora
Year=0
Genre=12

[/more]

Register
(3) boby9052, infozahist, stumpheavyrock,
May 2 2022, 07:24:10 Mpora - Unrealistic Results (2022)


*Artist: Mpora
*Album: Unrealistic Results
*Year: 2022
*Genre: Death/Thrash Metal
*Country: Greece
*Format: mp3@CBR320kbps
*Size: 70MB

Tracklist:
1.Spit out the Violince 04:20
2.Swamp on my feet 03:20
3.Spirit Trap 03:11
4.Feed The Angels With Blood 04:11
5.Unrealistic Results 02:58
6.To be a afraid of your mind 02:52
7.Creating Miserry 03:16
8.Internal Struggle 03:07
9.In The Corner Of Mind 03:44
******************************
Total playing time: 30:59





[more=Technical info]
Input File: 01.Spit out the Violince.mp3
Channels : 2
Sample Rate : 44100
Precision : 16-bit
Duration : 00:04:20.16 = 11473100 samples = 19512.1 CDDA sectors
File Size : 10.4M
Bit Rate : 320k
Sample Encoding: MPEG audio (layer I, II or III)
Comments :
Artist=Mpora
Year=0
Genre=12

[/more]

Register
(9) boby9052, infozahist, jollo, metala, stumpheavyrock, vyacheslav, wanderer73, wgs73, WOLAND,
May 1 2022, 10:02:58 Embrace Of Thorns - A Night Of Promethean Blasphemy (2022)


*Artist: Embrace Of Thorns
*Album: A Night Of Promethean Blasphemy
*Year: 2022
*Genre: Black/Death Metal
*Country: Greece
*Format: mp3@CBR320kbps
*Size: 125MB

Tracklist:
1. I 09:08
2. II 07:00
3. III 04:17
4. IV 04:59
5. V 05:10
6. VI 03:09
7. VII 03:41
8. VIII 11:00
9. IX 03:02
10. X 03:49
******************************
Total playing time: 55:15


Preview 2

Preview 4
Preview 5

[more=Technical info]
Input File: 01.I..mp3
Channels : 2
Sample Rate : 44100
Precision : 16-bit
Duration : 00:09:08.51 = 24189071 samples = 41137.9 CDDA sectors
File Size : 21.9M
Bit Rate : 320k
Sample Encoding: MPEG audio (layer I, II or III)
Comments :
Artist=Embrace of Thorns
Album=A Night of Promethean Blasphem
Year=2022
Genre=12

[/more]

Register
(19) Antichrist, Danilodanilo, Gylve, Ildjarn, infozahist, Kaotik, Mencae77, metala, Mist13Signifier, Nerevar, Panacea, sabr, sacrut, THROWER666, VALERY, vasiljev_sergej, Wail, wanderer73, yinchanghanhuang,
May 1 2022, 09:22:44 Disharmony - Gods Made Of Flesh (2022)


*Artist: Disharmony
*Album: Gods Made Of Flesh
*Year: 2022
*Genre: Heavy/Doom Metal
*Country: Greece
*Format: mp3@CBR320kbps
*Size: 130MB

Tracklist:
1. The Cynic and the Beggar 05:20
2. Nogard 04:22
3. Cruel and Bitter 05:46
4. The Cry of the Gods 06:59
5. Dreamers Lost 01:42
6. Of Flesh 07:34
7. Trigger of Pleasure 04:35
8. Desertion 06:31
9. The Shores of Our Destiny 01:05
10. Under the Waves 05:31
11. L.I.F.E. 08:03
******************************
Total playing time: 57:28








[more=Extended info][youtube]WtQvOFqEqwI[/youtube]
[youtube]Vr1VWv9StPk[/youtube]
[youtube]XmsbPGgFszA[/youtube]
[youtube]j01XWcWayZw[/youtube][/more]

[more=Technical info]
Input File: 01.The Cynic And The Beggar.mp3
Channels : 2
Sample Rate : 44100
Precision : 16-bit
Duration : 00:05:20.35 = 14127347 samples = 24026.1 CDDA sectors
File Size : 12.8M
Bit Rate : 320k
Sample Encoding: MPEG audio (layer I, II or III)
Comments :
Artist=Disharmony
Album=Gods Made Of Flesh
Year=2022
Genre=12

[/more]

Register
(13) after21allD, Bzth, infozahist, metala, Nomadwarfukk, quarantine, sergsazan, Shadowman, stumpheavyrock, thenecromancer, VALERY, Wail, yinchanghanhuang,
May 1 2022, 08:47:41 Echoes Of Decay - Delirium Of Madness (2022)


*Artist: Echoes Of Decay
*Album: Delirium Of Madness
*Year: 2022
*Genre: Atmospheric Death/Doom Metal
*Country: Greece
*Format: mp3@CBR320kbps
*Size: 72MB

Tracklist:
1. Lunacy's Crescendo 07:42
2. Circles in Reverse 10:00
3. Isolation 07:48
4. Out of Body Experience 06:10
******************************
Total playing time: 31:40





[more=Technical info]
Input File: 01.Lunacy\'s Crescendo.mp3
Channels : 2
Sample Rate : 44100
Precision : 16-bit
Duration : 00:07:42.22 = 20383946 samples = 34666.6 CDDA sectors
File Size : 18.5M
Bit Rate : 320k
Sample Encoding: MPEG audio (layer I, II or III)
Comments :
Artist=Echoes Of Decay
Album=Delirium Of Madness
Year=0
Genre=12

[/more]

Register
(17) aleon, Danilodanilo, Dante_D, infozahist, kimkayoung, kluval, Mencae77, metala, Mist13Signifier, Olrak, quarantine, SatanicPanzer, sergsazan, VALERY, vyacheslav, Wail, WOLAND,
Apr 30 2022, 21:19:03 Acid Rain - Revenge [demo] (2004)


*Artist: Acid Rain
*Album: Revenge [demo]
*Year: 2004
*Genre: Epic Heavy Metal
*Country: Greece
*Format: mp3@CBR320kbps
*Size: 19MB

Tracklist:
1. Revenge 08:31
******************************
Total playing time: 8:31

[more=Technical info]
Input File: 1.Revenge.mp3
Channels : 2
Sample Rate : 44100
Precision : 16-bit
Duration : 00:08:31.31 = 22548595 samples = 38348 CDDA sectors
File Size : 20.5M
Bit Rate : 320k
Sample Encoding: MPEG audio (layer I, II or III)
Comments :
Artist=Acid Rain
Year=0
Genre=12

[/more]

Register
(1) Wail,
Apr 30 2022, 18:52:01 Echelon - Libewar [ep] (2018)


*Artist: Echelon
*Album: Libewar [ep]
*Year: 2018
*Genre: Heavy Metal
*Country: Greece
*Format: mp3@CBR320kbps
*Size: 33MB

Tracklist:
1. Confession (Intro) 02:00
2. Pictures of War 04:50
3. Unfair II 04:50
4. An Epic Journey (Outro) 02:06
******************************
Total playing time: 13:46




Preview 4

[more=Technical info]
Input File: 01 unfair II.mp3
Channels : 2
Sample Rate : 44100
Precision : 16-bit
Duration : 00:04:50.58 = 12814402 samples = 21793.2 CDDA sectors
File Size : 11.8M
Bit Rate : 324k
Sample Encoding: MPEG audio (layer I, II or III)
Comments :
Title=unfair II
Artist=ECHELON
Album=LIBEWAR
Tracknumber=1
Year=2018

[/more]

Register
(11) after21allD, artscald, caro, dimcho0, Marek, Olethros, sergsazan, strato20, stumpheavyrock, Wail, wgs73,

107 Pages V   1 2 3 > » 
- Lo-Fi Version Support form
Copyrights and abuse reports form
Time is now: 28th May 2022 - 02:29:23