Welcome Guest ( Log In | Register )

История благодарностей участнику komhs ::: Спасибо сказали: 20132 раз(а)
Дата поста: В теме: За сообщение: Спасибо сказали:
Dec 2 2021, 19:46:41 Metal Edge - Rehearsal [demo] (2006)


*Artist: Metal Edge
*Album: Rehearsal [demo]
*Year: 2006
*Genre: Heavy Metal
*Country: Greece
*Format: mp3@VBR128kbps
*Size: 25MB

Tracklist:
1.The Game
2.Forelorn
3.Farewell To The Flesh
4.Cold Touch Of Death
5,Orcish Horde
******************************
Total playing time: 26:57

[more=Technical info]
Input File: 1 - The Game.mp3
Channels : 2
Sample Rate : 44100
Precision : 16-bit
Duration : 00:05:20.69 = 14142253 samples = 24051.5 CDDA sectors
File Size : 5.14M
Bit Rate : 128k
Sample Encoding: MPEG audio (layer I, II or III)
Comments :
Title=The Game
Artist=Metal Edge
Album=Rehearsal 28/04/2006
Year=2006
Genre=12

[/more]

Register
(6) after21allD, artscald, stumpheavyrock, varlam4, wgs73, wreak,
Dec 2 2021, 19:16:11 Sorrowful Winds - The Age Of Dreams (2001)



*Format:mp3@128kbps
*Size: 43 МB.



Register
(1) wreak,
Nov 29 2021, 18:49:21 Hatred - Dark Trauma (2003)


*Format:mp3@128kbps
*Size: 42 МB.



Register
(1) wreak,
Nov 27 2021, 17:22:39 Airged L'amh - Ode To Salvation (2008)


*Format:mp3@320kbps
*Size: 118 МB.



Register
(3) stumpheavyrock, varlam4, wreak,
Nov 27 2021, 17:19:06 Airged L'amh - The Silver Arm (2004)


*Format:mp3@320kbps
*Size: 132МB.


Register
(3) stumpheavyrock, varlam4, wreak,
Nov 27 2021, 17:14:23 Airged L'amh - One Eyed God (2002)


*Format:mp3@320kbps
*Size: 107 МB.



Register
(3) stumpheavyrock, varlam4, wreak,
Nov 27 2021, 17:00:25 Powerdrops - Proud Of Our Shit [single] (1996)


*Artist: Powerdrops
*Album: Proud Of Our Shit [single]
*Year: 1996
*Genre: Power Metal
*Country: Greece
*Format: mp3@CBR320kbps
*Size: 19MB

Tracklist:
1. Just Before Death
2. Quest in Darkness
3. Fear
******************************
Total playing time: 8:21

[more=Technical info]
Input File: 1. Just Before Death.mp3
Channels : 2
Sample Rate : 48000
Precision : 16-bit
Duration : 00:04:11.07 = 12051408 samples ~ 18830.3 CDDA sectors
File Size : 10.0M
Bit Rate : 320k
Sample Encoding: MPEG audio (layer I, II or III)

[/more]

Register
(10) after21allD, boby9052, caro, chipsgott, dimcho0, Marek, stumpheavyrock, varlam4, Wail, wreak,
Nov 27 2021, 08:07:40 Insected - Killing For Recreation [demo] (2004)


*Format:mp3@320kbps
*Size: 29МB.



Register
(1) wreak,
Nov 27 2021, 07:56:44 Astral Aeon - Allegories Of Light (2008)



*Format:mp3@320kbps
*Size: 112 МB.



Register
(3) kim666, varlam4, wreak,
Nov 27 2021, 07:41:09 Zephyrous - A Caress Of War And Wisdom [ep] (1998)


*Format:mp3@192kbps
*Size: 32 МB.



Register
(2) aleon, wreak,
Nov 27 2021, 07:38:39 Zephyrous - Towards... (1999)



*Format:mp3@256kbps
*Size: 79 МB.



Register
(3) aleon, thenecromancer, wreak,
Nov 27 2021, 07:20:00 Zion - Drakula [ep] (2005)


*Format:mp3@320kbps
*Size: 60 МB.



Register
(3) aleon, varlam4, wreak,
Nov 27 2021, 07:15:21 Mournblade - Mournblade (2001)


*Format:mp3@320kbps
*Size: 116 МB.



Register
(1) MortSathynr,
Nov 26 2021, 20:21:12 Death Courier - Necrorgasm [demo] (1991)



*Format:mp3@128kbps
*Size: 8 МB.


Tracklist:
1. The Haunter of the Dark 03:48
2. Copkiller 02:56
3. Necrorgasm 02:10

Register
(2) hell_armageddon, wgs73,
Nov 21 2021, 19:36:34 Obduktion - Cover In Blood [ep] (2008)


*Artist: Obduktion
*Album: Cover In Blood [ep]
*Year: 2008
*Genre: Death Metal
*Country: Greece
*Format: mp3@CBR320kbps
*Size: 57MB

Tracklist:
1. For Victory (Bolt Thrower cover) 04:57
2. Orgasmatron (Motörhead cover) 04:08
3. Pursuit of Vikings (Amon Amarth cover) 04:56
4. Pull the Plug (Death cover) 04:46
5. Platonic Disease (Obituary cover) 04:10
6. It's on Me (Pyogenesis cover) 02:56
******************************
Total playing time: 25:53

[more=Technical info]
Input File: OBDUKTION - Cover In Blood - 01 For Victory (Bolt Thrower cover).mp3
Channels : 2
Sample Rate : 44100
Precision : 16-bit
Duration : 00:05:00.45 = 13249845 samples = 22533.8 CDDA sectors
File Size : 12.1M
Bit Rate : 323k
Sample Encoding: MPEG audio (layer I, II or III)
Comments :
Title=For Victory (Bolt Thrower cover)
Artist=OBDUKTION
Album=Cover In Blood
Tracknumber=1
Year=2008

[/more]

Register
(4) artscald, varlam4, vyacheslav, wanderer73,
Nov 21 2021, 19:28:28 Obduktion - Encounter In A Dream (2002)



*Format:mp3@320kbps
*Size: 88 МB



Register
(2) varlam4, wreak,
Nov 21 2021, 19:18:15 Obduktion - Break The Silence [demo] (2000)


*Artist: Obduktion
*Album: Break The Silence [demo]
*Year: 2000
*Genre: Death Metal
*Country: Greece
*Format: mp3@CBR320kbps
*Size: 17MB

Tracklist:
1. Corruption 03:15
2. Divine Shelter 03:35
******************************
Total playing time: 6:50

[more=Technical info]
Input File: 01-Corruption.mp3
Channels : 2
Sample Rate : 44100
Precision : 16-bit
Duration : 00:03:30.09 = 9264881 samples = 15756.6 CDDA sectors
File Size : 8.40M
Bit Rate : 320k
Sample Encoding: MPEG audio (layer I, II or III)
Comments :
Title=Corruption
Artist=Obduktion
Album=Break the Silence (Demo, 2000)
Tracknumber=1
Year=2000
Genre=Death Metal

[/more]

Register
(8) artscald, caro, julianotidre, Olethros, Proteus_666, varlam4, wanderer73, wreak,
Nov 21 2021, 18:27:17 Destructive Aggression - Sacred Path Of Hate [demo] (1997)


*Format:mp3@320kbps
*Size: 34 МB.



Register
(3) stumpheavyrock, Wail, wreak,
Nov 21 2021, 17:49:31 Vorphalack - Promo 1998 [demo] (1998)


*Artist: Vorphalack
*Album: Promo 1998 [demo]
*Year: 1998
*Genre: Black Metal
*Country: Greece
*Format: mp3@CBR320kbps
*Size: 26MB

Tracklist:
1. Angel of Light 03:47
2. Four Fiery Crowns 03:58
******************************
Total playing time: 7:45

[more=Technical info]
Input File: 1.Angel of Light .mp3
Channels : 2
Sample Rate : 44100
Precision : 16-bit
Duration : 00:03:42.62 = 9817630 samples = 16696.6 CDDA sectors
File Size : 8.90M
Bit Rate : 320k
Sample Encoding: MPEG audio (layer I, II or III)
Comments :
Artist=Vorphalack
Year=0
Genre=12

[/more]

Register
(7) artscald, cancer1974, Carcharoth, stormhatt, stumpheavyrock, vasiljev_sergej, Velkaarn,
Nov 21 2021, 17:45:09 Vorphalack - Black Sorrow For A Dead Brother [demo] (1995)


*Artist: Vorphalack
*Album: Black Sorrow For A Dead Brother [demo]
*Year: 1995
*Genre: Black Metal
*Country: Greece
*Format: mp3@CBR320kbps
*Size: 26MB

Tracklist:
1. Miserable Brother 05:43
2. In Search for Glory 05:59
******************************
Total playing time: 11:42

[more=Technical info]
Input File: 1.Miserable Brother.mp3
Channels : 2
Sample Rate : 44100
Precision : 16-bit
Duration : 00:05:50.10 = 15439498 samples = 26257.6 CDDA sectors
File Size : 14.0M
Bit Rate : 320k
Sample Encoding: MPEG audio (layer I, II or III)
Comments :
Artist=Vorphalack
Album=Black Sorrow for a Dead Brothe
Tracknumber=1
Year=1995
Genre=12

[/more]

Register
(10) artscald, cancer1974, Carcharoth, heinz88, stormhatt, stumpheavyrock, UlvhedinGrom, vasiljev_sergej, Velkaarn, wgs73,
Nov 21 2021, 17:39:24 Vorphalack - Under The Sight Of Dragon [ep] (1993)


*Format:mp3@160kbps
*Size: 14 МB.



Register
(2) stumpheavyrock, UlvhedinGrom,
Nov 19 2021, 19:55:53 Mind Revolt - Addicted To Affiction [demo] (1993)


*Artist: Mind Revolt
*Album: Addicted To Affiction [demo]
*Year: 1993
*Genre: Thrash Metal
*Country: Greece
*Format: mp3@CBR320kbps
*Size: 83MB

Tracklist:
1. Life Time Zero 02:28
2. Cancer Brains World 05:25
3. See Through My Eyes of Grief 06:38
4. Lake of Affiction 06:44
5. Non-Existence 07:17
6. Hypnotized 06:07
******************************
Total playing time: 34:39

[more=Technical info]
Input File: 02-Cancer Brains\' World.mp3
Channels : 2
Sample Rate : 44100
Precision : 16-bit
Duration : 00:05:44.10 = 15174942 samples = 25807.7 CDDA sectors
File Size : 13.8M
Bit Rate : 320k
Sample Encoding: MPEG audio (layer I, II or III)
Comments :
Title=Cancer Brains' World
Artist=Mind Revolt
Album=Addicted to Affliction (Demo, 1993)
Tracknumber=2
Year=1993
Genre=Thrash Metal, Death Metal

[/more]

Register
(12) artscald, Corpuscul, hell_armageddon, Marek, metala, METALHUNTER, Olethros, Proteus_666, Reverend, traitor666, wgs73, Z28517,
Nov 19 2021, 19:49:10 Piranha - The Exorcist [demo] (1990)


*Artist: Piranha
*Album: The Exorcist [demo]
*Year: 1990
*Genre: Thrash/Death Metal
*Country: Greece
*Format: mp3@VBR128kbps
*Size: 11MB

Tracklist:
1. Intro 00:21
2. The Exorcist 05:24
3. Deadly Arms 03:44
4. Final Chapter 01:20
******************************
Total playing time: 10:49

[more=Technical info]
Input File: 02. The Exorcist.mp3
Channels : 2
Sample Rate : 44100
Precision : 16-bit
Duration : 00:05:42.03 = 15083391 samples = 25652 CDDA sectors
File Size : 5.57M
Bit Rate : 130k
Sample Encoding: MPEG audio (layer I, II or III)
Comments :
Title=The Exorcist
Artist=Piranha
Album=1990 - The Exorcist (Demo)
Tracknumber=2
Year=1990
Genre=Death/Thrash Metal

[/more]

Register
(9) artscald, hell_armageddon, metala, Olethros, rammmirez, Reverend, Wail, wgs73, Z28517,
Nov 19 2021, 19:13:28 The Black House - Black House's Vol. 1 [demo] (1991)


*Artist: The Black House
*Album: Black House's Vol. 1 [demo]
*Year: 1991
*Genre: Thrash Metal/Crossover
*Country: Greece
*Format: mp3@CBR320kbps
*Size: 33MB

Tracklist:
1. Psycho War 02:25
2. A New Day's Affair 02:26
3. After the Invasion 03:03
4. You Are a Human 03:28
5. American Eagle 02:26
******************************
Total playing time: 13:48

[more=Technical info]
Input File: 01 - Psycho War.mp3
Channels : 2
Sample Rate : 44100
Precision : 16-bit
Duration : 00:02:25.36 = 6410200 samples = 10901.7 CDDA sectors
File Size : 5.81M
Bit Rate : 320k
Sample Encoding: MPEG audio (layer I, II or III)
Comments :
Title=Track 11
Tracknumber=11

[/more]

Register
(8) artscald, Carcharoth, hell_armageddon, metala, Olethros, Reverend, varlam4, wgs73,
Nov 19 2021, 19:10:46 Resurrection - Promo 2020 [demo] (2020)


*Artist: Resurrection
*Album: Promo 2020 [demo]
*Year: 2020
*Genre: Thrash Metal
*Country: Greece
*Format: mp3@CBR320kbps
*Size: 25MB

Tracklist:
1. 70.000 Bombs 04:55
2. Seeds of Death 06:13
******************************
Total playing time: 11:08

[more=Technical info]
Input File: 1.70.000 Bombs.mp3
Channels : 2
Sample Rate : 44100
Precision : 16-bit
Duration : 00:04:55.35 = 13024847 samples = 22151.1 CDDA sectors
File Size : 11.8M
Bit Rate : 320k
Sample Encoding: MPEG audio (layer I, II or III)
Comments :
Artist=Resurrection
Album=promo
Year=2020
Genre=12

[/more]

Register
(7) after21allD, artscald, Marek, metala, Olethros, stumpheavyrock, wgs73,

100 Pages V   1 2 3 > » 
- Lo-Fi Version Support form
Copyrights and abuse reports form
Time is now: 5th December 2021 - 00:08:26