Welcome Guest ( Log In | Register )

История благодарностей участнику Leolomb ::: Спасибо сказали: 567 раз(а)
Дата поста: В теме: За сообщение: Спасибо сказали:
Jun 10 2018, 06:01:46 Sallow Moth - Deathspore [ep] (2018)


*Artist: Sallow Moth
*Album: Deathspore [ep]
*Year: 2018
*Genre: Death Metal
*Country: United States
*Format: mp3@CBR320kbps
*Size: 43MB

Tracklist:
1. Death Scent, the Control and Remand 04:22
2. Primal Command 02:21
3. Privilege or Misery (Fatesealer) 01:55
4. Emerald Dust in the Crevices and Orifices of Man, the Manamorphose 04:39
5. Flight of the Mothlord Eclipse 04:21
******************************
Total playing time: 17:38



[more=Technical info]
Input File: 02 - Primal Command.mp3
Channels : 2
Sample Rate : 44100
Precision : 16-bit
Duration : 00:02:21.21 = 6227273 samples = 10590.6 CDDA sectors
File Size : 5.91M
Bit Rate : 335k
Sample Encoding: MPEG audio (layer I, II or III)
Comments :
Title=Primal Command
Artist=SALLOW MOTH
Album=2018 - Deathspore
Tracknumber=02/05
Year=2018
Genre=Death Metal

[/more]

Register
(5) Rosen, terron, VALERY, wreak, Герб,
May 29 2018, 01:29:26 夢遊病者 - 統合失調症の飢餓 [ep] (2015)
QUOTE(Penetralia @ May 28 2018, 19:55:58) *
Не длинновато ли?

Lo bueno, si breve, dos veces bueno; y aun lo malo, si poco, no tan malo - 'Oráculo Manual y Arte de Prudencia' de Baltasar Gracián 9.gif
(1) Penetralia,
May 27 2018, 19:55:59 Zeal And Ardor - Zeal And Ardor (2014)


*Artist: Zeal And Ardor
*Album: Zeal And Ardor
*Year: 2014
*Genre: Experimental Black Metal
*Country: International
*Format: mp3@CBR320kbps
*Size: 55MB

Tracklist:
1- A Spiritual (2:39)
2- Death Of A Billion (2:25)
3- Intermezzo I (Getting Better) (1:45)
4- Caged (2:20)
5- Bounty (2:44)
6- Intermezzo II (Drain It) (1:37)
7- The Lesser Key (2:29)
8- Bellator Halli Rha (2:56)
9- Intermezzo III (Pretty Things) (3:13)
10- Zeal And Ardor (2:49)
******************************
Total playing time: 24:57



[more=Technical info]
Input File: 02 - Death Of A Billion.mp3
Channels : 2
Sample Rate : 44100
Precision : 16-bit
Duration : 00:02:25.81 = 6430045 samples = 10935.5 CDDA sectors
File Size : 5.89M
Bit Rate : 323k
Sample Encoding: MPEG audio (layer I, II or III)
Comments :
Title=Death Of A Billion
Artist=ZEAL & ARDOR
Album=2014 - Zeal And Ardor
Tracknumber=02/10
Year=2014
Genre=Avant-Garde Metal

[/more]

Register
(15) infiltrator, kimkayoung, KVRT, marilin, metala, nugorod, Rosen, Spritznkarli, templ, Tular, VALERY, varg-38ru, vasiljev_sergej, yuratroll, zerger,
May 27 2018, 19:30:47 夢遊病者 - 統合失調症の飢餓 [ep] (2015)


*Artist: 夢遊病者
*Album: 統合失調症の飢餓 [ep]
*Year: 2015
*Genre: Experimental Black Metal
*Country: Japan
*Format: mp3@CBR320kbps
*Size: 14MB

Tracklist:
1. I 00:51
2. II 01:35
3. III 01:59
4. IV 01:36
******************************
Total playing time: 6:01



[more=Technical info]
Input File: 01 - I.mp3
Channels : 2
Sample Rate : 44100
Precision : 16-bit
Duration : 00:00:51.07 = 2252363 samples = 3830.55 CDDA sectors
File Size : 2.09M
Bit Rate : 328k
Sample Encoding: MPEG audio (layer I, II or III)
Comments :
Title=I
Artist=е¤ўйЃЉз—…иЂ…
Album=2016 - 統合失調症の飢餓
Tracknumber=01/04
Year=2016
Genre=Psychedelic Black Metal

[/more]

Register
(9) Emhyr var Emreis, infiltrator, kimkayoung, Ostinato, Rosen, smysl, valafar, VALERY, vasiljev_sergej,
Nov 6 2017, 01:43:50 Speed Whore - The Inferno Tapes [demo] (2013)
QUOTE(Wail @ Nov 5 2017, 19:14:19) *
Any chance to re-up

you can download it for free in many format on their bandcamp page 9.gif
(1) Genuine Thrashiac,
Oct 6 2017, 11:01:32 La Fin De La Société Telle Que Nous La Connaissons - La Fin De La Société (2017)
QUOTE(rewa @ Oct 6 2017, 03:32:49) *
Leolomb,

thanks but what is the password? I ve tried metalarea.org and nothing
(1) murian,
Aug 18 2017, 22:58:33 Paysage D'Hiver - Winterkälte [demo] (2002)
QUOTE(Occultas @ Aug 18 2017, 16:15:04) *
anyone reup reissue, please

https://www.sendspace.com/file/zt9git enjoy! 9.gif
(4) Luminous, Occultas, thenecromancer, varg-38ru,
Apr 25 2017, 01:27:14 Immortal War - Hell's Razor [demo] (2017)


*Artist: Immortal War
*Album: Hell's Razor [demo]
*Year: 2017
*Genre: Blackened Speed Metal
*Country: United States
*Format: mp3@CBR320kbps
*Size: 25MB

Tracklist:
1. Clawing at Your Grave 02:29
2. Witches Smile 02:33
3. Steal Your Thunder 02:58
4. Hell's Razor 02:37
******************************
Total playing time: 10:37



[more=Technical info]
Input File: 01 - Clawing At Your Grave.mp3
Channels : 2
Sample Rate : 44100
Precision : 16-bit
Duration : 00:02:28.57 = 6552025 samples = 11142.9 CDDA sectors
File Size : 6.05M
Bit Rate : 326k
Sample Encoding: MPEG audio (layer I, II or III)
Comments :
Title=Clawing At Your Grave
Artist=IIMORTAL WAR
Album=Hell's Razor
Tracknumber=1
Year=2017
Genre=Blackened Speed Metal

[/more]

Register
(3) artscald, satanist666, wgs73,
Jan 7 2017, 02:32:26 Motor - Turbopower [demo] (2010)
QUOTE(Weltenfeind666 @ Feb 3 2015, 18:50:52) *
pls reupload

you can download it from bandcamp for free
(3) Genuine Thrashiac, METALHUNTER, varlam4,
Oct 10 2016, 00:28:25 Shakma - Night Of Torment [demo] (2016)
mmm no, to modern for me, besides it has nothing in common with shakma's sound
(1) Genuine Thrashiac,
Sep 28 2016, 16:16:42 Sorcerer - Sorcerer Demo '12 [demo] (2015)
QUOTE(Genuine Thrashiac @ Sep 17 2016, 03:50:18) *
thanks, fixed. smile1.gif

now that you fix the link I ve heard the band and its fucking awesome, that pounding drum its great, and those experimental solos here and there are cool, thanks a looot man 9.gif
(1) Genuine Thrashiac,
Sep 28 2016, 01:26:19 Shakma - Night Of Torment [demo] (2016)
CULT MOVIE! THAT MONKEY WAS A BRUTAL MOTHERFUCKER.

FUUUUUCKKK GREAT BAND TOO!!! metaler.gif TAHANKS A LOT MAN!!! 9.gif
(1) Genuine Thrashiac,
Sep 21 2016, 23:15:52 Paysage D'Hiver & Vinterriket - Schnee/Das Winterreich [split] (2003)
320 kbps / Lossless? anyone please
(2) infiltrator, Occultas,
Sep 21 2016, 23:14:02 Paysage D'hiver & Lunar Aurora - Paysage D'hiver/Lunar Aurora [split] (2004)
can someone re up this one in 320 please
(1) Occultas,
Sep 17 2016, 02:28:51 Sorcerer - Sorcerer Demo '12 [demo] (2015)
wrong bandcamp link
(1) Genuine Thrashiac,
Aug 13 2016, 13:55:21 Rotten - Rotting To Death (2016)
the bandcamp link is for another band
(2) Genuine Thrashiac, infiltrator,
Apr 30 2014, 18:03:48 Lantlôs - Melting Sun (2014)
fuuuuuuck! what has happened to Lantlôs???!!! It's Alcest with awful vocals now U___U,
(1) nsk2008,
Nov 13 2011, 19:51:16 Midnight - Satanic Royalty (2011)


*Artist: Midnight
*Album: Satanic Royalty
*Year: 2011
*Genre: Blackened Speed Metal
*Country: United States
*Format: mp3@CBR320kbps
*Size: 64MB

Tracklist:
1. Satanic Royalty 03:23
2. You Can't Stop Steel 03:22
3. Rip This Hell 02:50
4. Necromania 03:43
5. Black Damnation 03:17
6. Lust, Filth And Sleaze 03:12
7. Violence On Violence 02:05
8. Savage Dominance 03:27
9. Holocaustic Deafening 01:37
10. Shock 'Til Blood 03:21
******************************
Total playing time: 30:17



Register
(86) aesteticvice, AHBAnep, Ainar, Ambercandle, Any-maL, aosoth, Aphrax, armored, AshenLight, atavist, Atr, Barricade, Beazth, bloodwind, Boozer, CORPSEMIXA, crestfallen999, D.S.Embassy, Daale, DarkHorde, DarkYantar, desekrator, eilrailehttel, Endymion, Fatalv, Fess, foad, fticek, fuck3r, garretje, ghaaran, GloomyDeath, HA7tur, hastur, hellfired, Hellstriker, ilya119911, infiltrator, iriktaru, killingod, Kisser, kyrkovisan, LordDark, lordsloth, lunaraurora, madhammer, marilin, metal73, metala, milosdjor, Naastmorkh, neoatheist, oldvarg, rammstein888, REXAR, SaintVitus, SameMan, SAPOGi, satanas189, Scuns, sfastov, shinobi 20XX, smysl, spiritualdecay666, terricide, Thunderbird, Tino, Typhon88, Ugly13, v.v.m, varlam4, varyag, Vogar, wgs73, whitebros, wrath082, wreak, xska, ZA670, Zomboth, Варонъ, Волос, Лед, некрософ, Смусмумбрик, Фо,
Aug 29 2011, 23:46:35 Skull Fist - Head öf The Pack (2011)
awesome band!!! attack attack it's a tokyo blade cover.
(1) northerking,
May 18 2011, 18:49:24 Boris - Attention Please (2011)


*Artist: Boris
*Album: Attention Please
*Year: 2011
*Genre: Stoner Rock
*Country: Japan
*Format: mp3@CBR192kbps
*Size: 60MB

Tracklist:
1. Attention Please 05:12
2. Hope 03:26
3. Party Boy 03:51
4. See You Next Week 03:56
5. Tokyo Wonder Land 05:42
6. You 06:13
7. Aileron 02:01
8. Les Paul Custom '86 02:09
9. Spoon 04:16
10. Hand in Hand 04:30
******************************
Total playing time: 41:16



Register
(15) Ditchka, Emhyr var Emreis, fuck3r, Galactus, garretje, jugenetooms, Jurmagund, KVRT, LiarOfAngmar, Oskulum, sarcophagus, Shub, Terry, trib, Wolfera,
May 17 2011, 16:40:50 Boris - Heavy Rocks (2011)


*Artist: Boris
*Album: Heavy Rocks
*Year: 2011
*Genre: Stoner Rock
*Country: Japan
*Format: mp3@CBR192kbps
*Size: 70MB

Tracklist:
1. Riot Sugar 03:56
2. Leak -Truth, yesnoyesnoyes- 05:12
3. Galaxians 04:09
4. Jackson Head 03:00
5. Missing Pieces 12:22
6. Key 01:46
7. Window Shopping 03:57
8. Tu, la la 04:17
9. Aileron 12:45
10. Czechoslovakia 01:36
******************************
Total playing time: 53:00



Register
(19) Ambercandle, Daale, DragonSlayer, Drojnan, Emhyr var Emreis, ENDSMOUTH, fuck3r, garretje, J0k3r, jugenetooms, Jurmagund, KVRT, satanath, Sperm_Blaster, Terry, VALERY, Vinterskygge, Wolfera, Самаэль,
Mar 29 2011, 17:36:10 Bohren & Der Club Of Gore - Beileid (2011)
thanks man! catch my heart is a Warlock's cover.
(1) Old Vyaine,
Nov 26 2010, 03:54:16 Vomitor - Bleeding The Priest (2002)
QUOTE(Spork @ Jul 21 2010, 01:51:53) *
Anyone got it at a bit rate higher than 192?

320kbps
Register

enjoy! 9.gif
(2) BioMax, fticek,
Nov 15 2010, 14:02:57 Acid Witch - Witch House [ep] (2009)
320 please.
(2) Borderline1991, vrede,
Aug 24 2010, 02:22:54 Mortifera - Maledictiih (2010)
Register
320kbps
(7) macchipazzi, nsk2008, Rattenkonig, satanist666, troll_swamp, varg-38ru, Лицемер,

5 Pages V   1 2 3 > » 
- Lo-Fi Version Support form
Copyrights and abuse reports form
Time is now: 14th July 2020 - 11:10:56