Welcome Guest ( Log In | Register )

История благодарностей участнику tireheb ::: Спасибо сказали: 534 раз(а)
Дата поста: В теме: За сообщение: Спасибо сказали:
Feb 2 2019, 21:19:56 Invoker - The Dark Acts (1988 - 1991) [compilation] (2019)
ЦИТАТА(www @ Feb 2 2019, 22:07:45) *
интересует такого рода обскурный мрак из латины, может кто-то порекомендовать нечто подобное?
сепу с сакрофагой и холокостой не предлагать.

Послушай Impurity, Necrolust, Satanic Ritual, Nuclear Hell, Behemoth (бразильский разумеется), Exterminator, Black Mass, Bestymator, Armmagedon
(1) www,
Sep 29 2018, 13:18:29 Evil Blood - Midnight In Sodom [best of/compilation] (2011)
Это Прекрасно!!!
(1) Baron_Steele,
Sep 24 2018, 18:51:40 Blitzkrieg - The Boys From Brazil Street: 1981 Revisited - The Archives Vol. 1 [compilation] (2014)
Спасибо огромное! Давно искал!
(2) Baron_Steele, Wail,
Sep 21 2018, 15:42:51 Demon Pact - Released From Hell [best of/compilation] (2010)
Одна из любимейших NWOBHM банд! Как раз недавно cd себе отхватил.
(1) Baron_Steele,
Sep 19 2018, 16:31:10 Virtue - We Stand To Fight [best of/compilation] (2013)
Шикарная вещь!!!
(1) Baron_Steele,
Nov 6 2017, 17:11:46 Invoker - Rites Of The Prophetic Winds [demo] (1990)
ЦИТАТА(Blake @ Nov 6 2017, 01:08:21) *
CBR192kbps Не могу поверить, что других записей (а их еще 6 + 1 бутлежная сборка репетиций) этой банды никто так и не выложил на портал.


Чё-то хрень какая-то... по ссылке - 2 трека с одной из демок Necrophagia
Oct 13 2017, 15:29:13 Poison
Спасибо огромное, давно искал!!!
Dec 14 2016, 10:10:36 Teitanblood - Accursed Skin [ep] (2016)
2 песни в таком духе ещё можно послушать, но если бы это был полноформат минут на 45-50 - было бы такое же жуткое УГ как и Death.
А вообще, лучше ещё раз переслушать Seven Chalices, и ни о чём не думать.
(1) Anhra Mainyu,
Apr 4 2016, 11:03:16 Morbid Angel - Morbid Angel Xx-xx-1984 Tampa, FL USA [bootleg] (1984)
Я вообще поклонник живого и грязного звука. По мне идеальный саунд был на бутлеге Destruction 84 года, который ты недавно выкладывал
(1) AlexStorm,
Mar 25 2016, 09:41:12 Celtic Frost - Live In Zum Rebstock, Giessen, Germany 1985.05.31 [bootleg] (1985)
Абигор, Thanxxx!!! А то уже задрали в край со своим тухлым ифолдером.
(1) satyro1980,
Mar 1 2016, 19:17:18 Nifelheim - Satanatas [ep] (2014)
ЦИТАТА(vosmidesijatye @ Feb 29 2016, 23:12:12) *
Никогда не понимал культовости сей банды - тот же Дистроер 666 много круче, да и вообще - переоценённая команда. Но влияшки они, да.


Хотел было написать свой отзыв, но после такого исчерпывающего комментария, чувствую, мне тут делать нечего... Когда ж тебя наконец-то забанят, эксперт хренов???
(3) DarkHorde, templ, UlvhedinGrom,
Feb 28 2016, 10:40:20 Mefisto - 2.0.1.6: This Is The End Of It All... The Beginning Of Everything (2016)
Ребята остались верными себе - как в 80х играли жуткое говнище, так и продолжают сейчас!
(1) Anhra Mainyu,
Dec 12 2015, 11:27:26 Batushka - Litourgiya (2015)
Это даже не днище - это уже снизу стучат...
(4) Buregon, Evilded, infiltrator, Synthaeon,
Dec 1 2015, 19:00:29 Barathrum - Jetblack Warmetal [compilation] (2014)
Интересно будет послушать, хотя ранее, сколько не пытался - ничего хорошего в них не находил.
(1) Спектр,
Aug 31 2015, 19:14:57 Вспомнить всё: Лучший Альбом 1985 года (ч.1)
Bathory - The Return... (лчший не только в 85, но и воообще навсегда!)
Celtic Frost - To Mega Therion
Kat - Metal & Hell
Destruction - Infernal Overkill
Sepultura - Bestial Devastation
Slayer - Hell Awaits
Razor -Evil Invaders
Possessed - Seven Churches
(2) Shadowman, Язва,
Aug 2 2015, 12:21:36 Dorsal Atlantica - Live In Ginastico 1986 [bootleg] (1986)


*Artist: Dorsal Atlantica
*Album: Live In Ginastico 1986 [bootleg]
*Year: 1986
*Genre: Thrash/Death Metal
*Country: Brazil
*Format: mp3@CBR192kbps
*Size: 30MB

Tracklist:
1. Cacador Da Noite 03:18
2. HTLV-3 05:02
3. Joseph Mengele 04:28
4. Depressa Suicida 04:05
5. Alcool 05:49
6. P.C.D. 03:13
******************************
Total playing time: 25:55

Register
(8) Evilded, Hell_Is_Here, morbidangelo, Rosen, thenecromancer, varlam4, wreak, Абигор,
Jul 25 2015, 08:51:47 Dorsal Atlantica - Victory [single] (1988)


*Artist: Dorsal Atlantica
*Album: Victory [single]
*Year: 1988
*Genre: Thrash/Death Metal
*Country: Brazil
*Format: mp3@CBR320kbps
*Size: 26MB

Tracklist:
1. Victory 04:02
2. Dweller of the Streets 05:01
******************************
Total playing time: 9:03

[more=Technical info]
Input File: 01 Victory.mp3
Channels : 2
Sample Rate : 44100
Precision : 16-bit
Duration : 00:04:01.58 = 10653634 samples = 18118.4 CDDA sectors
File Size : 11.0M
Bit Rate : 365k
Sample Encoding: MPEG audio (layer I, II or III)
Comments :
Title=Victory
Artist=Dorsal Atlantica
Album=Victory, b/w Dweller of the Streets 7"
Tracknumber=1/2
Year=1988
Genre=Thrash Metal

[/more]

Register
(10) cancer1974, Evilded, morbidangelo, Proteus_666, Rosen, varlam4, wanderer73, wgs73, wreak, Абигор,
Jun 19 2015, 07:03:13 Watain - Tonight We Raise Our Cups And Toast In Angels Blood: A Tribute To Bathory [live] (2015)
ЦИТАТА(Sangreal @ Jun 19 2015, 07:48:23) *
fear.gif
пожалуй, предпочту старую компиляшку "In Conspiracy With Satan (A Tribute To Bathory)"


Пожалуй предпочту в тысячный раз послушать оригиналы.
(5) Idunn, killboyhead, Lucifer, Sangre, templ,
Mar 12 2015, 04:50:57 Demon - Live At The Marquee Club (06.08.1982) [bootleg] (1982)


*Artist: Demon
*Album: Live At The Marquee Club (06.08.1982) [bootleg]
*Year: 1982
*Genre: NWOBHM/Heavy Metal
*Country: United Kingdom
*Format: mp3@CBR320kbps
*Size: 141MB

Tracklist:
01. Full Moon
02. All The Work Of The Devil
03. Into The Nightmare
04. Night Of The Demon
05. Sign Of A Madman
06. Total Possession
07. Don't Break The Circle
08. Father Of Time
09. Decisions
10. Liar
11. Have We Been Here Before?
12. One Helluva Night
13. Deliver Us From Evil
******************************
Total playing time: 1:01:46

[more=Extended info]Audience recording[/more]

[more=Technical info]
Input File: London 1982 Track 04 Night Of The Demon.mp3
Channels : 2
Sample Rate : 44100
Precision : 16-bit
Duration : 00:03:22.29 = 8920901 samples = 15171.6 CDDA sectors
File Size : 8.09M
Bit Rate : 320k
Sample Encoding: MPEG audio (layer I, II or III)
Comments :
Title=Night Of The Demon
Artist=Demon
Album=Live At The Marquee Club (06-08-1982)
Tracknumber=4
Year=1982

[/more]

Register
(5) morbidangelo, Reverend, Rosen, smog, wreak,
Feb 24 2015, 19:56:38 Последователи ABRUPTUM.
Ещё только их последователей нам не хватало.....
(2) Battaleon, tormoz,
Jan 10 2015, 11:16:34 Satarial - Ad Maiorum Satan Glorium [demo] (1989)
Чё за гон вообще???
Это треки с демок венгерского Angel Reaper.
(1) Chasm,
Nov 9 2014, 09:53:35 2014. BM. Альбомы года.
Пока в этом году одни только разочарования.
(1) Paatddal,
Sep 8 2014, 10:25:03 Sabbat - Live In Tokyo, Japan, 03-11-1986 [bootleg] (1986)


*Artist: Sabbat
*Album: Live In Tokyo, Japan, 03-11-1986 [bootleg]
*Year: 1986
*Genre: Thrash Metal
*Country: Japan
*Format: mp3@CBR320kbps
*Size: 88MB

Tracklist:
01. Intro - Welcome To Sabbat 03:08
02. Splatter (Part I) 04:11
03. Splatter (Part II) 01:34
04. Children Of Hell 04:01
05. Black Fire 04:40
06. Immortality Of The Soul 06;33
07. Possessed the Room (Kanashibari Part I) 05:32
08. Poison Child 07:00
09. Mion's Hill 03:17
******************************
Total playing time: 33:23

[more=Technical info]
Input File: 01. Intro-Welcome To Sabbat.mp3
Channels : 2
Sample Rate : 44100
Precision : 16-bit
Duration : 00:03:08.21 = 8299885 samples = 14115.5 CDDA sectors
File Size : 7.53M
Bit Rate : 320k
Sample Encoding: MPEG audio (layer I, II or III)
Comments :
Title=Intro - Welcome To Sabbat
Artist=Sabbat
Album=Live in Tokyo, Japan 03/11-1986
Tracknumber=1

[/more]

Register
(8) Diflock, Hell_Is_Here, marilin, morbidangelo, Reverend, Rosen, wreak, Xutun,
Aug 3 2014, 13:42:04 Agressor - Rehearsal Of Death [demo] (1987)
Да, вроде как переиздание 2009-года.
Aug 3 2014, 12:10:44 Witches Hammer - Witches Hammer [demo] (1985)


*Artist: Witches Hammer
*Album: Witches Hammer [demo]
*Year: 1985
*Genre: Speed/Thrash Metal
*Country: Canada
*Format: mp3@CBR192kbps
*Size: 26MB

Tracklist:
1. Thulsa Doom 02:56
2. Rabid Captor 02:55
3. FrozenGod + Witches Hammer 05:23
4. Gorgon 02:50
5. Mantle of Death 05:03
******************************
Total playing time: 19:07

Register
(11) gwar, ilsestomartire, LightWizard, marilin, morbidangelo, Rosen, sacrut, Tundra, varlam4, wreak, ZA670,

5 Pages V   1 2 3 > » 
- Lo-Fi Version Support form
Copyrights and abuse reports form
Time is now: 26th August 2019 - 05:33:48