Welcome Guest ( Log In | Register )

История благодарностей участнику THERION ::: Спасибо сказали: 1878 раз(а)
Дата поста: В теме: За сообщение: Спасибо сказали:
Feb 23 2019, 02:52:39 Селезнёв-Гукленгоф - Союзthrashфильм (2018)


*Artist: Селезнёв-Гукленгоф
*Album: Союзthrashфильм
*Year: 2018
*Genre: Funny Metal
*Country: Russian Federation
*Format: mp3@CBR320kbps
*Size: 126MB

Tracklist:
1. Карусель (0:48)
2. Песенка мышонка (3:05)
3. В траве сидел кузнечик (2:23)
4. Антошка (2:21)
5. Про мёд (2:12)
6. Бандито-гангстерито (2:33)
7. Весёлый цыплёнок (3:12)
8. Кто ходит в гости по утрам (3:18)
9. Песенка о лете (3:35)
10. Кто людям помогает (3:01)
11. Трам-пам-пам (1:43)
12. А вподмосковье водятся лещи (1:46)
13. Чунга-чанга (3:16)
14. И я того же мнения (2:53)
15. Дюдюка барбидокская (2:29)
16. Песня Бастинды (2:34)
17. В голове моей опилки (1:49)
18. Песенка страхов (2:33)
19. О маркизе Карабасе (2:26)
20. Песня людоеда (2:29)
21. Волшебник изумрудного города (3:13)
22. Волшебник изумрудного города 2 (1:31)
******************************
Total playing time: 55:10

[more=Technical info]
Input File: 01-Карусель.mp3
Channels : 2
Sample Rate : 48000
Precision : 16-bit
Duration : 00:00:48.46 = 2326032 samples ~ 3634.43 CDDA sectors
File Size : 1.94M
Bit Rate : 320k
Sample Encoding: MPEG audio (layer I, II or III)
Comments :
Title=Карусель
Artist=СЕЛЕЗНЁВ-ГУКЛЕНГОФ
Album=СоюзThrashФильм
Tracknumber=1
Year=2018
Genre=Thrash Metal

[/more]

Register
(4) Aresson, hammer, METALHUNTER, SatanicPanzer,
Oct 12 2017, 00:33:57 ОБОСТРЕНИЕ FEST
Друзья! Мучу очередной движ, приезжайте!




[youtube]yBmOy1MJJ20[/youtube]

Встреча в ВК https://vk.com/obostrenie_in_btr

[more="Как это было летом:"]
[youtube]5V5B8TgB9ho[/youtube]
[youtube]b9L_0w8xVOU[/youtube]
[youtube]x_C8uLdC0wU[/youtube]
[youtube]czzj2P3DH6I[/youtube]
[youtube]HbAWKiZb6vE[/youtube]
[youtube]gGz57TWj-QE[/youtube][/more]

[more="Как это было весной:"]
[youtube]WrurdBT5PUA[/youtube]
[youtube]ddZF2PUg2YM[/youtube]
[youtube]XKeiEuFpoyA[/youtube][/more]
(1) DarkHorde,
Oct 4 2017, 02:26:54 Manic Depression - 11 приступов депрессии (2017)


*Artist: Manic Depression
*Album: 11 приступов депрессии
*Year: 2017
*Genre: Thrash Metal
*Country: Russian Federation
*Format: mp3@CBR320kbps
*Size: 120MB

Tracklist:
1. Суицид на поле боя 05:28
2. Всемирный хаос 04:15
3. Судьба Атлантиды 05:22
4. Гетто 03:57
5. Памяти непрощенных 05:03
6. Техносумашествие 03:35
7. Разделенный народ 05:02
8. Кошмарореальность 03:47
9. Позиция несогласия 04:45
10. Потерянный во времени 06:42
11. Слова ненависти 03:57
******************************
Total playing time: 51:53

[more=Technical info]
Input File: 06 - Техносумашествие.mp3
Channels : 2
Sample Rate : 48000
Precision : 16-bit
Duration : 00:03:35.07 = 10323216 samples ~ 16130 CDDA sectors
File Size : 8.60M
Bit Rate : 320k
Sample Encoding: MPEG audio (layer I, II or III)
Comments :
Title=Техносумашествие
Artist=MANIC DEPRESSION
Album=11 приступов депрессии
Tracknumber=6
Year=2017
Genre=Thrash Metal

[/more]

Register
(40) andreikun, apostol_13, Aresson, avkruchinin, boby9052, cesar, Darkness, Diflock, DMIYUR, DTGB, ExeThrash, gwar, igorzz, infozahist, metala, Metalass, METALHUNTER, MetallWarriorRus, Mihalik, older68, oldvarg, Paradayz, Penetralia, pensiata, potap03020100, rabindranad, Reverend, Rosen, RotAnus, stone88, SymbyoticEntity, TeamatSE, Thrashman, VALERY, varlam4, victorinox, vir2al, wgs73, wreak, Сварог Барг,
Oct 4 2017, 02:02:28 Various Artists - Bipolar Disorder - Tribute To Manic Depression (2016)


*Artist: Various Artists
*Album: Bipolar Disorder - Tribute To Manic Depression
*Year: 2016
*Genre: Thrash Metal
*Country: Russian Federation
*Format: mp3@CBR320kbps
*Size: 135MB

Tracklist:
1. NEURASTHENIA - Nightmareality (3:40)
2. СТАХАНОВЦЫ - Memories of non forgiveness (5:11)
3. MURDERLUST - New world disorder (4:06)
4. DELITIUM SILENCE - Леденящая вечность (5:59)
5. KAAK - Fell so low (4:36)
6. VERITAMORPH - Suicide on the battlefield (5:10)
7. ETNA - Evil in disguise (3:21)
8. STEEL WIZARD - Buried alive (4:30)
9. КОМА - Uncertainity (2:21)
10. FORMALINE - Afterlife (3:35)
11. ADEST - Words of hate (3:52)
12. MESSAGE TO OMEGA - Box of lies (4:28)
13. ЛОГОВО МЁРТВЫХ - Ghetto (4:03)
14. MEGBEGB - No future (4:15)
******************************
Total playing time: 59:07

[more=Technical info]
Input File: 02 - СТАХАНОВЦЫ - Memories of non forgiveness.mp3
Channels : 2
Sample Rate : 48000
Precision : 16-bit
Duration : 00:05:12.00 = 14976144 samples ~ 23400.2 CDDA sectors
File Size : 12.5M
Bit Rate : 320k
Sample Encoding: MPEG audio (layer I, II or III)
Comments :
Title=Memories of non forgiveness
Artist=СТАХАНОВЦЫ
Album=Bipolar disorder - Tribute to Manic Depression
Tracknumber=2
Year=2016
Genre=Thrash Metal

[/more]

Register
(5) METALHUNTER, Rosen, SymbyoticEntity, varlam4, wreak,
Apr 21 2017, 18:04:11 Neocaesar - 11:11 (2017)


*Artist: Neocaesar
*Album: 11:11
*Year: 2017
*Genre: Death Metal
*Country: Netherlands
*Format: mp3@CBR320kbps
*Size: 100MB

Tracklist:
1. Initial Novum (Intro) 01:59
2. From Hell 04:25
3. Victims of Deception 05:00
4. Invocation of the Watcher 02:35
5. Sworn to Hate 05:38
6. Valhalla Rising 03:44
7. Prelude to Darkness 03:36
8. Angelic Carnage 05:45
9. Sigillorum Satanas 03:20
10. Blood of the Nephilim 07:52
******************************
Total playing time: 43:54

[more=Extended info]Band are:

Michel Alderliefsten Bass (2013-present)
(Houwitser, ex-Khaoz, ex-Sinister)
Eric de Windt Drums (2013-present)
(Temple, Supreme Pain, ex-Deströyer 666, ex-Inhume, ex-Prostitute Disfigurement, ex-Severe Torture, ex-Sinister, ex-Warfather)
Bart van Wallenberg Guitars (2013-present)
(ex-Bleeding Gods, ex-Endor, ex-Sinister)
Mike van Mastrigt Vocals (2013-present)
(Houwitser, ex-Sorcerer, ex-Sinister, ex-Division 666)[/more]

[more=Technical info]
Input File: 01-Initial Novum (Intro).mp3
Channels : 2
Sample Rate : 44100
Precision : 16-bit
Duration : 00:01:59.55 = 5272155 samples = 8966.25 CDDA sectors
File Size : 4.78M
Bit Rate : 320k
Sample Encoding: MPEG audio (layer I, II or III)
Comments :
Title= Initial Novum (Intro)
Artist=NEOCAESAR
Album=11:11
Tracknumber=1
Year=2017
Genre=Death Metal

[/more]

Register
(19) BRUTAL06, cuimit1349, ddarkthrone, Friman, igore2911, jollo, judaz, Leshiy666, METALHUNTER, milosdjor, Mist13Signifier, Necroeire, potap03020100, Rosen, SadistikSlayer, Samaritianin, SymbyoticEntity, TeamatSE, vov7609,
Apr 18 2017, 23:46:36 Various Artists - A Lake Of Ghosts... The Long Shadow Of My Dying Bride [best of/compilation] (2017)


*Artist: Various Artists
*Album: A Lake Of Ghosts... The Long Shadow Of My Dying Bride [best of/compilation]
*Year: 2017
*Genre: Doom/Death Metal
*Country: Many
*Format: mp3@VBR128kbps
*Size: 147MB

Tracklist:
1. OMIT - Feel The Misery (6:42)
2. DYING SUN - Only Tears To Replace Her With (4:48)
3. MEMOIRS - Like a Perpetual Funeral (7:59)
4. HAIKU FUNERAL - The Wreckage Of My Flesh (8:34)
5. THE HOWLING VOID - A Doomed Lover (7:04)
6. OF SPIRE & THRONE - In Silence (6:15)
7. SOL - Le Figlie Della Tempesta (7:19)
8. HELA - For My Fallen Angel (5:48)
9. MUSHROOM FUZZ - Two Winters Only (8:47)
10. CAMEL OF DOOM - The Cry Of Mankind (10:05)
11. UNTIL DEATH OVERTAKES ME - Sear Me MCMXCIII (11:55)
12. FOREVER AUTUMN - The Crown Of Sympathy (11:13)
13. NARROW HOUSE - The Bitterness And The Bereavement (6:55)
14. ABYSMAL GROWLS OF DESPAIR - Sear Me (8:49)
15. ESTRANGEMENT - De Sade Soliloquy (6:37)
16. MEKIGAH - God Is Alone (5:50)
17. VITA DOLOROSA - She Is the Dark (9:07)
******************************
Total playing time: 2:13:47

Register
(9) armagedeon, Branis, Doooomed, infozahist, KVRT, marilin, Rosen, VALERY, Герб,
Apr 18 2017, 23:34:20 Various Artists - Mires Of Sorrow: A Tribute To My Dying Bride [best of/compilation] (2016)


*Artist: Various Artists
*Album: Mires Of Sorrow: A Tribute To My Dying Bride [best of/compilation]
*Year: 2016
*Genre: Doom/Death Metal
*Country: Many
*Format: mp3@CBR320kbps
*Size: 571MB

Tracklist:
1. THE UNKNOWN - The Cry Of Mankind (6:05)
2. TETHRA - Drifting Islands (7:08)
3. GREY SKIES FALLEN - From Darkest Skies (8:01)
4. ANGUISH SUBLIME - Thy Raven Wings (5:25)
5. DOMINIA - Two Winters Only (9:29)
6. MATT FORD - Black God (4:51)
7. GOD EAT GOD - Elegy (8:50)
8. VISIONED FRAILTY - Like Gods Of The Sun (7:10)
Bonus tracks:
9. A DREAM OF POE - For My Fallen Angel (8:06)
10. A PERFECT DAY (feat. STELLAFERA) - The Whore, The Cook And The Mother (10:58)
11. A SORROWFUL DREAM - Passion (6:17)
12. ANLIPNES - The Raven And The Rose (6:59)
13. ANNA PEST - Sear Me MCMXCIII (3:58)
14. APHONIC THRENODY - Symphonaire Infernus et Spera Empyrium (14:10)
15. BLACK TRILLIUM - The Forever People (4:15)
16. CAT AS TROPHY - For You (6:58)
17. CRYSTAL DARKNESS - The Forever People (4:00)
18. DE PROFVNDIS CLAMATI - For You (3:02)
19. DEIECTVS - To Remain Tombless (7:49)
20. DOMINIA - My Hope, The Destroyer (6:27)
21. HELEVORN - For You (6:34)
22. KORSELD - En Kyss att Minnas (A Kiss to Remember) (3:01)
23. LECTOBLIX - A Sea To Suffer In (5:58)
24. MATALOBOS - I Cannot Be Loved (8:30)
25. PENURIA - My Hope, The Destroyer (7:03)
26. PSICORRAGIA - Your River (9:55)
27. SHADOW LIEGE - Holy Water (4:36)
28. SHALLOW RIVERS - Scorched, Wrecked, Torn, Then Crumbled To The Sea (7:13)
29. THE FATHER OF SERPENTS - The Afterlife Symphony (5:37)
30. THE PROPHET - Last Mourning Waltz (4:48)
31. THURISAZ - Fare Thee Well (4:34)
32. TRADGEDIES - Tragic Existence (9:52)
33. UNTIL MY FUNERALS BEGAN - Into The Lake Of Ghosts (13:34)
34. UNTIL MY FUNERALS BEGAN - The Wreckage Of My Flesh (10:40)
35. VIOLATION COLD - For You (6:21)
******************************
Total playing time: 4:08:14

[more=Extended info][/more]

[more=Technical info]
Input File: 01-The Unknown - The Cry Of Mankind.mp3
Channels : 2
Sample Rate : 44100
Precision : 16-bit
Duration : 00:06:05.20 = 16105452 samples = 27390.2 CDDA sectors
File Size : 14.7M
Bit Rate : 321k
Sample Encoding: MPEG audio (layer I, II or III)
Comments :
Title=The Cry Of Mankind
Artist=THE UNKNOWN
Album=Mires Of Sorrow: A Tribute To My Dying Bride
Tracknumber=1
Year=2016

[/more]

Register
(17) AndreFrancis, Borderline1991, infozahist, Jurmagund, KVRT, MAYH, nemoW, popen13, Razorbladeswaltz, Rosen, Storky, VALERY, varlam4, vyacheslav, wreak, Zenial, Герб,
Apr 18 2017, 23:05:15 Фактор страха - Театр военных дейсвий. Акт 1 (2005)
ЦИТАТА(Aresson @ Apr 18 2017, 22:56:12) *
знать бы ещё, кто это

Пффф! Костя Селезнёв - гитарист, мультиинструменталист, композитор, форвард российской метал-тусы. Основатель культовой трэш-банды Trizna (или Тризна), которая, спустя более 20 лет работы, в 2005 году трансформировалась в ФАКТОР СТРАХА. Отцов отечественной экстрим-сцены надо знать в лицо genius.gif Не одним Немоляевым сыты, как говорится
(1) Nattfodd,
Apr 16 2017, 00:13:32 Various Artists - Em Nome Do Medo - A Brazilian Tribute To Moonspell [best of/compilation] (2014)


*Artist: Various Artists
*Album: Em Nome Do Medo - A Brazilian Tribute To Moonspell [best of/compilation]
*Year: 2014
*Genre: Gothic Death/Doom Metal
*Country: Brazil
*Format: mp3@CBR320kbps
*Size: 225MB

Tracklist:
1. MALKUTH - Tenebrarum Oratorium (6:23)
2. CAPRICORNIAN - Opus Diabolicum (6:20)
3. PATRIA - Wolfshade (8:11)
4. SOTURNUS - Of Dream and Drama (5:12)
5. MALEFACTOR - Alma Mater (6:00)
6. AS DRAMATIC HOMAGE - Full Moon Madness (6:45)
7. SILENT CRY - Opium (3:13)
8. HELLLiGHT - Ruin & Misery (8:39)
9. RAVENLAND - Magdalene (6:30)
10. VEULIAH - In and Above Men (4:21)
11. ALEX VOORHEES - From Lowering Skies (5:16)
12. APOCALYPTCHAOS - Everything Invaded (6:13)
13. HATE EMBRANCE - The Southern Deathstyle (4:09)
14. INNER DEMONS RISE - Finisterra (3:35)
15. KATAPHERO - Once It Was Ours (4:58)
16. OBSKURE - Night Eternal (4:17)
17. RAISER - Lickanthrope (3:39)
18. BURN IN PAIN - Em Nome Do Medo (4:37)
******************************
Total playing time: 1:38:18



[more=Technical info]
Input File: 01-Malkuth - Tenebrarum Oratorium.mp3
Channels : 2
Sample Rate : 44100
Precision : 16-bit
Duration : 00:06:23.78 = 16924654 samples = 28783.4 CDDA sectors
File Size : 15.4M
Bit Rate : 320k
Sample Encoding: MPEG audio (layer I, II or III)
Comments :
Title=Tenebrarum Oratorium
Artist=MALKUTH
Album=Em Nome Do Medo - A Brazilian Tribute to Moonspell
Tracknumber=1
Year=2014
Genre=Gothic Doom Death Metal

[/more]

Register
(15) AndreFrancis, as71, Cartman223, DMIYUR, Hell_Is_Here, infozahist, Jurmagund, killingod, Moonshtook, Old Vyaine, Rosen, TeamatSE, VALERY, varlam4, wreak,
Apr 7 2017, 21:13:20 Monobrow - The Nacarat (2017)


*Artist: Monobrow
*Album: The Nacarat
*Year: 2017
*Genre: Instrumental Stoner Metal
*Country: Canada
*Format: mp3@CBR320kbps
*Size: 91MB

Tracklist:
01. The First Vague Rumblings of Impending Revolution 5:37
02. Capes and Monocles 9:03
03. We Can Make it Look Like an Accident 4:54
04. Twin Sheiks 9:46
05. The Decline of the West and Other Small Tragedies 10:01
******************************
Total playing time: 39:21

[more=Technical info]
Input File: 03 We Can Make it Look Like an Accident.mp3
Channels : 2
Sample Rate : 44100
Precision : 16-bit
Duration : 00:04:54.82 = 13001650 samples = 22111.6 CDDA sectors
File Size : 11.8M
Bit Rate : 320k
Sample Encoding: MPEG audio (layer I, II or III)
Comments :
Title=We Can Make it Look Like an Accident
Artist=MONOBROW
Album=The Nacarat
Tracknumber=3
Year=2017
Genre=Rock

[/more]

Register
(4) 0x13, Rosen, s810ic1, varlam4,
Apr 2 2017, 13:54:15 VA 2014 Em Nome Do Medo - A Brazilian Tribute to Moonspell
2014 год

01. Malkuth – Tenebrarum Oratorium
02. Capricornian – Opus Diabolicum
03. Patria – Wolfshade
04. Soturnus – Of Dream and Drama
05. Malefactor – Alma Mater
06. As Dramatic Homage – Full Moon Madness
07. Silent Cry – Opium
08. HellLight – Ruin & Misery
09. Ravenland – Magdalene
10. Veuliah – In and Above Men
11. Alex Voorhees – From Lowering Skies
12. Apocalyptichaos – Everything Invaded
13. Hate Embrace – The Southern Deathstyle
14. Inner Demons Rise – Finisterra
15. Kataphero – Once it Was Ours
16. Obskure – Night Eternal
17. Raiser – Lickanthrope
18. Burn In Pain – Em Nome do Medo
(1) DMIYUR,
Jun 2 2016, 17:55:50 X-Sinner - World Covered In Blood (2009)


*Artist: X-Sinner
*Album: World Covered In Blood
*Year: 2009
*Genre: Christian Heavy Metal/Hard Rock
*Country: United States
*Format: mp3@CBR320kbps
*Size: 96MB

Tracklist:
1. Back In Red 03:35
2. What Rock Is For 03:38
3. Holy Ghost Fire 03:23
4. World Covered In Blood 03:55
5. Storm On The Horizon 04:45
6. Ready To Go 03:58
7. Forgive Them 03:46
8. Wanna Be Set Free 03:08
9. Got Somethin To Say 03:01
10. Who's Your Friend 04:29
11. That Ain't Me 04:52
******************************
Total playing time: 42:30

[more=Extended info]AC/DC? DEF LEPPARD? Нет! Это X-SINNER!!![/more]

[more=Technical info]
Input File: 01. Back In Red.mp3
Channels : 2
Sample Rate : 44100
Precision : 16-bit
Duration : 00:03:35.19 = 9490011 samples = 16139.5 CDDA sectors
File Size : 8.61M
Bit Rate : 320k
Sample Encoding: MPEG audio (layer I, II or III)
Comments :
Title=Back In Red
Artist=X-SINNER
Album=World Covered In Blood
Tracknumber=1
Year=2008
Genre=Christian Hard Rock

[/more]

Register
(6) metala, MеtalHead, Reverend, Rosen, varlam4, wreak,
Jun 2 2016, 17:51:38 X-Sinner - Fire It Up (2006)


*Artist: X-Sinner
*Album: Fire It Up
*Year: 2006
*Genre: Christian Heavy Metal/Hard Rock
*Country: United States
*Format: mp3@CBR192kbps
*Size: 60MB

Tracklist:
1. Fire It Up (Demo) 03:16
2. I Take Power 04:34
3. Gotta Let Go 04:03
4. Rollin Thunder 04:18
5. Getch Ya 04:32
6. Don't Go 05:22
7. Peer Pressure 03:46
8. We Need Love 05:04
9. All I Need 03:44
10. You Got Me 04:28
******************************
Total playing time: 43:07

[more=Extended info]AC/DC? DEF LEPPARD? Нет! Это X-SINNER!!![/more]

Register
(5) MеtalHead, Reverend, Rosen, varlam4, wreak,
Jun 2 2016, 17:48:50 X-Sinner - Angry Einstein (2003)


*Artist: X-Sinner
*Album: Angry Einstein
*Year: 2003
*Genre: Christian Heavy Metal/Hard Rock
*Country: United States
*Format: mp3@CBR192kbps
*Size: 61MB

Tracklist:
1. Always Be There 03:25
2. Silver Lining 02:56
3. Down For You 04:38
4. You From The Start 04:21
5. The Letter (Pardon Me) 04:32
6. Fun Fun Fun 03:39
7. Look In The Mirror 03:47
8. In Your Eyes 04:15
9. Hearts That Never Beat 03:39
10. Prophet And The Cowboy 05:05
11. Going Around In Circles 03:59
******************************
Total playing time: 44:16

[more=Extended info]AC/DC? DEF LEPPARD? Нет! Это X-SINNER!!![/more]

Register
(5) MеtalHead, Reverend, Rosen, varlam4, wreak,
Jun 2 2016, 17:43:49 X-Sinner - Loud And Proud (2001)


*Artist: X-Sinner
*Album: Loud And Proud
*Year: 2001
*Genre: Christian Heavy Metal/Hard Rock
*Country: United States
*Format: mp3@CBR320kbps
*Size: 111MB

Tracklist:
1. No Way Back 04:37
2. Eyes Of Fire 04:42
3. A Cut Above 04:21
4. Medicine 03:24
5. No Where To Run 05:28
6. Turn It Up 05:40
7. Got To Let Go 04:17
8. X-Sinner 04:14
9. Last Call 03:07
10. Reap What You Sow 04:20
11. Shame 03:24
12. Last Call 03:10
******************************
Total playing time: 50:44

[more=Extended info]AC/DC? DEF LEPPARD? Нет! Это X-SINNER!!![/more]

[more=Technical info]
Input File: 01. No Way Back.mp3
Channels : 2
Sample Rate : 44100
Precision : 16-bit
Duration : 00:04:37.89 = 12255081 samples = 20842 CDDA sectors
File Size : 11.1M
Bit Rate : 320k
Sample Encoding: MPEG audio (layer I, II or III)
Comments :
Title=No Way Back
Artist=X-SINNER
Album=Loud And Proud
Tracknumber=1
Year=2001
Genre=Christian Hard Rock

[/more]

Register
(5) MеtalHead, Reverend, Rosen, varlam4, wreak,
Jun 2 2016, 17:21:52 X-Sinner - Peace Treaty (1991)


*Artist: X-Sinner
*Album: Peace Treaty
*Year: 1991
*Genre: Christian Heavy Metal/Hard Rock
*Country: United States
*Format: mp3@CBR320kbps
*Size: 105MB

Tracklist:
1. Peer Pressure 04:39
2. Rollin' Thunder 04:34
3. We Need Love 05:18
4. Getch Ya 04:53
5. Hold On 02:58
6. I Take Power 04:38
7. Gotta Let Go 04:07
8. You Got Me 04:30
9. All I Need 03:38
10. Don't Go 05:30
******************************
Total playing time: 44:45

[more=Extended info]AC/DC? DEF LEPPARD? Нет! Это X-SINNER!!![/more]

[more=Technical info]
Input File: 01. Peer Pressure.mp3
Channels : 2
Sample Rate : 44100
Precision : 16-bit
Duration : 00:04:40.04 = 12349544 samples = 21002.6 CDDA sectors
File Size : 11.2M
Bit Rate : 320k
Sample Encoding: MPEG audio (layer I, II or III)
Comments :
Title=Peer Pressure
Artist=X-SINNER
Album=Peace Treaty
Tracknumber=1
Year=1991
Genre=Christian Hard Rock

[/more]

Register
(5) morbidangelo, MеtalHead, Rosen, varlam4, wreak,
Jun 2 2016, 17:16:29 X-Sinner - Get It (1989)


*Artist: X-Sinner
*Album: Get It
*Year: 1989
*Genre: Christian Heavy Metal/Hard Rock
*Country: United States
*Format: mp3@CBR320kbps
*Size: 96MB

Tracklist:
1. Medicine 03:22
2. Steppin' On Toes 03:28
3. Hearts On Fire 04:14
4. No Way In 03:43
5. Get It 04:20
6. Accountable 04:14
7. Walking Evil 04:50
8. Lift Him Up 03:13
9. Kick 'Em Out 03:19
10. Livin' On The Edge 04:11
******************************
Total playing time: 38:54

[more=Technical info]
Input File: 01. Medicine.mp3
Channels : 2
Sample Rate : 44100
Precision : 16-bit
Duration : 00:03:22.24 = 8918608 samples = 15167.7 CDDA sectors
File Size : 8.09M
Bit Rate : 320k
Sample Encoding: MPEG audio (layer I, II or III)
Comments :
Title=Medicine
Artist=X-SINNER
Album=Get It
Tracknumber=1
Year=1989
Genre=Christian Hard Rock

[/more]

Register
(5) morbidangelo, MеtalHead, Rosen, varlam4, wreak,
Jun 23 2015, 07:55:03 Ctulu - Freie Geister [demo] (2006)
Register
(2) thenecromancer, vasiljev_sergej,
Aug 29 2014, 08:09:59 Various Artists - Twenty Years In Tears 2 - Tribute to Lake Of Tears [tribute compilation] (2014)


*Artist: Various Artists
*Album: Twenty Years In Tears 2 - Tribute to Lake Of Tears [tribute compilation]
*Year: 2014
*Genre: Doom/Death Metal
*Country: Russian Federation
*Format: mp3@CBR320kbps
*Size: 255MB

Tracklist:
CD1
1. TRAILS OF SORROW - Under the Crescent (4:03)
2. GRAVEYARD OF SOULS - As daylight yields (4:22)
3. CEMETERY OF SCREAM - Evil Inside (5:56)
4. NADIR - A Foreign Road (4:11)
5. THROES OF IRE - Headstones (5:20)
6. THE WAY ON THIS EARTH - Twilight (4:58)
7. LITTLE DEAD BERTHA - Devil's Diner (4:17)
8. HORUS - Lady Rosenred (2:54)
9. THE WITHERING BEAUTY - So fell autumn rain (8:29)
10. ENNUI - Hold On Tight (5:53)
11. FIRE - Come night I reign (4:18)
12. SHADECROWN - Return of Ravens (3:26)
CD2
13. DEMENZIA - The Graymen (5:14)
14. MISTWEAVER - Dystopia (3:44)
15. WHEN NOTHING REMAINS - The Organ (6:33)
16. GALADRIEL - A Trip With The Moon (3:14)
17. DOOMED - Last Purple Sky (6:16)
18. THE EQUINOX OV THE GODS - Children of the Grey (4:47)
19. LAPSUS DEI - Illwill (4:40)
20. DEHYDRATED - U.N.S.A.N.E. (4:44)
21. LAPSUS DEI - House Of The Setting Sun (5:13)
22. SVARTSTORM - Behind The Green Door (3:56)
23. ENCLAVE OF DREAMS - Midnight Madness (5:16)
******************************
Total playing time: 1:51:44

[more=Technical info]
Input File: 08 - HORUS - Lady Rosenred.mp3
Channels : 2
Sample Rate : 44100
Precision : 16-bit
Duration : 00:02:55.01 = 7718073 samples = 13126 CDDA sectors
File Size : 7.00M
Bit Rate : 320k
Sample Encoding: MPEG audio (layer I, II or III)
Comments :
Title=Lady Rosenred
Artist=HORUS
Album=Twenty Years In Tears 2
Tracknumber=8
Year=2014

[/more]

Register
(23) AndreFrancis, as71, avather, emopi4a1980, Geralder, infozahist, Kasper969, killingod, light, Lightbringer, old, Old Vyaine, Rosen, RUDACHUR, senecazm, Stringer, VALERY, varlam4, Veggr, Velkaarn, wreak, Zenial, Герб,
Aug 18 2014, 10:54:31 No Mercy - OG No Mercy [compilation] (2008)


*Artist: No Mercy
*Album: OG No Mercy [compilation]
*Year: 2008
*Genre: Crossover/Thrash Metal
*Country: United States
*Format: mp3@VBR213kbps
*Size: 63MB

Tracklist:
1. Brain Damage (0:57)
2. Kill For Uncle Sam (1:49)
3. Thoughts Of Destruction (1:27)
4. Big Shot (0:45)
5. Big Shot (0:51)
6. Fuck Life (0:41)
7. Kill For Uncle Sam (1:53)
8. Brain Damage (1:07)
9. No Mercy (4:17)
10. Die Or Be Killed (2:38)
11. War Machine (4:08)
12. War Machine (4:05)
13. Die Or Be Killed (2:49)
14. Blind Attack (1:13)
15. Day Of The Dead (2:58)
16. Out For Blood (2:38)
17. On The Rize (2:27)
18. Death To The Anti-Christ (3:47)
******************************
Total playing time: 40:30



[more=Extended info]Сборник включает в себя первые три демки - Demo (1983), No Vocal Rehearsal Demo (1983), Studio Demo (1985) и 7 песен неизвестно откуда. Шикарнейший злой кроссовер в духе ранних D.R.I.!!![/more]

Register
(5) fishish, killingod, morbidangelo, Rosen, wreak,
Aug 18 2014, 10:34:22 Los Olvidados - Listen To This!!! (Reissue) (2002)


*Artist: Los Olvidados
*Album: Listen To This!!! (Reissue)
*Year: 2002
*Genre: Skatecore/Punk Rock
*Country: United States
*Format: flac@872kbps
*Size: 249MB

Tracklist:
1. Listen To You (2:25)
2. Something New (2:46)
3. So Dull (2:31)
4. Bang Bang You're Dead (2:09)
5. Assassin Of Youth (2:04)
6. Don't Cry (2:43)
7. Goin' Down (3:34)
8. Pay Salvation (2:05)
9. Personal Genocide (2:32)
10. Home Is Where The Heart Is (2:50)
11. Their Eyes (2:24)
12. Death Trap (2:14)
13. Give Me Liberty or Gimme A Gun (8:50)
******************************
Total playing time: 39:07



[more=Extended info]Original recordings 1981-83
Классный отрывной калифорнийский панк![/more]

Register
(2) Diflock, gwar,
Aug 18 2014, 10:02:51 Beyond Possession - Tell Tale Heart [ep] (1985)
Register
(1) SamDimas,
Sep 25 2013, 14:57:11 Navalm - Recovery Of Sync (2013)
Ээээ, ребятки, вы лучше послушайте сначала материал севастопольцев, а уж потом злословьте.
А хотелось бы грамотных рецензий. Это будет важно для группы.
(1) aserius,
Sep 24 2013, 23:15:39 Navalm - Recovery Of Sync (2013)


*Artist: Navalm
*Album: Recovery Of Sync
*Year: 2013
*Genre: Death/Thrash Metal
*Country: Ukraine
*Format: mp3@CBR320kbps
*Size: 88MB

Tracklist:
1. Let Others Pray
2. Sign
3. Cemetery Administration
4. Unnecessary
5. An Evil Time
6. Steps In The Void
7. Recovery Of Sync
8. Frank Decomposition
9. Tomb In The Arctic
10. Slut Hanging On Hooks
11. To Parcel Up Meat
12. Worse Than Any Murderer
13. Revenge
14. Strain Of Mind
15. The Prophecy
******************************
Total playing time: 38:33

Preview 1

[more=Extended info]Диски можно заказать здесьhttp://vk.com/club40415681
Стоимость - 60 грн ($8 или 240 росс. руб.)[/more]

[more=Technical info]
Input File: 02-NAVALM _ Sign.mp3
Channels : 2
Sample Rate : 44100
Precision : 16-bit
Duration : 00:02:09.36 = 5704688 samples = 9701.85 CDDA sectors
File Size : 5.17M
Bit Rate : 320k
Sample Encoding: MPEG audio (layer I, II or III)
Comments :
Title=Sign
Artist=NAVALM
Album=Recovery Of Sync
Tracknumber=2
Year=2013[/more]
Register
(19) aserius, caro, DTGB, gardenofdemise, garretje, Hell_Is_Here, jollo, metala, MMMMM, oldvarg, potap03020100, Proteus_666, Rosen, Samaritianin, sperminator, varlam4, wgs73, wreak, металлист,
Sep 22 2013, 14:47:31 Tiamat - Born To Die [single] (2013)
Почему Йохан перестал употреблять грибы? С грибами у него гораздо лучше выходило сочинять и придумывать. И на стиле это положительно отражалось. И, вообще, я бы рекомендовал ему отпустить обратно патлы и годик попить русской водочки. Мб Тучи-2 получились бы.
(4) aesteticvice, DarkHorde, paganheart, SatanicPanzer,

20 Pages V   1 2 3 > » 
- Lo-Fi Version Support form
Copyrights and abuse reports form
Time is now: 23rd August 2019 - 01:08:51