Welcome Guest ( Log In | Register )

История благодарностей участнику Andrew ::: Спасибо сказали: 19856 раз(а)
Дата поста: В теме: За сообщение: Спасибо сказали:
Yesterday, 20:40:01 Skin Her Alive - Unifying The Depths Of Damnation (2019)
One Man Band: Stefan Tüchter - All instruments
Но звучит очень даже неплохо. Местами с мелодезовым оттенком.
(1) Morgoth,
Nov 19 2019, 21:06:54 Scintillescent - Dread [ep] (2019)


*Artist: Scintillescent
*Album: Dread [ep]
*Year: 2019
*Genre: Symphonic/Melodic Black Metal
*Country: New Zealand
*Format: mp3@CBR320kbps
*Size: 19MB

Tracklist:
1. Dread 04:17
2. Breakneck 03:46
******************************
Total playing time: 8:03





[more=Technical info]
Input File: 02_scintillescent_breakneck.mp3
Channels : 2
Sample Rate : 44100
Precision : 16-bit
Duration : 00:03:46.47 = 9987371 samples = 16985.3 CDDA sectors
File Size : 9.31M
Bit Rate : 329k
Sample Encoding: MPEG audio (layer I, II or III)
Comments :
Title=Breakneck
Artist=Scintillescent
Album=Dread (EP)
Tracknumber=2
Year=2019

[/more]

Register
(11) 1968_janeart, chipsgott, djsema4, evelyn, kimkayoung, metalwoman, Olethros, sergsazan, VALERY, vasiljev_sergej, zhol,
Nov 19 2019, 20:47:53 Suffered Flesh - Endgame [ep] (2019)


*Artist: Suffered Flesh
*Album: Endgame [ep]
*Year: 2019
*Genre: Death Metal
*Country: Germany
*Format: mp3@CBR320kbps
*Size: 27MB

Tracklist:
1. Damned Sick Addiction 02:33
2. Endgame 03:06
3. Sudden Death 02:13
4. A Total Misery 03:52
******************************
Total playing time: 11:44




[more=Extended info]Simon Hügelschäfer Bass
Sebastian Drums
De Bam Guitars
Ralf Vocals[/more]

[more=Technical info]
Input File: 02_suffered_flesh_damned_sick_addiction.mp3
Channels : 2
Sample Rate : 44100
Precision : 16-bit
Duration : 00:02:32.88 = 6742008 samples = 11466 CDDA sectors
File Size : 6.19M
Bit Rate : 324k
Sample Encoding: MPEG audio (layer I, II or III)
Comments :
Title=Damned Sick Addiction
Artist=Suffered Flesh
Album=Endgame (EP)
Tracknumber=2
Year=2019
Genre=Death Metal

[/more]

Register
(4) GorAtheist, older68, Olethros, VALERY,
Nov 19 2019, 20:40:20 Temple Of Torment - Eater Of Civilizations [demo] (2019)


*Artist: Temple Of Torment
*Album: Eater Of Civilizations [demo]
*Year: 2019
*Genre: Death Metal
*Country: Ukraine
*Format: flac
*Size: 130MB

Tracklist:
1. Intro 01:29
2. The Breath that scatters The Cosmos 04:06
3. Do not pray to the Crucified God! 04:51
4. The Sun (My Right Eye) 05:24
******************************
Total playing time: 15:50




Register
(2) Olethros, Winter Funeral,
Nov 18 2019, 22:09:04 Abigail Williams - Walk Beyond The Dark (2019)
ЦИТАТА(Slam91 @ Nov 15 2019, 15:32:47) *
Настолько нудно, что на 5-й минуте первой песни, появилось ощущение что я уже час это слушаю.

А у меня при прослушивании 4 трека создалось впечатление, что до сих пор первая вещь играет... 21.gif
(1) judaz,
Nov 17 2019, 21:46:13 Killing Clarence - Living Nightmare (2019) (1) avkruchinin,
Nov 17 2019, 21:39:25 Throne Ov Shiva - The Last Anthem (2019)
(2) Occultas, rickzammuto,
Nov 17 2019, 16:34:58 Ceremony - Retribution (2019)


*Artist: Ceremony
*Album: Retribution
*Year: 2019
*Genre: Death Metal
*Country: Netherlands
*Format: mp3@CBR320kbps
*Size: 107MB

Tracklist:
1. Retribution 04:58
2. Influential 06:25
3. In a Dark Time 05:31
4. Erilaz 04:45
5. Divinatory Rites 08:30
6. Imperfect Perfection 04:24
7. Mystery of Mysteries 06:29
8. Tortured Souls 05:29
******************************
Total playing time: 46:31






[more=Technical info]
Input File: 02 - Influential.mp3
Channels : 2
Sample Rate : 44100
Precision : 16-bit
Duration : 00:06:26.56 = 17047208 samples = 28991.9 CDDA sectors
File Size : 15.5M
Bit Rate : 320k
Sample Encoding: MPEG audio (layer I, II or III)
Comments :
Title=Influential
Artist=Ceremony
Album=Retribution
Tracknumber=2
Year=2019
Genre=Death Metal

[/more]

Register

Register
(28) A.L.Rapsod, AHBAnep, alikkon, andreikun, atavist, avkruchinin, berserkr, boby9052, Diflock, GorAtheist, jollo, kimkayoung, kryptor, metala, multizwilling, obscenity, older68, Olethros, raattent, rickzammuto, ripper33, Rosen, samokot, sperminator, stumpheavyrock, thyrane, Tino, VALERY,
Nov 15 2019, 21:43:07 Meshiaak - Mask Of All Misery (2019)
Мне чет вообще не зашло.
Чистый вокал, да еще и постоянные замедления и перепады в темпе - как то не есть основополагающей треша...
(1) Diflock,
Nov 15 2019, 21:16:49 Angelwarrior Ace - Obsidian (2019)
Судя по превьюшному треку и ни хеви и ни треш.
(1) isvili,
Nov 14 2019, 21:51:41 The Holy Hater - The Sinner [ep] (2019)


*Artist: The Holy Hater
*Album: The Sinner [ep]
*Year: 2019
*Genre: Melodic Death Metal
*Country: Mexico
*Format: mp3@CBR320kbps
*Size: 31MB

Tracklist:
1. Wolf in Mourn 04:08
2. Feed the Flames 02:24
3. Rest in Pieces 03:59
4. It Is Alive 04:12
******************************
Total playing time: 14:43






[more=Technical info]
Input File: 02_the_holy_hater_feed_the_flames.mp3
Channels : 2
Sample Rate : 44100
Precision : 16-bit
Duration : 00:02:24.52 = 6373332 samples = 10839 CDDA sectors
File Size : 5.86M
Bit Rate : 324k
Sample Encoding: MPEG audio (layer I, II or III)
Comments :
Title=Feed the Flames
Artist=The Holy Hater
Album=The Sinner (EP)
Tracknumber=2
Year=2019
Genre=9

[/more]

Register
(9) BugEyes, metalwoman, Olethros, Rosen, sergsazan, TeamatSE, VALERY, wanderer73, Сварог Барг,
Nov 14 2019, 21:00:25 ShadowThrone - Elements' Blackest Legacy (2019)
ЦИТАТА(isvili @ Oct 1 2019, 00:55:38) *
Пожалуй не соглашусь, ни чего нового, но сыграно отлично.

Также пришелся по душе материал. Вроде бы и ничего нового, но слушается очень и очень приятно! 20.gif
(1) Hunter08,
Nov 14 2019, 20:33:58 Nox Irae - Here The Dead Live [ep] (2019)


*Artist: Nox Irae
*Album: Here The Dead Live [ep]
*Year: 2019
*Genre: Death Metal
*Country: France
*Format: mp3@CBR128kbps
*Size: 26MB

Tracklist:
1. Phantom Paraside Trauma 04:00
2. All Is Over 03:43
3. Knife Under Throat 05:51
4. Cold Wind 04:34
5. Primordial Lie 03:32
6. Supposed Dead 04:58
******************************
Total playing time: 26:38




Register
(4) Olethros, Rosen, TeamatSE, wanderer73,
Nov 14 2019, 18:48:55 Ozzy Osbourne - Under The Graveyard [single] (2019)
ЦИТАТА(troll_swamp @ Nov 14 2019, 17:39:25) *
Подожду ка я альбомчег.

Я думаю, что все ожидают, или во всяком случаи многие! И возлагают большие надежды на альбом!

ЦИТАТА(troll_swamp @ Nov 14 2019, 17:39:25) *
Слушается очень хорошо и послевкусие приятное.

А песня хорошая таки!
(1) troll_swamp,
Nov 12 2019, 23:11:39 Blind Guardian - Twilight Orchestra: Legacy Of The Dark Lands (2019)
Вот здесь не соглашусь! Follow the Blind - отличный альбус
(1) iRonIC,
Nov 12 2019, 21:05:15 Bewitchment - Oblivion Shall Reign (2019)


*Artist: Bewitchment
*Album: Oblivion Shall Reign
*Year: 2019
*Genre: Death/Thrash Metal
*Country: Brazil
*Format: mp3@CBR128kbps
*Size: 35MB

Tracklist:
1. From My Throne 03:50
2. O Violador de Sepulturas 05:48
3. Grotesque Retribution 05:24
4. Excruciating Sickness 03:59
5. Fall into Oblivion 04:40
6. Drowning in Darkness 03:59
7. Comedores de Carne Humana Podre 04:17
8. My Morbid Thoughts 06:07
******************************
Total playing time: 38:04





[more=Extended info]Rodrigo "Infectz" Costa Everything (2017-present)
See also: Heritage, Sadistic Messiah, Cemitério (live), ex-Infected, ex-Blasthrash, ex-Side Effectz[/more]

Register
(1) Rosen,
Nov 12 2019, 20:43:46 Powerwolf - Kiss Of The Cobra King [single] (2019)


*Artist: Powerwolf
*Album: Kiss Of The Cobra King [single]
*Year: 2019
*Genre: Power Metal
*Country: Germany
*Format: mp3@CBR320kbps
*Size: 19MB

Tracklist:
1. Kiss of the Cobra King (New Version 2019) 03:50
2. Army of the Night (Live) 03:46
******************************
Total playing time: 7:36





[more=Technical info]
Input File: 01_powerwolf_kiss_of_the_cobra_king_new_version_2019.mp3
Channels : 2
Sample Rate : 44100
Precision : 16-bit
Duration : 00:03:49.24 = 10109484 samples = 17193 CDDA sectors
File Size : 10.2M
Bit Rate : 355k
Sample Encoding: MPEG audio (layer I, II or III)
Comments :
Title=Kiss of the Cobra King (New Version 2019)
Artist=Powerwolf
Album=Kiss of the Cobra King (New Version 2019)
Tracknumber=1/2
Year=2019
Genre=Rock
Discnumber=1/1

[/more]

Register
(9) Aresson, Druidir, finntroll3, gwynnbleid, Olethros, Olrak, Reverend, Rosen, Rover,
Nov 12 2019, 13:23:55 Naked Machine - Turn On The Ignition (2019)


*Artist: Naked Machine
*Album: Turn On The Ignition
*Year: 2019
*Genre: Heavy Metal
*Country: Japan
*Format: mp3@CBR320kbps
*Size: 111MB

Tracklist:
1. Naked Machine_SE
2. Turn On the Ignition
3. Evil Eyes
4. Walk Don't Run (Album Edition)
5. Go to the Top
6. Chained Mystery
7. Eternal Moon
8. Wing of Tomorrow
9. Don't Say Anything (Album Edition)
10. Fight to Survive
******************************
Total playing time: 44:52



Preview 3

[more=Technical info]
Input File: 02. Turn On The Ignition.mp3
Channels : 2
Sample Rate : 44100
Precision : 16-bit
Duration : 00:04:14.16 = 11208544 samples = 19062.1 CDDA sectors
File Size : 10.9M
Bit Rate : 344k
Sample Encoding: MPEG audio (layer I, II or III)
Comments :
Title=Turn On The Ignition
Artist=Naked Machine
Album=Turn On The Ignition
Tracknumber=2/10
Year=2019
Genre=Heavy Metal

[/more]

Register
(7) gwynnbleid, metala, Olethros, postal67, Rosen, Rover, sergsazan,
Nov 12 2019, 12:09:59 Blind Guardian - Twilight Orchestra: Legacy Of The Dark Lands (2019)
ЦИТАТА(Exorcist @ Nov 11 2019, 02:05:16) *
В совершенно немелодичном Follow the Blind, состоящем преимущественно из бисайдов дебютника, точно нет ничего гениального.

Вот здесь не соглашусь! Follow the Blind - отличный альбус, быстрый, шустрый, динамичный, а чего стОит одно только Valhalla с Хансеном Лично для меня после 98 нет в творчестве БГ ни одного альбома, который бы мог сравниться с 89.
Хотя опять же, у каждого свои приоритеты ценностей.
(1) + ATheisT +,
Nov 12 2019, 12:04:55 Blind Guardian - Twilight Orchestra: Legacy Of The Dark Lands (2019)
ЦИТАТА(Exorcist @ Nov 10 2019, 21:21:16) *
но исключать из лучшего периода безоговорочно шедевральный Nightfall я категорически отказываюсь.

Не буду спорить на счет шедевральности (у каждого сове видение и представление о статусе безупречности и гениальности того или иного опуса), только на этом альбоме ровно половина треков, а именно 11 - композиции-коротыши и они, не то, чтобы не нужны, просто после быстрого и динамичного трека следует проигрыш, за ним опять шустрый трек, а потом опять сопилочки, дуновение ветра, цвириньканье птичек, лирические проигрыши - уж слишком много их!
Хотя нельзя не отметить действительно хитовые вещи:
Nightfall
Mirror Mirror
Noldor (Dead Winter Reigns)


ЦИТАТА(+ ATheisT + @ Nov 11 2019, 01:54:16) *
Есть конечно несколько хороших треков, но в большинстве там сплошной тухляк.
А вот период 1988-1998 - это гениальные альбомы.. Уж не представляю как они могут не нравится, а заходит поздняя творческая импотенция. Вот уж поистине на вкус и цвет 22.gif

Поддерживаю всецело.
Мне также после 98 - ни один альбом целиком так и не зашел. Так, отдельными треками, по одному-два с каждого альбома.
(1) + ATheisT +,
Nov 11 2019, 17:47:03 Amenti - Fuerza Vital (2019)


*Artist: Amenti
*Album: Fuerza Vital
*Year: 2019
*Genre: Heavy/Power Metal
*Country: Spain
*Format: mp3@CBR320kbps
*Size: 115MB

Tracklist:
1. Sueños 04:46
2. Ángel exterminador 05:26
3. Corazón bravo 05:57
4. Es tiempo de despertar 05:12
5. El enviado 04:30
6. Sin miedo 04:50
7. Fuerza vital 05:03
8. A sangre y fuego 04:54
9. Un solo camino 05:27
10. Renacer 03:56
******************************
Total playing time: 50:01





[more=Technical info]
Input File: 02 - Angel Exterminador.mp3
Channels : 2
Sample Rate : 44100
Precision : 16-bit
Duration : 00:05:26.37 = 14392873 samples = 24477.7 CDDA sectors
File Size : 13.1M
Bit Rate : 320k
Sample Encoding: MPEG audio (layer I, II or III)
Comments :
Title=Angel Exterminador
Artist=Amenti
Album=Fuerza Vital
Tracknumber=2
Year=2019
Genre=Metal
Discnumber=1

[/more]

Register
(8) aviacademy, Foneg, Herrant, Olethros, Rosen, Rover, talismanFS, Сварог Барг,
Nov 10 2019, 22:22:23 Patient Zero - Xii (2019)


*Artist: Patient Zero
*Album: Xii
*Year: 2019
*Genre: Blackened Progressive Death Metal
*Country: Costa Rica
*Format: mp3@CBR128kbps
*Size: 35MB

Tracklist:
01. Syrtis 02:28
02. Nailed to Breathe 03:57
03. Purifying Plague 03:56
04. Deprived Essence 04:32
05. Withered Conclusion 05:34
06. [137] 02:17
07. Dissolved in Delusion 04:15
08. Haruspex 04:47
09. XII 06:20
******************************
Total playing time: 38:06





Register
(8) craP_cillA, kimkayoung, metala, multizwilling, Rosen, Sanctus, yuratroll, Нигилист,
Nov 10 2019, 22:09:22 Nachthafen - Se Kuolee Mukanasi [ep] (2019)


*Artist: Nachthafen
*Album: Se Kuolee Mukanasi [ep]
*Year: 2019
*Genre: Blackened Death Metal
*Country: Finland
*Format: mp3@CBR320kbps
*Size: 47MB

Tracklist:
1. Pimeyteen katoava 04:17
2. Kunnes yö ei ole enää vihollisesi 04:32
3. Näkin metsästäjät 04:02
4. Surun varjot 02:57
5. Yön satama 04:42
******************************
Total playing time: 20:30




[more=Technical info]
Input File: Nachthafen - Se Kuolee Mukanasi - 02 Kunnes Yö Ei Ole Enää Vihollisesi.mp3
Channels : 2
Sample Rate : 44100
Precision : 16-bit
Duration : 00:04:32.34 = 12010238 samples = 20425.6 CDDA sectors
File Size : 11.0M
Bit Rate : 322k
Sample Encoding: MPEG audio (layer I, II or III)
Comments :
Title=Kunnes Yö Ei Ole Enää Vihollisesi
Artist=Nachthafen
Album=Se Kuolee Mukanasi
Tracknumber=2
Year=2019

[/more]

Register
(6) Olethros, Ostinato, Rosen, Sanctus, VALERY, Сварог Барг,
Nov 10 2019, 20:54:58 Ozzy Osbourne - Under The Graveyard [single] (2019)


*Artist: Ozzy Osbourne
*Album: Under The Graveyard [single]
*Year: 2019
*Genre: Heavy Metal
*Country: United Kingdom
*Format: mp3@CBR320kbps
*Size: 12MB

Tracklist:
1. Under the Graveyard 04:57
******************************
Total playing time: 4:57




[more=Technical info]
Input File: 01 . Under the Graveyard.mp3
Channels : 2
Sample Rate : 44100
Precision : 16-bit
Duration : 00:04:57.76 = 13131216 samples = 22332 CDDA sectors
File Size : 12.4M
Bit Rate : 334k
Sample Encoding: MPEG audio (layer I, II or III)
Comments :
Title=Under the Graveyard
Artist=Ozzy Osbourne
Album=Under the Graveyard
Tracknumber=1
Year=2019
Genre=Rock
Discnumber=1

[/more]

Register
(24) Aresson, avkruchinin, boby9052, cancer1974, caro, chipsgott, Eisbar, ErikGoth, Firefrost, gwar, LEGION69, max_stalingradsky, metaljosue, Moonshtook, nikolay81, Olethros, Reverend, Rosen, russ777, SAPOGi, sepultura39, stumpheavyrock, Surt, wgs73,
Nov 10 2019, 17:56:07 Blind Guardian - Twilight Orchestra: Legacy Of The Dark Lands (2019)
После переслушанных сегодня 90, 92, 95, от которых в очередной раз получил массу восторга и позитива - то новое творение просто ... ни о чем.
В очередной раз выскажу слова благодарности в адрес команды за те прекрасные альбомы, которые даже через 30 лет слушаются с таким большим удовольствием! pray.gif
(2) iRonIC, Yarri,

162 Pages V   1 2 3 > » 
- Lo-Fi Version Support form
Copyrights and abuse reports form
Time is now: 22nd November 2019 - 15:39:06