Welcome Guest ( Log In | Register )

История благодарностей участнику Andrew ::: Спасибо сказали: 20671 раз(а)
Дата поста: В теме: За сообщение: Спасибо сказали:
Jan 19 2020, 22:03:40 Hammerfall - Second To One [single] (2020)


*Artist: Hammerfall
*Album: Second To One [single]
*Year: 2020
*Genre: Heavy/Power Metal
*Country: Sweden
*Format: mp3@CBR320kbps
*Size: 9MB

Tracklist:
01. Second To One (Feat. Noora Louhimo) 04:16
******************************
Total playing time: 4:16





[more=Technical info]
Input File: 01 hammerfall_second_to_one_feat_noora_louhimo.mp3
Channels : 2
Sample Rate : 44100
Precision : 16-bit
Duration : 00:04:16.12 = 11294936 samples = 19209.1 CDDA sectors
File Size : 10.2M
Bit Rate : 320k
Sample Encoding: MPEG audio (layer I, II or III)
Comments :
Title=Second To One (feat. Noora Louhimo)
Artist=Hammerfall
Album=Second To One (feat. Noora Louhimo) [Single]
Tracknumber=1
Year=2020
Genre=Metal

[/more]

Register
(14) Aresson, boby9052, caro, infiltrator, Legacy100, LightWizard, morbidangelo, Olethros, Reverend, Rosen, Rover, sergsazan, zhol, Сварог Барг,
Jan 19 2020, 21:49:45 Sabaton - Angels Calling [single] (2020)


*Artist: Sabaton
*Album: Angels Calling [single]
*Year: 2020
*Genre: Power Metal
*Country: Sweden
*Format: mp3@CBR320kbps
*Size: 13MB

Tracklist:
01. Angels Calling (Feat. Apocalyptica) 05:53
******************************
Total playing time: 5:53




[more=Technical info]
Input File: 01 sabaton_angels_calling_feat_apocalyptica.mp3
Channels : 2
Sample Rate : 44100
Precision : 16-bit
Duration : 00:05:53.36 = 15582956 samples = 26501.6 CDDA sectors
File Size : 14.4M
Bit Rate : 326k
Sample Encoding: MPEG audio (layer I, II or III)
Comments :
Title=Angels Calling (feat. Apocalyptica)
Artist=Sabaton
Album=Angels Calling
Tracknumber=1/1
Year=2020-17-01
Genre=Power Metal
Discnumber=1/1

[/more]

Register
(9) Aresson, boby9052, caro, infiltrator, morbidangelo, Olethros, Rosen, sergsazan, Сварог Барг,
Jan 16 2020, 21:15:16 Svarttjern - Shame Is Just A Word (2020)
Cloud Mail 320:
Register
(1) nsk2008,
Jan 16 2020, 21:13:04 Horned Almighty - To Fathom The Master's Grand Design (2020)
Cloud Mail 320:
Register
(1) older68,
Jan 16 2020, 21:05:38 Veritates - Killing Time (2020)
Cloud Mail 320:

Register
(2) Devourer, Herrant,
Jan 16 2020, 21:04:15 Mindless Sinner - Poltergeist (2020)
Cloud Mail 320:

Register
(3) AHBAnep, smes, varlam4,
Jan 16 2020, 21:00:20 Elfika - Secretum Secretorum (2020)
Cloud Mail 320:

Register
(1) AlexSmith,
Jan 16 2020, 19:54:44 Rage - Wings Of Rage (2020)
ЦИТАТА(Bruce @ Jan 12 2020, 16:21:23) *
А где FLAC ?

Вот он:
407 Mb
Register
(1) Oldskulthrasher,
Jan 16 2020, 18:15:55 Victorius - Space Ninjas From Hell (2020)


Cloud Mail 320:
Register
(6) AHBAnep, boby9052, Druidir, Herrant, postal67, Shadechaser,
Jan 16 2020, 18:13:21 Darktribe - Voici L'homme (2020)


Cloud Mail 320:

Register
(3) Devourer, Herrant, postal67,
Jan 16 2020, 17:18:19 Bonded - Rest In Violence (2020)
Просмотрев видео, решил, что на старости лет Энтони Хопкинс решил в треш погрузиться с головою...
А альбом очень добротный и четкий! metaler.gif

Новая группа BONDED, которую основали экс-участники SODOM Бернд “Бернеманн” Кост (Bernd “Bernemann” Kost, гитара) и Маркус “Макка” Фрайвальд (Markus “Makka” Freiwald, барабаны). Выпустит дебютный альбом “Rest In Violence” 17 января 2020 года на лейбле Century Media.
BONDED, в состав которых также входят второй гитарист Крис Цицис (Chris Tsitsis, ex-SUICIDAL ANGELS), басист Марк Хаушилд (Marc Hauschild) и вокалист Инго Байончак (Ingo Bajonczak, ASSASSIN), создали разноплановый и забойный трэшевый релиз, а помогал им в этом продюсер Корнелиус Рамбо (Cornelius Rambadt), ранее работавший с SODOM, DISBELIEF и ONKEL TOM).

https://www.youtube.com/watch?time_continue...eature=emb_logo
(4) AHBAnep, Diflock, Samaritianin, smes,
Jan 15 2020, 18:21:57 Black Despair - Death Of The Sun (2020)
ЦИТАТА(Foneg @ Jan 15 2020, 13:51:34) *
напоминает Арх Энеми начала нулевых

Однозначно! С первых же аккордов явно ярко выраженный закос под Арчей. Как было сказано уже, помимо вокала, еще одна вещь не красящая альбом - это его продолжительность. Мелодезовый опус на 74 минуты... 9-10 треков вполне хватило бы.
(1) Foneg,
Jan 15 2020, 18:06:20 Brujeria - Amaricon Czar [single] (2019)


*Artist: Brujeria
*Album: Amaricon Czar [single]
*Year: 2019
*Genre: Death Metal/Grindcore
*Country: United States
*Format: mp3@CBR320kbps
*Size: 17MB

Tracklist:
01. Amaricon Czar 03:46
02. Lord Nazi Ruso 03:08
******************************
Total playing time: 6:54




[more=Technical info]
Input File: 01 Amaricon Czar.mp3
Channels : 2
Sample Rate : 44100
Precision : 16-bit
Duration : 00:00:00.23 = 9967 samples = 16.9507 CDDA sectors
File Size : 9.66M
Bit Rate : 342M
Sample Encoding: MPEG audio (layer I, II or III)
Comments :
Title=Amaricon Czar
Artist=Brujería
Album=Amaricon Czar
Tracknumber=1/2
Year=2019-19-20
Genre=Metal
Discnumber=1/1

[/more]

Register
(20) AHBAnep, andreikun, boby9052, cancer1974, caro, chipsgott, EvgeniusLongus, jollo, Konst, lldma, Lux, martintrue, METALHUNTER, Olethros, ripper33, robertho777, Rosen, Styx, supremo, vyacheslav,
Jan 14 2020, 21:25:26 Zac Leaser - Effigies [ep] (2019)


*Artist: Zac Leaser
*Album: Effigies [ep]
*Year: 2019
*Genre: Technical/Melodic Death Metal
*Country: United States
*Format: mp3@CBR320kbps
*Size: 62MB

Tracklist:
1. Crimson 04:08
2. Damnation 06:05
3. Egoist 04:47
4. Totem 05:21
5. Tribulations 05:12
******************************
Total playing time: 25:33





[more=Technical info]
Input File: 01 Crimson.mp3
Channels : 2
Sample Rate : 44100
Precision : 16-bit
Duration : 00:00:00.25 = 10937 samples = 18.6003 CDDA sectors
File Size : 10.7M
Bit Rate : 344M
Sample Encoding: MPEG audio (layer I, II or III)
Comments :
Title=Crimson
Artist=Zac Leaser
Album=Effigies
Tracknumber=1/5
Year=2019-19-20
Genre=Metal
Discnumber=1/1

[/more]

Register
(14) ASkyThatBurns, chipsgott, infiltrator, kimkayoung, metala, MMMMM, Rosen, Sanctus, scorpionmk, VALERY, varlam4, wanderer73, zhol, Сварог Барг,
Jan 14 2020, 19:34:47 Raging Fate - Bloodstained Gold (2019)


*Artist: Raging Fate
*Album: Bloodstained Gold
*Year: 2019
*Genre: Heavy/Power Metal
*Country: Sweden
*Format: mp3@CBR320kbps
*Size: 107MB

Tracklist:
01. Hymn of the Privateer
02. Bloodstained Gold
03. The Flying Dutchman
04. Soulreaver
05. Raging Fate
06. Alone in the Dark
07. The Wrath of gir and Ran
08. A Crown of Thorns
09. Marooned
10. Lies of the Wicked
11. Dracula
******************************
Total playing time: 44:30





[more=Extended info]Лавры Раннингов не дают покоя...

Line Up:
Mattias Lovdal - Vocals, Bass, Guitars
Juha Niemi - Guitars
Thomas Eriksson - Guitars
Stefan Almqvist - Drums[/more]

[more=Technical info]
Input File: 02. Bloodstained Gold.mp3
Channels : 2
Sample Rate : 44100
Precision : 16-bit
Duration : 00:05:28.72 = 14496552 samples = 24654 CDDA sectors
File Size : 13.3M
Bit Rate : 323k
Sample Encoding: MPEG audio (layer I, II or III)
Comments :
Title=Bloodstained Gold
Artist=Raging Fate
Album=Bloodstained Gold
Tracknumber=2/11
Year=2019
Genre=9
Discnumber=1/1

[/more]

Register
(19) ace73pq, ASkyThatBurns, aviacademy, gwar, Herrant, infiltrator, isvili, metala, metalwoman, Olethros, postal67, Rosen, Rover, SaintVitus, senecazm, sergsazan, vir2al, wn129aa, zhol,
Jan 13 2020, 20:32:08 Waldhexen - Ego Canus Lunam Cano [ep] (2020)


*Artist: Waldhexen
*Album: Ego Canus Lunam Cano [ep]
*Year: 2020
*Genre: Death/Black Metal
*Country: United States
*Format: mp3@CBR320kbps
*Size: 27MB

Tracklist:
1. The Oblation of One for Many 05:40
2. The Keys to Allocer's Mysteries 03:20
3. Quasi-Dimensional Phantoms of Undistinguished Chromacity 02:52
******************************
Total playing time: 11:52



[more=Technical info]
Input File: Waldhexen - EGO CANUS LUNAM CANO - 01 The Oblation of One for Many.mp3
Channels : 2
Sample Rate : 44100
Precision : 16-bit
Duration : 00:05:40.73 = 15026325 samples = 25555 CDDA sectors
File Size : 13.8M
Bit Rate : 323k
Sample Encoding: MPEG audio (layer I, II or III)
Comments :
Title=The Oblation of One for Many
Artist=Waldhexen
Album=EGO CANUS LUNAM CANO
Tracknumber=1
Year=2020

[/more]

Register
(13) ASkyThatBurns, Beazth, infiltrator, morbidangelo, Olethros, Rosen, Shadechaser, SilentNidhogg, stub888, VALERY, varlam4, vasiljev_sergej, wanderer73,
Jan 11 2020, 19:03:23 Blacketernal - Darkness Embrace (2020)


ЦИТАТА(Samaritianin @ Jan 10 2020, 22:17:05) *
*Genre: Symphonic Black Metal

hmm.gif
(1) AHBAnep,
Jan 10 2020, 21:28:18 Rage - Wings Of Rage (2020)
ЦИТАТА(---MAX--- @ Jan 10 2020, 14:59:05) *
Конечно не хватает Смольского

А мне Spiros & Chris Efthimiadis- вот єто был Rage!
А новое творение...просто...ну не то уже, не то. Одного раза хватило послушать и, честно говоря, больше возвращаться к прослушиванию данного опуса желания нет. 6.gif
На выходных с боооольшущим удовольствием переслушаю золотой период 92-96. 20.gif
(1) Ghostb,
Jan 10 2020, 21:01:32 Verderver - Weltunter (2020)
Нет здесь мелодеза!
(1) AHBAnep,
Jan 9 2020, 22:06:02 Rage - Wings Of Rage (2020)
ЦИТАТА(comradEnemy @ Jan 10 2020, 00:51:18) *
пятидесятилетнего старичка

55 летнего.
(1) Ghostb,
Jan 9 2020, 21:57:48 War Dogs - Die By My Sword (2020)


Еще один олд скульный опус.
(1) Yarri,
Jan 9 2020, 21:42:21 Mystic Prophecy - Metal Division (2020)
ЦИТАТА(sadmannn @ Jan 9 2020, 18:17:04) *
неожиданно годная работа

А чего неожиданно? Лично для меня группа является одним из флагманов современного хеви! Чего стОит один альбом 2006 года Savage Souls - который я считаю одним из лучших творений хеви вообще!
Да и вообще, в дискографии слабыми считаю лишь 2 последних альбома (да и то один из них альбом каверов). А так, команда очень толковая с прекрасным вокалистом и добротной ритм-секцией! metaler.gif
(3) AHBAnep, Olrak, Rhoads,
Jan 9 2020, 21:24:47 Haunt - Mind Freeze (2020)
Cloud Mail 320:
Register


Олд Скул от и до!
(1) Bitchkiller,
Jan 9 2020, 21:07:46 Ode Insone - A Origem Da Agonia (2020)
Надо расслушать. Предыдущий альбом был вполне даже.
(1) russ777,
Jan 9 2020, 20:42:20 V.A.R. - ...Temná (2019) (2) boby9052, infiltrator,

165 Pages V   1 2 3 > » 
- Lo-Fi Version Support form
Copyrights and abuse reports form
Time is now: 23rd January 2020 - 08:30:56