Welcome Guest ( Log In | Register )

История благодарностей участнику Andrew ::: Спасибо сказали: 15753 раз(а)
Дата поста: В теме: За сообщение: Спасибо сказали:
Yesterday, 21:00:53 Cristo Decapitado - Cristo Decapitado (2019)
Тот случай, когда даже 2 трека по превью сложно осилить...
(1) ingram,
Jul 15 2019, 14:08:03 Empyreal - My Own Living Hell (2019)
Очень качественная работа с мелодезовым уклоном!
После третьей прослушки окончательно убедился, что стиль все же мелоблэк/мелодез. А альбом чертовски хорош!!! 20.gif

Кстати, немцы очень напомнили коллег по цеху: Tyrmfar - Renewal Through Purification (2019)
(2) isvili, sadmannn,
Jul 14 2019, 21:06:54 Mortar - Walking Corpse Syndrome (2019)


*Artist: Mortar
*Album: Walking Corpse Syndrome
*Year: 2019
*Genre: Death Metal
*Country: Finland
*Format: mp3@VBR128kbps
*Size: 30MB

Tracklist:
1. Easy Target 02:35
2. No Glory (The Vilest Group Under the Sun) 03:32
3. Another Year, Another Scar 02:04
4. Payback 02:24
5. Disrupt Lives / Killing Time by Killing People 04:38
6. Waste Disposal 03:23
7. Circling Down the Drain 03:36
8. Concrete Domain 04:22
9. Frozen Casket 03:16
10. With the Truth to the Grave 03:23
******************************
Total playing time: 33:13




Register
(3) infiltrator, jollo, wn129aa,
Jul 14 2019, 20:30:07 Benedict Crow - Benedict Crow (2019)


ЦИТАТА(avkruchinin @ Jul 14 2019, 04:15:50) *
с элементами/вкраплениями хэви.

hmm.gif
Олд скул. Причем, как по мне, так ближе к 70ым Art/Progressive
(1) AHBAnep,
Jul 13 2019, 16:05:26 虎落ブエ - Languid (2019)
После новых релизов от Blood Staind Child, Gyze и некоторых других команд из Страны Восходящего Солнца - ощутил резкое отторжение от прослушивания коллективов из данной страны. Настолько все как то безидейно-примитивно одинаково звучит практически у всех команд, да еще и эти слащавые дурацкие гитарные соло-поливалочки взятые за основу...просто бесят. И под этим всем еще и позиционируются как Мелодез... 6.gif
(2) avather, Jahmephisto,
Jul 12 2019, 21:13:53 Kairos - Queen Of The Hill (2019)
Ох какой нафффталинище! С первых же аккордов переносишься годков этак на 30 назад. Хороший, приятный ламповый материал. 20.gif
(2) infiltrator, Samaritianin,
Jul 11 2019, 22:06:50 Disowning - Human Cattle (2019)
Отменный альбом! Один из лучших в жанре в этом году!
(1) troll_swamp,
Jul 11 2019, 17:02:56 Hollow Haze - Between Wild Landscapes And Deep Blue Seas (2019)
Cloud 320:
Register
(1) dimitriusk,
Jul 11 2019, 16:59:16 Visionatica - Enigma Fire (2019)
Cloud 320:
Register
(1) dafya328,
Jul 11 2019, 16:55:53 Hemisferio - Anacronía (2019)
Cloud 320:
Register
(1) kauyumari,
Jul 10 2019, 21:37:11 The Frozen Lake - Ghosts Of Our Time (2019) (1) djsema4,
Jul 10 2019, 16:55:19 Iron Maiden - Somewhere In Time (1986)
ЦИТАТА(Arseniy @ Jul 10 2019, 16:46:28) *
«Страх утки»

facessspalm.png

ЦИТАТА(hammer @ Jul 10 2019, 11:49:16) *
Как можно игнорть , как лучший Сына, у меня в голове не укладывается.

Ну, уже говорилось и обсуждалось 1 000 раз, что понятие лучший альбом той или иной группы - у каждого свое видение и понимание!!!
(1) Emm Human,
Jul 10 2019, 11:50:45 Fields Of Elysium - In Ancient Contemplation (2019)


*Artist: Fields Of Elysium
*Album: In Ancient Contemplation
*Year: 2019
*Genre: Technical Death Metal/Grindcore/Fusion
*Country: United States
*Format: mp3@VBR128kbps
*Size: 40MB

Tracklist:
1. Papas Perfectas 06:07
2. From the Shoulders of Giants 03:19
3. The Whip or the Carrot 06:23
4. Bedside Dragon 01:44
5. Alligator Mountain 07:42
6. On the Meeting of Two Eternities 02:33
7. Frogs in the Distance After the Rain 05:48
8. Asterisk 01:58
9. Abstaining the Hive Mind 07:55
******************************
Total playing time: 43:29





Register
(5) alikkon, Foneg, SatanicPanzer, TDM, yuratroll,
Jul 10 2019, 09:32:24 Iron Maiden - Somewhere In Time (1986)
ЦИТАТА(vo140182fav @ Jul 10 2019, 10:03:59) *
Этот альбом для меня лучший навсегда!

dooo.gif
(2) infiltrator, troll_swamp,
Jul 9 2019, 21:38:34 Лучшие Black Metal релизы 2019
Еще один понравившийся мелоблэковый альбом:

Tenebra Arcana - Martiri Dell'odio (2019)
(2) judaz, nadin85,
Jul 9 2019, 21:18:12 God Shaped Devil - Dark Fields (2019)


*Artist: God Shaped Devil
*Album: Dark Fields
*Year: 2019
*Genre: Melodic Death/Groove Metal
*Country: United Kingdom
*Format: mp3@CBR320kbps
*Size: 85MB

Tracklist:
1. Guiding Light 05:45
2. Drowning Gravity 05:29
3. Deadly Sign 04:14
4. Barbed Wire 05:06
5. Becoming Evil 05:24
6. Delusion 04:59
7. Bloodstain 04:50
8. Dark Fields 03:15
******************************
Total playing time: 39:02





[more=Technical info]
Input File: 02. Drowning Gravity.mp3
Channels : 2
Sample Rate : 44100
Precision : 16-bit
Duration : 00:05:29.66 = 14538006 samples = 24724.5 CDDA sectors
File Size : 13.3M
Bit Rate : 323k
Sample Encoding: MPEG audio (layer I, II or III)
Comments :
Title=Drowning Gravity
Artist=God Shaped Devil
Album=Dark Fields
Tracknumber=2/8
Year=2019
Genre=9
Discnumber=1/1

[/more]

Register
(4) Foneg, infiltrator, Orgasmik, zhol,
Jul 9 2019, 12:22:35 Empathica - The Fire Symphony (2019)


*Artist: Empathica
*Album: The Fire Symphony
*Year: 2019
*Genre: Symphonic Metal
*Country: Italy
*Format: mp3@CBR320kbps
*Size: 116MB

Tracklist:
01. Invocation
02. Fallen Master Pleasure
03. Prophecy
04. Religio
05. What We Have to Die For
06. Sillus Messor Animarum
07. Death Came Twice
08. Graceless Times
09. The Fire Symphony
******************************
Total playing time: 50:11





[more=Technical info]
Input File: 02. Fallen Master Pleasure.mp3
Channels : 2
Sample Rate : 44100
Precision : 16-bit
Duration : 00:04:20.48 = 11487344 samples = 19536.3 CDDA sectors
File Size : 10.6M
Bit Rate : 325k
Sample Encoding: MPEG audio (layer I, II or III)
Comments :
Title=Fallen Master Pleasure
Artist=Empathica
Album=The Fire Symphony
Tracknumber=2
Year=2019-19-20
Discnumber=1

[/more]

Register
(19) ace73pq, Alpha_Prime, aviacademy, avkruchinin, chipsgott, csgmnk, gwar, gwynnbleid, Herrant, infiltrator, infozahist, metala, metalwoman, Olethros, Rover, sayfut, sergsazan, Shadechaser, Сварог Барг,
Jul 9 2019, 11:27:02 Sinner - Fiesta Y Copas [single] (2019)


*Artist: Sinner
*Album: Fiesta Y Copas [single]
*Year: 2019
*Genre: Heavy Metal
*Country: Germany
*Format: mp3@CBR320kbps
*Size: 7MB

Tracklist:
1. Fiesta Y Copas (Feat. Ronnie Romero) 02:59
******************************
Total playing time: 2:59



[more=Technical info]
Input File: 01_sinner_fiesta_y_copas_feat_ronnie_romero.mp3
Channels : 2
Sample Rate : 44100
Precision : 16-bit
Duration : 00:02:59.16 = 7900956 samples = 13437 CDDA sectors
File Size : 7.38M
Bit Rate : 330k
Sample Encoding: MPEG audio (layer I, II or III)
Comments :
Title=Fiesta Y Copas (feat. Ronnie Romero)
Artist=Sinner
Album=Fiesta Y Copas (Single)
Tracknumber=1
Year=2019-05-07
Genre=Hard Rock/Heavy Metal
Discnumber=1

[/more]

Register
(6) gwynnbleid, infiltrator, infozahist, Olethros, Rover, sergsazan,
Jul 9 2019, 11:20:21 The Agonist - In Vertigo [single] (2019)


*Artist: The Agonist
*Album: In Vertigo [single]
*Year: 2019
*Genre: Melodic Death/Metalcore
*Country: Canada
*Format: mp3@CBR320kbps
*Size: 12MB

Tracklist:
1. In Vertigo 5:04
******************************
Total playing time: 5:04



[more=Technical info]
Input File: 01_the_agonist_in_vertigo.mp3
Channels : 2
Sample Rate : 44100
Precision : 16-bit
Duration : 00:05:04.14 = 13412442 samples = 22810.3 CDDA sectors
File Size : 12.4M
Bit Rate : 327k
Sample Encoding: MPEG audio (layer I, II or III)
Comments :
Title=In Vertigo
Artist=The Agonist
Album=In Vertigo
Tracknumber=1/1
Year=2019
Discnumber=1/1

[/more]

Register
(5) GorAtheist, gwynnbleid, infozahist, Olethros, respect,
Jul 8 2019, 20:41:33 Tenebra Arcana - Martiri Dell'odio (2019)
Очень добротный и красивый мелоблэк!

Register
(1) gav-gafi,
Jul 8 2019, 20:36:40 Tyrants - Union (2019)


*Artist: Tyrants
*Album: Union
*Year: 2019
*Genre: Black/Thrash/Death Metal
*Country: Italy
*Format: mp3@VBR128kbps
*Size: 41MB

Tracklist:
1. Eutanasia 06:23
2. The Cry of Syn 04:43
3. Io ti maledico 02:57
4. The Keys of Our Chains 04:34
5. Menzogne 05:46
6. Cordoglio [Part I,II,III,IV,V] 20:00
******************************
Total playing time: 44:23





Register
(5) Foneg, sergsazan, stumpheavyrock, vasiljev_sergej, wgs73,
Jul 8 2019, 16:45:31 Spiritbell - Dust And Rust (2019)


*Artist: Spiritbell
*Album: Dust And Rust
*Year: 2019
*Genre: Heavy/Power/Doom Metal
*Country: Hungary
*Format: mp3@VBR128kbps
*Size: 35MB

Tracklist:
1. Dust and Rust 05:28
2. Keep the Fire 03:57
3. Night Time Madman 04:02
4. Ring the Bell 04:30
5. The Lizard 05:04 instrumental
6. Forged in Storm 04:57
7. Inner Winter 03:41
8. The Wish 05:29
******************************
Total playing time: 37:08





Register
(2) metalwoman, sergsazan,
Jul 8 2019, 16:06:04 Spirit Crusher - Whispers Against The Roar Of The World (2019)


*Artist: Spirit Crusher
*Album: Whispers Against The Roar Of The World
*Year: 2019
*Genre: Hardcore/Thrash Metal
*Country: United Kingdom
*Format: mp3@CBR320kbps
*Size: 75MB

Tracklist:
1 Introduction 01:35
2 Potential in Kindness 02:44
3 Cure 03:07
4 (Cycle of) Healing 03:48
5 Illusion of Understanding 02:07
6 Promise of Tomorrow 02:38
7 Keep Your Fury 03:08
8 Division of Self 03:00
9 Free Will 03:22
10 Cold Hand of Reality 04:27
11 (Life) Before Death 02:52
******************************
Total playing time: 32:48






[more=Technical info]
Input File: 02_spirit_crusher_potential_in_kindness.mp3
Channels : 2
Sample Rate : 44100
Precision : 16-bit
Duration : 00:02:44.66 = 7261594 samples = 12349.6 CDDA sectors
File Size : 6.59M
Bit Rate : 320k
Sample Encoding: MPEG audio (layer I, II or III)
Comments :
Title=Potential in Kindness
Artist=Spirit Crusher
Album=Whispers Against the Roar of the World
Tracknumber=02/11
Year=2019
Discnumber=1/1

[/more]

Register
(7) BandR75, Maniakk, metala, Olethros, sayfut, terron, wreak,
Jul 7 2019, 09:02:19 Disrupted - The Procrastination Of Being (2019)
Очень качественная работа - приятно удивили латиносы! 20.gif
(1) older68,
Jul 7 2019, 08:56:47 Bonfire - Into The Demons Flame (2018)
Bonfire - Black/Thrash Metal - я думаю, что если не у всех, то у многих мысль промелькнула о том. что немцы на старости лет...резко курс поменяли.
(1) kessler,

143 Pages V   1 2 3 > » 
- Lo-Fi Version Support form
Copyrights and abuse reports form
Time is now: 17th July 2019 - 05:19:26