Welcome Guest ( Log In | Register )

История благодарностей участнику Andrew ::: Спасибо сказали: 24556 раз(а)
Дата поста: В теме: За сообщение: Спасибо сказали:
Aug 9 2020, 20:19:41 Nectura - Narasi Penantang Dari Lanskap Yang Ditinggalkan (2020)


*Artist: Nectura
*Album: Narasi Penantang Dari Lanskap Yang Ditinggalkan
*Year: 2020
*Genre: Death Metal
*Country: Indonesia
*Format: mp3@CBR320kbps
*Size: 68MB

Tracklist:
01. Bless Nectura II
02. Kultus
03. Setara
04. Tirani Mati
05. Jalan Terbuang
06. Sang Penantang
07. Narasi Basa Basi
08. Kawan Bukan Lawan
******************************
Total playing time: 29:41






[more=Extended info]Abah Andris Drums
See also: Sonic Torment, ex-Burgerkill, ex-Disinfected, ex-Forgotten, ex-Naked Truth, ex-Sacrilegious, ex-Circus Carnage
Abo Guitars
Paneu Bass (2012-present)
See also: ex-Beside
Hinhin Akew Guitars (2012-present)
See also: Humiliation, ex-Dinning Out, ex-Beside, ex-Circus Carnage
Owang Vocals (2012-present)
See also: ex-Beside[/more]

[more=Technical info]
Input File: 02 - Kultus.mp3
Channels : 2
Sample Rate : 44100
Precision : 16-bit
Duration : 00:04:14.58 = 11226978 samples = 19093.5 CDDA sectors
File Size : 10.2M
Bit Rate : 322k
Sample Encoding: MPEG audio (layer I, II or III)
Comments :
Title=Kultus
Artist=Nectura
Album=Narasi Penantang Dari Lanskap Yang Ditinggalkan
Tracknumber=02
Year=2020
Genre=Metal
Discnumber=1

[/more]

Register
(6) Hellraiser, infiltrator, jollo, Olethros, Rosen, VALERY,
Aug 9 2020, 18:49:49 Seppuku - Book Of The Five Rings [ep] (2020)


*Artist: Seppuku
*Album: Book Of The Five Rings [ep]
*Year: 2020
*Genre: Blackened Melodic Death Metal
*Country: United States
*Format: mp3@CBR320kbps
*Size: 57MB

Tracklist:
1. Consistency in the Third Person 03:57
2. The Room Beneath the Floorboards 06:08
3. Parade of the Fire Lotus 05:23
4. Germination 04:04
5. Body of Water 04:56
******************************
Total playing time: 24:28



[more=Extended info]Adam Luksetich Bass
See also: Bongrider
Chris "Sausage" Kirby Drums
Zach Cook Guitars
See also: Rotted Remains
Jamison Kuhle Guitars
Tim Connery Vocals[/more]

[more=Technical info]
Input File: Seppuku - Book of the Five Rings - 02 The Room Beneath the Floorboards.mp3
Channels : 2
Sample Rate : 44100
Precision : 16-bit
Duration : 00:06:08.79 = 16263683 samples = 27659.3 CDDA sectors
File Size : 14.8M
Bit Rate : 322k
Sample Encoding: MPEG audio (layer I, II or III)
Comments :
Title=The Room Beneath the Floorboards
Artist=Seppuku
Album=Book of the Five Rings
Tracknumber=2
Year=2020

[/more]

Register
(11) BugEyes, infiltrator, Olethros, randumbum, Rosen, sergsazan, VALERY, vasiljev_sergej, wn129aa, zhol, Сварог Барг,
Aug 9 2020, 15:09:45 Höstblod - Dikter Om Döden (2020)


*Artist: Höstblod
*Album: Dikter Om Döden
*Year: 2020
*Genre: Atmospheric Black Metal
*Country: Sweden
*Format: mp3@CBR320kbps
*Size: 86MB

Tracklist:
01.Allt vi bär på
02.Det djupa havet
03.Tusen ögon
04.Dödens vals
05.Plast och märg
06.En svag viskning
******************************
Total playing time: 39:45




[more=Technical info]
Input File: 02. Det djupa havet.mp3
Channels : 2
Sample Rate : 44100
Precision : 16-bit
Duration : 00:01:53.54 = 5006982 samples = 8515.28 CDDA sectors
File Size : 4.71M
Bit Rate : 332k
Sample Encoding: MPEG audio (layer I, II or III)
Comments :
Title=Det djupa havet
Artist=Höstblod
Album=Dikter om döden
Tracknumber=2
Year=2020

[/more]

Register
(26) 1968_janeart, AlexSmith, autumnwood, Borya_Tvorogov, El_Chibo, grimoir, infiltrator, kim666, multizwilling, Necromag, Olethros, randumbum, robertho777, Rosen, sandr666, sergsazan, Sjelekval, sludge666, stone88, supremo, VALERY, vasiljev_sergej, wwwgnom, Yorker, ZA670, ZloY_GreY,
Aug 8 2020, 20:11:56 Orden Ogan - In The Dawn Of The Ai [single] (2020)


*Artist: Orden Ogan
*Album: In The Dawn Of The Ai [single]
*Year: 2020
*Genre: Power Metal
*Country: Germany
*Format: mp3@CBR320kbps
*Size: 14MB

Tracklist:
1. In the Dawn of the AI 06:07
******************************
Total playing time: 6:07




[more=Extended info]Sebastian "Seeb" Levermann Guitars (1996-2019), Vocals, Keyboards (1996-present)
See also: ex-Nüpfelgard, ex-Suidakra (live)
Niels Löffler Bass (2011-2019), Guitars (2019-present)
See also: ex-Sardonic, ex-Predator, ex-Stormblade, ex-Leaves' Eyes (live), ex-When Illusions Burn
Dirk Meyer-Berhorn Drums (2012-present)
See also: ex-Trapture, Akanoid, ex-Skiltron (live)
Steven Wussow Bass (2019-present)
See also: Xandria, Domain, Illectronic Rock, ex-Misfit, ex-Nick Hellfort, ex-Shylock, ex-Palace (live), ex-Fjuse, ex-Iridium
Patrick Sperling Guitars (2020-present)
See also: Earacle, EpitomE, Kixx, Maniac, ex-Delirious (live)[/more]

[more=Technical info]
Input File: 01 orden_ogan_in_the_dawn_of_the_ai.mp3
Channels : 2
Sample Rate : 44100
Precision : 16-bit
Duration : 00:06:07.31 = 16198151 samples = 27547.9 CDDA sectors
File Size : 14.9M
Bit Rate : 324k
Sample Encoding: MPEG audio (layer I, II or III)
Comments :
Title=In the Dawn of the AI
Artist=Orden Ogan
Album=In the Dawn of the AI
Tracknumber=01
Year=2020

[/more]

Register
(12) boby9052, gwar, Herrant, infiltrator, Olethros, Olrak, Reverend, Rosen, SAPOGi, terron, wwwgnom, Yarri,
Aug 7 2020, 20:47:50 Primordial Harvest - Malevolent Mask (2020)


*Artist: Primordial Harvest
*Album: Malevolent Mask
*Year: 2020
*Genre: Hardcore/Grindcore/Death Metal
*Country: United States
*Format: mp3@CBR320kbps
*Size: 78MB

Tracklist:
1. A Place to Isolate
2. Desolate Mind
3. Absent Absolution
4. Complexity of Divinity
5. Opposition
6. My Looming Thought Yield Fatal
7. Dormant
8. Agony
9. A Place to Burn
******************************
Total playing time: 5:25




Register
(9) chipsgott, DimON, infiltrator, jollo, Mares, Olethros, ondrazevsi, Rosen, sludge666,
Aug 7 2020, 20:38:13 Magazu - Summoned To Sword [ep] (2020)


*Artist: Magazu
*Album: Summoned To Sword [ep]
*Year: 2020
*Genre: Black Metal
*Country: United States
*Format: mp3@CBR320kbps
*Size: 27MB

Tracklist:
1. Summoned to Sword 01:36 instrumental
2. Head Dragon's Comet 02:58
3. Through Sirens and Scylla 03:06
******************************
Total playing time: 7:40




[more=Extended info]I Drums
See also: Abyssal Rites
E Vocals, Guitar, Bass
See also: Abyssal Rites[/more]

[more=Technical info]
Input File: Magazu - Summoned To Sword - 01 Summoned To Sword.mp3
Channels : 2
Sample Rate : 44100
Precision : 16-bit
Duration : 00:01:36.45 = 4253401 samples = 7233.68 CDDA sectors
File Size : 4.07M
Bit Rate : 338k
Sample Encoding: MPEG audio (layer I, II or III)
Comments :
Title=Summoned To Sword
Artist=Magazu
Album=Summoned To Sword
Tracknumber=1
Year=2020

[/more]

Register
(12) 1968_janeart, grimoir, infiltrator, legion01, Olethros, randumbum, robertho777, Rosen, scorpionmk, SilentNidhogg, VALERY, vasiljev_sergej,
Aug 7 2020, 20:31:54 Purification - Perfect Doctrine (2020)


*Artist: Purification
*Album: Perfect Doctrine
*Year: 2020
*Genre: Doom Metal
*Country: United States
*Format: mp3@CBR320kbps
*Size: 117MB

Tracklist:
1. Opium Blade 04:58
2. On the Wings of Pestilence, Darkness Takes Flight 05:26
3. All the Glittering Jewels (Part I) 05:16
4. All the Glittering Jewels (Part II) 04:49
5. Sabbatharian Blood Feud 06:30
6. Throw Away the Cross 03:30
7. Dark Age Warlord Resurrected by Seditious Trickery 05:12
8. The Theurgy / Lunar Hymn 999 06:41
******************************
Total playing time: 42:22




[more=Technical info]
Input File: 02 - On The Wings Of Pestilence, Darkness Takes Flight.mp3
Channels : 2
Sample Rate : 44100
Precision : 16-bit
Duration : 00:05:26.18 = 14384626 samples = 24463.6 CDDA sectors
File Size : 16.0M
Bit Rate : 392k
Sample Encoding: MPEG audio (layer I, II or III)
Comments :
Title=On The Wings Of Pestilence, Darkness Takes Flight
Artist=Purification
Album=Perfect Doctrine
Tracknumber=2
Year=2020

[/more]

Register
(27) alikkon, autumnwood, BandR75, Boozer, Den_M, gongshow, grimoir, HMHamster, infiltrator, JantoHadez, Mares, marilin, metala, multizwilling, Olethros, randumbum, robertho777, Rosen, sergsazan, sludge666, stub888, stumpheavyrock, supremo, VALERY, wn129aa, Yorker, zhol,
Aug 7 2020, 20:17:08 Imha Tarikat - Sternenberster (2020)


*Artist: Imha Tarikat
*Album: Sternenberster
*Year: 2020
*Genre: Black Metal
*Country: Germany
*Format: mp3@CBR320kbps
*Size: 101MB

Tracklist:
1. Ekstase ohne Ende 07:00
2. Sturm der Erlösung 05:06
3. Kreuzpunkt der Schicksale 05:58
4. Brand am Firmament 07:30
5. Klimax Downpour 05:24
6. Aufstieg 06:10
7. Sternenberster 05:22
8. Outro (Cosmos Dissolving) 02:44
******************************
Total playing time: 45:14




[more=Extended info]Ruhsuz Cellât Vocals, Guitars (?-2019), All instruments (2019-present)
See also: ex-Ypokosmos
Philipp Wende Drums (Recording & Live) (2020-present)
See also: ex-Nightflower, ex-The Becoming, ex-Winterdome[/more]

[more=Technical info]
Input File: 02 Sturm der Erlosung.mp3
Channels : 2
Sample Rate : 44100
Precision : 16-bit
Duration : 00:05:06.88 = 13533276 samples = 23015.8 CDDA sectors
File Size : 12.3M
Bit Rate : 320k
Sample Encoding: MPEG audio (layer I, II or III)
Comments :
Title=Sturm der Erlösung
Artist=Imha Tarikat
Album=Sternenberster
Tracknumber=2
Year=2020

[/more]

Register
(50) 1968_janeart, acerbus, AlexSmith, alikkon, atavist, Boozer, Bzth, caro, Cyrci, Daale, El_Chibo, garmonbozia, gena, grimoir, infiltrator, JantoHadez, judaz, kim666, Korpse, legion01, LEGION69, Mares, Morgoth, multizwilling, nsk2008, Occultas, Olethros, Ostinato, randumbum, rimfrost, robertho777, Rosen, sabr, SaintVitus, sandr666, scorpionmk, SilentNidhogg, smes, soulskinner681, stub888, supremo, Taragorm, toly1917, VALERY, varlam4, vasiljev_sergej, Vraithee, V_H_H_V, zotyo1975, Авел,
Aug 7 2020, 19:54:36 Mesarthim - The Degenerate Era (2020)


*Artist: Mesarthim
*Album: The Degenerate Era
*Year: 2020
*Genre: Atmospheric Black Metal
*Country: Australia
*Format: mp3@CBR320kbps
*Size: 102MB

Tracklist:
1. Laniakea - Part 1. The Great Attractor; Part 2. The Zone of Avoidance; Part 3. Dark Energy 14:26
2. The Degenerate Era 08:52
3. Time Domain 04:28
4. Paradox 08:53
5. 618 07:45
******************************
Total playing time: 44:24




[more=Technical info]
Input File: 02. The Degenerate Era.mp3
Channels : 2
Sample Rate : 44100
Precision : 16-bit
Duration : 00:08:52.48 = 23482500 samples = 39936.2 CDDA sectors
File Size : 21.4M
Bit Rate : 321k
Sample Encoding: MPEG audio (layer I, II or III)
Comments :
Title=The Degenerate Era
Artist=Mesarthim
Album=The Degenerate Era
Tracknumber=02/05
Year=2020
Genre=Atmospheric Black Metal

[/more]

Register
(56) 1968_janeart, aleon, AlexSmith, alikkon, Antkh, BERZERK, Bzth, Druidir, ENDSMOUTH, Femto, fylopaloma, gena, Glioma, grimoir, igorzz, infiltrator, Jorn777, karpenka, Kazoth, kim666, Korpse, LEGION69, lordbathor, M8R8K, metaljinie, Morgoth, multizwilling, nemx, Olethros, Olrak, rabindranad, randumbum, ripper33, robertho777, Rosen, sabr, sacrut, SaintVitus, satanath, savatage13, sergsazan, Sigue, SilentNidhogg, Slavas, stone88, stub888, supremo, Tarkron, TeamatSE, VALERY, vasilisk, vasiljev_sergej, Yorker, zargonath, ZloY_GreY, Авел,
Aug 7 2020, 19:14:36 Storm Siege - Satanas Sum (2020)


*Artist: Storm Siege
*Album: Satanas Sum
*Year: 2020
*Genre: Thrash/Death Metal
*Country: Spain
*Format: mp3@CBR320kbps
*Size: 108MB

Tracklist:
1. Inquisitor 06:25
2. Victim's Advocate 03:17
3. Flagellator 04:14
4. Satanas Sum 04:55
5. Plague 05:56
6. Mystery Grail 03:41
7. Priest Eater 04:21
8. Torture Chamber 03:55
9. Inner Evil 03:26
10. Spiritual Weaponry 05:12
******************************
Total playing time: 45:22




[more=Technical info]
Input File: 02. Victim\'s Advocate.mp3
Channels : 2
Sample Rate : 44100
Precision : 16-bit
Duration : 00:03:17.32 = 8701636 samples = 14798.7 CDDA sectors
File Size : 7.89M
Bit Rate : 320k
Sample Encoding: MPEG audio (layer I, II or III)
Comments :
Artist=Storm Siege
Album=Satanas Sum
Year=2020
Genre=Thrash

[/more]

Register
(16) after21allD, boby9052, BugEyes, Bzth, chipsgott, infiltrator, jollo, Mares, metala, Olethros, Rosen, scorpionmk, stumpheavyrock, Volk11911, Wail, wgs73,
Aug 7 2020, 18:13:26 Sacred Serenity - Redefining Life (2020)


*Artist: Sacred Serenity
*Album: Redefining Life
*Year: 2020
*Genre: Progressive Death/Thrash Metal
*Country: Austria
*Format: mp3@CBR320kbps
*Size: 117MB

Tracklist:
1. Redefining Life 03:17
2. Mankind Divided 02:38
3. An Unorthodox Truth 03:24
4. Seperating Reality 03:08
5. Manipulating Destiny 04:31
6. Eternal Decay 02:59
7. Call of the Void 04:49
8. Redefining Life 03:17 instrumental
9. Mankind Divided 02:38 instrumental
10. An Unorthodox Truth 03:24 instrumental
11. Seperating Reality 03:08 instrumental
12. Manipulating Destiny 04:31 instrumental
13. Eternal Decay 02:59 instrumental
14. Call of the Void 04:49 instrumental
******************************
Total playing time: 49:32




[more=Technical info]
Input File: 02. Mankind Divided.mp3
Channels : 2
Sample Rate : 44100
Precision : 16-bit
Duration : 00:02:38.24 = 6978164 samples = 11867.6 CDDA sectors
File Size : 6.33M
Bit Rate : 320k
Sample Encoding: MPEG audio (layer I, II or III)
Comments :
Artist=Sacred Serenity
Album=Redefining Life
Year=2020

[/more]

Register
(13) after21allD, caro, cesar, chipsgott, infiltrator, Mares, metala, multizwilling, Olethros, Rosen, samokot, stumpheavyrock, VALERY,
Aug 7 2020, 17:20:17 Old Grave - From The Graves (2020)


*Artist: Old Grave
*Album: From The Graves
*Year: 2020
*Genre: Death Metal
*Country: Russian Federation
*Format: mp3@CBR320kbps
*Size: 117MB

Tracklist:
1. Slaughterhouse 04:42
2. Chainsaw Cult 04:32
3. MG-42 04:24
4. Sands of Death 05:23
5. In a Mass Grave 05:24
6. Cremated Alive 06:00
7. The Spirit of Lynch 04:35
8. Risen from the Graves 04:53
9. Sea Creature 05:00
10. Barbarian Wrath 05:02
******************************
Total playing time: 49:55



[more=Extended info]Ad Bestias Vocals, Guitars, Bass
See also: Heresiarkhes, Uroboros, Аркуда[/more]

[more=Technical info]
Input File: Old Grave - From The Graves - 02 Chainsaw Cult.mp3
Channels : 2
Sample Rate : 44100
Precision : 16-bit
Duration : 00:04:32.66 = 12024086 samples = 20449.1 CDDA sectors
File Size : 11.1M
Bit Rate : 325k
Sample Encoding: MPEG audio (layer I, II or III)
Comments :
Title=Chainsaw Cult
Artist=Old Grave
Album=From The Graves
Tracknumber=2
Year=2020

[/more]

Register
(21) alikkon, andreikun, atavist, Bregon, Bzth, caro, cesar, Femto, infiltrator, jollo, metala, Moonshtook, Occultas, Olethros, Rosen, Rudolfo_Metal, scorpionmk, supremo, tim47, VALERY, wanderer73,
Aug 7 2020, 16:11:41 Highborne - Renewal Of The Supreme Being (2020)


*Artist: Highborne
*Album: Renewal Of The Supreme Being
*Year: 2020
*Genre: Atmospheric Black Metal
*Country: United States
*Format: mp3@CBR320kbps
*Size: 155MB

Tracklist:
1. Vanquisher 04:10
2. Forsaken 03:40
3. Inquisitor of Frailty 04:12
4. Renewal of the Supreme Being, Pt. 1 06:46
5. The Sorcerer's Dream 02:58
6. A Gaze into the Scrying Orb 03:58
7. Renewal of the Supreme Being, Pt. 2 10:07
8. Wither 03:12
9. The Black Triangle 03:45
10. Circle of Tyranny 03:49
11. Thy Old Shadows 03:28
12. Seductress 05:07
13. A Shrine to Immorality 04:00
******************************
Total playing time: 59:12






[more=Extended info]Archon All instruments, Vocals (2014-present)
See also: Valiant[/more]

[more=Technical info]
Input File: 2 - Forsaken.mp3
Channels : 2
Sample Rate : 44100
Precision : 16-bit
Duration : 00:03:41.06 = 9748746 samples = 16579.5 CDDA sectors
File Size : 8.89M
Bit Rate : 322k
Sample Encoding: MPEG audio (layer I, II or III)
Comments :
Title=Forsaken
Artist=Highborne
Album=Renewal Of The Supreme Being
Tracknumber=2
Year=2020
Genre=Metal
Discnumber=1

[/more]

Register
(17) 1968_janeart, aleon, AlexSmith, alikkon, infiltrator, kim666, multizwilling, Olethros, randumbum, robertho777, Rosen, sergsazan, SilentNidhogg, stub888, supremo, VALERY, vasiljev_sergej,
Aug 7 2020, 14:48:29 Lord Orots - Conquering The Infinite Void (2020)


*Artist: Lord Orots
*Album: Conquering The Infinite Void
*Year: 2020
*Genre: Instrumental/Atmospheric Black Metal/Ambient
*Country: Spain
*Format: mp3@CBR320kbps
*Size: 77MB

Tracklist:
01. A Timeless Kingdom 05:02
02. The Black Abyss 10:25
03. Nefaxion's Awakening 09:40
04. The Lord Rises from His Throne 08:30
******************************
Total playing time: 33:37




[more=Technical info]
Input File: 02 - The Black Abyss.mp3
Channels : 2
Sample Rate : 44100
Precision : 16-bit
Duration : 00:10:25.09 = 27566557 samples = 46881.9 CDDA sectors
File Size : 25.1M
Bit Rate : 321k
Sample Encoding: MPEG audio (layer I, II or III)
Comments :
Title=The Black Abyss
Artist=Lord Orots
Album=Conquering the Infinite Void
Tracknumber=2
Year=2020
Genre=Metal
Discnumber=1

[/more]

Register
(9) grimoir, infiltrator, kim666, Olethros, randumbum, Rosen, SilentNidhogg, vasiljev_sergej, zargonath,
Aug 3 2020, 20:51:25 Dave Darroch - Unholy (2020)


*Artist: Dave Darroch
*Album: Unholy
*Year: 2020
*Genre: Heavy/Thrash Metal
*Country: United States
*Format: mp3@CBR320kbps
*Size: 89MB

Tracklist:
1. Collective Evil 04:55
2. Calvary 03:22
3. Sinner 03:06
4. Heads in the Sand 03:45
5. Silent Vatican 05:30
6. Suffer the Little Children 04:42
7. Looking Down from the Cross 03:12
8. End of Days 05:02
9. Unholy Island 05:17
******************************
Total playing time: 38:51






[more=Extended info]Dave Darroch Everything[/more]

[more=Technical info]
Input File: 02_dave_darroch_calvary.mp3
Channels : 2
Sample Rate : 44100
Precision : 16-bit
Duration : 00:03:21.76 = 8897528 samples = 15131.9 CDDA sectors
File Size : 8.09M
Bit Rate : 321k
Sample Encoding: MPEG audio (layer I, II or III)
Comments :
Title=Calvary
Artist=Dave Darroch
Album=Unholy
Tracknumber=2
Year=2020
Genre=Metal
Discnumber=1

[/more]

Register
(11) after21allD, aviacademy, boby9052, caro, infiltrator, Mares, metala, Olethros, Rosen, Rover, sergsazan,
Aug 3 2020, 20:32:48 Nightmare - Aeternam [single] (2020)


*Artist: Nightmare
*Album: Aeternam [single]
*Year: 2020
*Genre: Heavy/Power Metal
*Country: France
*Format: mp3@CBR320kbps
*Size: 10MB

Tracklist:
1. Aeternam 04:43
******************************
Total playing time: 4:43





[more=Extended info]Барышню на вокал взяли!

Yves Campion Bass (1979-1988, 1999-present)
See also: Archon Angel, ex-Urgent
Franck Milleliri Guitars (2004-present)
See also: ex-Dark Light
Matt Asselberghs Guitars (2012-present)
See also: FireForce, Sangdragon, ex-Architekt, ex-Fire Wizzard, Dead Crows, ex-Diesel Dust
Niels Quiais Drums (2018-present)
See also: Ossonor, ex-Morbid Feculent, Titans Fall Harder, ex-From Silence
Madie Vocals (2019-present)
See also: Faith in Agony[/more]

[more=Technical info]
Input File: 01_nightmare_aeternam.mp3
Channels : 2
Sample Rate : 44100
Precision : 16-bit
Duration : 00:04:42.51 = 12458515 samples = 21188 CDDA sectors
File Size : 11.5M
Bit Rate : 324k
Sample Encoding: MPEG audio (layer I, II or III)
Comments :
Artist=NIGHTMARE
Album=Aeternam
Year=2020

[/more]

Register
(10) after21allD, aviacademy, infiltrator, infozahist, Olethros, Rosen, Sanctus, SAPOGi, sergsazan, terron,
Aug 3 2020, 19:24:22 The Neologist - Are We Not Drawn Onward To New Era (2020)


*Artist: The Neologist
*Album: Are We Not Drawn Onward To New Era
*Year: 2020
*Genre: Modern Melodic Death Metal
*Country: United States
*Format: mp3@CBR320kbps
*Size: 108MB

Tracklist:
1. The Fall of an Empire (2020) 04:36
2. Cyclical Timing (2020) 04:12
3. 3.0 (2020) 04:03
4. A Place Where the Dead Don't Bother Me 03:42
5. My Angel is a Demon (2020) 04:14
6. Same Psychotic Wavelength (ft. Jon Howard) (2020) 04:56
7. Subterranean Creatures (2020) 04:05
8. Dead Winter Inside (2020) 04:17
9. In the Name of... (2020) 04:14
10. Bits in My Ear (Plug Your World in to Mine) (2020) 04:09
11. With Blind Eyes (2020) 03:57
******************************
Total playing time: 46:25





[more=Extended info]Devin Walsh Guitars, Bass (2009-present)
See also: Crimson Roots, Sever
James Lewis Vocals, Guitars, Programming (2009-present)
See also: Sever, This Cold Life[/more]

[more=Technical info]
Input File: 02_the_neologist_cyclical_timing_2020.mp3
Channels : 2
Sample Rate : 44100
Precision : 16-bit
Duration : 00:04:12.26 = 11124446 samples = 18919.1 CDDA sectors
File Size : 10.3M
Bit Rate : 326k
Sample Encoding: MPEG audio (layer I, II or III)
Comments :
Title=Cyclical Timing (2020)
Artist=The Neologist
Album=Are We Not Drawn Onward To New Era (Disc 1)
Tracknumber=2
Year=2020

[/more]

Register
(8) BaKu, infiltrator, Olethros, Rosen, Sanctus, VALERY, zhol, Сварог Барг,
Aug 3 2020, 19:08:28 Luck Wont Save You - Sail Into The Abyss [ep] (2020)


*Artist: Luck Wont Save You
*Album: Sail Into The Abyss [ep]
*Year: 2020
*Genre: Melodic Deathcore
*Country: United States
*Format: mp3@CBR320kbps
*Size: 70MB

Tracklist:
01. Constellation Of Demarcation 05:03
02. Exorcise To Exercise 06:37
03. I, Abomination 04:46
04. Hunting Season 05:32
05. Interlude 01:51
06. Sail Into The Abyss 06:10
******************************
Total playing time: 29:59






[more=Technical info]
Input File: 02_luck_wont_save_you_exorcise_to_exercise.mp3
Channels : 2
Sample Rate : 44100
Precision : 16-bit
Duration : 00:06:36.83 = 17499983 samples = 29761.9 CDDA sectors
File Size : 16.0M
Bit Rate : 323k
Sample Encoding: MPEG audio (layer I, II or III)
Comments :
Title=Exorcise To Exercise
Artist=Luck Wont Save You
Album=Sail Into The Abyss
Tracknumber=2
Year=2020

[/more]

Register
(8) Barlak, BugEyes, infiltrator, Olethros, Rosen, sludge666, VALERY, zhol,
Aug 3 2020, 18:08:22 Veil Of Delusions - Untold Dimensions (2020)


*Artist: Veil Of Delusions
*Album: Untold Dimensions
*Year: 2020
*Genre: Melodic Death/Symphonic Metal
*Country: Netherlands
*Format: mp3@CBR320kbps
*Size: 90MB

Tracklist:
1. Prisoner 05:01
2. Vicious Circle 04:32
3. Line Of Fire 05:09
4. Endless Visions 03:32
5. New Beginning 04:22
6. Endurance 05:24
7. Until It's Done 04:57
8. Over The Edge 05:57
******************************
Total playing time: 38:54




[more=Extended info]Zoë Tilly Vocals (lead)
Rob Reijs Drums (2015-present)
See also: ex-Desolace Divine
Xander ten Boden Guitars (2015-present)
See also: ex-Desolace Divine
Simon Onbelet Guitars (2018-present)
Joey Metalaet Bass (2019-present)[/more]

[more=Technical info]
Input File: 01_veil_of_delusions_prisoner.mp3
Channels : 2
Sample Rate : 44100
Precision : 16-bit
Duration : 00:05:00.90 = 13269602 samples = 22567.4 CDDA sectors
File Size : 12.1M
Bit Rate : 322k
Sample Encoding: MPEG audio (layer I, II or III)
Comments :
Title=Prisoner
Artist=Veil Of Delusions
Album=Untold Dimensions
Tracknumber=01
Year=2020
Discnumber=1

[/more]

Register
(15) Alpha_Prime, BugEyes, Cartman223, Hallraizer, Ice Gnoll, infiltrator, MMMMM, Olethros, Rosen, sadmannn, Sanctus, sergsazan, VALERY, zhol, Сварог Барг,
Aug 3 2020, 17:38:51 Catharist - Eternal Ekur (2020)
ЦИТАТА(AHBAnep @ Jul 31 2020, 11:16:00) *
утомительно

dooo.gif + слишком уж однообразно.
(1) satanist666,
Jul 29 2020, 18:52:28 Just Before Dawn - Who Knows What The Dark Brings [ep] (2020)


*Artist: Just Before Dawn
*Album: Who Knows What The Dark Brings [ep]
*Year: 2020
*Genre: Old School Death Metal
*Country: Sweden
*Format: mp3@CBR320kbps
*Size: 37MB

Tracklist:
01. Who Knows What the Dark Brings
02. Goliath Revived
03. Before the Fall
******************************
Total playing time: 15:35




[more=Technical info]
Input File: 02. Goliath Revived.mp3
Channels : 2
Sample Rate : 44100
Precision : 16-bit
Duration : 00:04:39.45 = 12323745 samples = 20958.8 CDDA sectors
File Size : 11.4M
Bit Rate : 327k
Sample Encoding: MPEG audio (layer I, II or III)
Comments :
Title=Goliath Revived
Artist=Just Before Dawn
Album=Who Knows What the Dark Brings
Tracknumber=2
Year=2020
Genre=OSDM

[/more]

Register
(19) AHBAnep, ALEXSATHANAS, andreikun, Boozer, cesar, desekrator, Geluelf, Hell_Is_Here, infiltrator, insufferable, kranger, Mares, obscenity, Olethros, Rosen, sergsazan, stumpheavyrock, VALERY, zhol,
Jul 27 2020, 20:51:38 Judicator - Let There Be Nothing (2020)
Даже не сколько на BG - сколько на Demons & Wizards.
(1) + ATheisT +,
Jul 27 2020, 18:34:57 Folklorica - Warhero (2020)


*Artist: Folklorica
*Album: Warhero
*Year: 2020
*Genre: Melodic Death/Doom Metal
*Country: Cuba
*Format: mp3@CBR320kbps
*Size: 110MB

Tracklist:
01. My doom
02. Towards a Godless Heaven
03. Nostalgia
04. Warhero
05. Seduction Maze
06. Awakening
07. Through Dreadful Nightmares
08. Inside Me
09. Progression
10. Talking Black
******************************
Total playing time: 46:58




[more=Technical info]
Input File: folklorica - Warhero - 02 Towards a Godless Heaven.mp3
Channels : 2
Sample Rate : 44100
Precision : 16-bit
Duration : 00:04:35.32 = 12141568 samples = 20648.9 CDDA sectors
File Size : 11.1M
Bit Rate : 323k
Sample Encoding: MPEG audio (layer I, II or III)
Comments :
Title=Towards a Godless Heaven
Artist=folklorica
Album=Warhero
Tracknumber=2
Year=2020

[/more]

Register
(24) AHBAnep, autumnwood, cesar, chefo, chipsgott, DenisKov, infiltrator, kranger, KVRT, lucifix, Lukittaz, metala, nadin85, Old Vyaine, Olethros, Rosen, SaintVitus, satanist666, sergsazan, skidnik, stumpheavyrock, VALERY, VLADISLAV_V_K, Сварог Барг,
Jul 27 2020, 17:01:38 Deathcraeft - On Human Devolution (2020)
Толковая вещица! metaler.gif
(1) kranger,
Jul 27 2020, 11:28:32 Witchbones - Night Of The Warlock [ep] (2020)


*Artist: Witchbones
*Album: Night Of The Warlock [ep]
*Year: 2020
*Genre: Death/Black/Doom Metal
*Country: United States
*Format: mp3@CBR320kbps
*Size: 53MB

Tracklist:
1. Poisoned Apple 05:14
2. The Call of the Triple Goddess 05:42
3. Back to the Forest 01:02 instrumental
4. Impish 05:36
5. How the End Always is 05:09
******************************
Total playing time: 22:43




[more=Extended info]Vardlokker Everything (2018-2020)
See also: Conduit of Chaos, Devouring Serpent, Dionysian Rites, Kaltesblut, Nexwomb, Omnikinetic, Sangre de la Luna[/more]

[more=Technical info]
Input File: Witchbones - Night Of The Warlock (EP) - 02 The Call Of The Triple Goddess.mp3
Channels : 2
Sample Rate : 44100
Precision : 16-bit
Duration : 00:05:42.64 = 15110468 samples = 25698.1 CDDA sectors
File Size : 13.9M
Bit Rate : 323k
Sample Encoding: MPEG audio (layer I, II or III)
Comments :
Title=The Call Of The Triple Goddess
Artist=Witchbones
Album=Night Of The Warlock (EP)
Tracknumber=2
Year=2020

[/more]

Register
(16) cesar, Doooomed, grimoir, Hell_Is_Here, infiltrator, lacrimoza, marilin, metala, multizwilling, Olethros, randumbum, Rosen, sergsazan, SilentNidhogg, VALERY, vasiljev_sergej,

177 Pages V   1 2 3 > » 
- Lo-Fi Version Support form
Copyrights and abuse reports form
Time is now: 13th August 2020 - 17:23:19