Welcome Guest ( Log In | Register )

История благодарностей участнику Andrew ::: Спасибо сказали: 37388 раз(а)
Дата поста: В теме: За сообщение: Спасибо сказали:
Sep 22 2022, 19:36:48 Oathbringer - Tales Of Glory (2022)


*Artist: Oathbringer
*Album: Tales Of Glory
*Year: 2022
*Genre: Power/Thrash Metal
*Country: Serbia
*Format: mp3@CBR320kbps
*Size: 89MB

Tracklist:
1. Arrival 00:50 instrumental
2. Odin’s Call 04:19
3. Hail to the King 03:49
4. Stand or Fall 03:46
5. Alone in the Night 04:15
6. The Ring 04:02
7. Shayol Ghul 05:28
8. Moria 06:01
9. Under the Spell (demo) 04:31
******************************
Total playing time: 37:01




[more=Extended info]Priestkiller Bass, Vocals (lead) (2020-present)
See also: Deadly Mosh, ex-Sarcophag, ex-Riddle of Steel, Amethyst, Motorcharge, ex-Crno Sunce, ex-Hard Ride, ex-Satara, ex-Whorebreaker
Helldiver Drums (2020-present)
See also: ex-Riddle of Steel, Motorcharge, Steel Hornet, ex-Deadly Mosh
Berserker Guitars (2020-present)
See also: ex-Riddle of Steel, Steel Hornet, ex-Invisible Hate
Axxer Guitars (2020-present)
See also: Invisible Hate, ex-Riddle of Steel, Goethe, ex-Etherstone[/more]

[more=Technical info]
Input File: 02. Odin’s Call.mp3
Channels : 2
Sample Rate : 44100
Precision : 16-bit
Duration : 00:04:20.12 = 11471072 samples = 19508.6 CDDA sectors
File Size : 10.6M
Bit Rate : 326k
Sample Encoding: MPEG audio (layer I, II or III)
Comments :
Title=Odin’s Call
Artist=Oathbringer
Album=Tales Of Glory
Tracknumber=02/09
Year=2022

[/more]

Register
(2) boby9052, metala,
Sep 22 2022, 06:49:56 Dark Divinity - Unholy Rapture (2022)


*Artist: Dark Divinity
*Album: Unholy Rapture
*Year: 2022
*Genre: Melodic Death Metal
*Country: New Zealand
*Format: mp3@CBR320kbps
*Size: 104MB

Tracklist:
1. Exegesis 04:30
2. Subterfuge 04:30
3. Blood On the Altar 03:46
4. The Seer 05:07
5. Forbidden 04:09
6. Excarnation 01:26
7. Left for Dead 03:57
8. Cadavers 04:22
9. Mist of the Old Gods 05:05
10. The Nothing 04:50
******************************
Total playing time: 41:42





[more=Extended info]Ian Moir Drums (2017-present)
See also: Into Orbit
Paul Stewart Guitars (2017-present), Bass (2021-present)
See also: Into Orbit
Jiji Aligno Guitars (2020-present)
See also: ex-Barang
Jesse Wheeler Vocals (2022-present)[/more]

[more=Technical info]
Input File: 02 - Subterfuge.mp3
Channels : 2
Sample Rate : 44100
Precision : 16-bit
Duration : 00:04:30.00 = 11907000 samples = 20250 CDDA sectors
File Size : 11.0M
Bit Rate : 325k
Sample Encoding: MPEG audio (layer I, II or III)
Comments :
Title=Subterfuge
Artist=Dark Divinity
Album=Unholy Rapture
Tracknumber=2
Year=2022-09-22
Discnumber=1

[/more]

Register
(19) akym, Altkiller, artscald, BugEyes, caro, chipsgott, lary_veel, LiarOfAngmar, m1asmatic, Marek, MMMMM, Phlebotomized, sergsazan, VALERY, yarrsuaa, yinchanghanhuang, Zer0, zhol, Сварог Барг,
Sep 21 2022, 18:16:37 In Flames - Foregone Pt. 1 [single] (2022)


*Artist: In Flames
*Album: Foregone Pt. 1 [single]
*Year: 2022
*Genre: Melodic Death Metal
*Country: Sweden
*Format: mp3@CBR320kbps
*Size: 9MB

Tracklist:
1. Foregone Pt.1 03:24
******************************
Total playing time: 3:24




[more=Extended info]Björn Gelotte Drums (1995-1998), Guitars (1995-present)
See also: ex-Flesh of Sights, The Tuboyz, ex-All Ends
Anders Fridén Vocals (1995-present)
See also: ex-Septic Broiler, If Anything, Suspicious, ex-Ceremonial Oath, ex-Dark Tranquillity, ex-Lamb of God (live), ex-Dead Man's Banquet, ex-Passenger
Bryce Paul Newman Bass, Vocals (backing) (2018-present)
See also: IVES
Tanner Wayne Drums (2018-present)
See also: Headcave, Hollows, NightFiends, ex-Underoath (live), ex-Chiodos, ex-Scary Kids Scaring Kids, ex-Underminded
Chris Broderick Guitars (2022-present)
See also: Act of Defiance, ex-Industrial Eden, ex-Jag Panzer, ex-Megadeth, ex-Altitudes & Attitude (live), ex-Ballistic, ex-Nevermore (live), ex-Grey Haven, ex-Killing Time


Третий трек с грядущего альбома и так же удачный![/more]

[more=Technical info]
Input File: 01_in_flames_foregone_pt_1.mp3
Channels : 2
Sample Rate : 44100
Precision : 16-bit
Duration : 00:03:24.08 = 9000060 samples = 15306.2 CDDA sectors
File Size : 9.68M
Bit Rate : 379k
Sample Encoding: MPEG audio (layer I, II or III)
Comments :
Title=Foregone Pt. 1
Artist=In Flames
Album=Foregone Pt. 1 - Single
Tracknumber=1/1
Year=2023
Genre=Metal
Discnumber=1/1

[/more]

Register


Три Сингла - и все добротные! Новый альбом должен быть однозначно шикардозным! metaler.gif
(14) ALEXSATHANAS, Aresson, artscald, boby9052, cancer1974, caro, chipsgott, gwar, hate_eternal, kostja, Mannard, sergsazan, Thrashman, tschunioronbeer,
Sep 20 2022, 18:06:58 The Rasmus - Rise (2022)


*Artist: The Rasmus
*Album: Rise
*Year: 2022
*Genre: Alternative/Melodic/Pop Rock
*Country: Finland
*Format: mp3@CBR320kbps
*Size: 87MB

Tracklist:
01. Live and Never Die 03:54
02. Rise 03:54
03. Fireflies 03:24
04. Be Somebody 04:08
05. Odyssey 02:49
06. Jezebel 03:10
07. Endless Horizon 03:46
08. Clouds 03:17
09. Written in Blood 03:22
10. Evil 05:00
******************************
Total playing time: 36:44



[more=Technical info]
Input File: 02. Rise.mp3
Channels : 2
Sample Rate : 44100
Precision : 16-bit
Duration : 00:03:54.57 = 10344361 samples = 17592.5 CDDA sectors
File Size : 9.45M
Bit Rate : 322k
Sample Encoding: MPEG audio (layer I, II or III)
Comments :
Title=Rise
Artist=The Rasmus
Album=Rise
Tracknumber=2
Year=2022

[/more]

Register
(6) Aresson, Evjenne, gwar, Phlebotomized, VALERY, yuratroll,
Sep 16 2022, 07:53:33 Eldprov - Rift (2022)

(1) Altkiller,
Sep 15 2022, 21:12:53 Battlesword - Towards The Unknown (2022) (1) Alacc17,
Sep 9 2022, 19:40:02 Before The Dawn - Downhearted [single] (2022)


*Artist: Before The Dawn
*Album: Downhearted [single]
*Year: 2022
*Genre: Melodic Death/Gothic Metal
*Country: Finland
*Format: mp3@CBR320kbps
*Size: 10MB

Tracklist:
1. Downhearted 04:07
******************************
Total playing time: 4:07




[more=Extended info]Tuomas Saukkonen Vocals (harsh), Guitars (rhythm, acoustic) (1999-2013), Keyboards (2004-2013), Bass (2005), Drums, Guitars (rhythm, acoustic) (2021-present), Vocals (harsh) (2021-2022)
See also: Dawn of Solace, Wolfheart, ex-Black Sun Aeon, ex-Bonegrinder, ex-RoutaSielu, ex-The Final Harvest, ex-Jumalhämärä, ex-Rajavyöhyke
Juho Räihä Guitars (lead) (2007-2013, 2021-present)
See also: Gloria Morti, Riverside Syndicate, Swallow the Sun, Hallatar (live), Red Moon Architect (live), ex-Hedonihil, ex-Wolfheart (live)
Pyry Hanski Bass (2011-2013, 2022-present)
See also: ...and Oceans, Endzeit, Gloria Morti, Mörbid Vomit, Red Moon Architect, Trollheims Grott, Oceanwake (live), True Black Dawn (live), ex-RoutaSielu, ex-Black Sun Aeon (live), Duo HANN, ex-Aeonian Sorrow, ex-Casket, ex-Omnium Gatherum (live), ex-Stam1na (live), ex-Less than Three
Paavo Laapotti Vocals (lead) (2022-present)
See also: Kuusuo[/more]

[more=Technical info]
Input File: Before The Dawn - Downhearted.mp3
Channels : 2
Sample Rate : 44100
Precision : 16-bit
Duration : 00:04:07.67 = 10922423 samples = 18575.5 CDDA sectors
File Size : 10.1M
Bit Rate : 328k
Sample Encoding: MPEG audio (layer I, II or III)
Comments :
Title=Downhearted
Artist=Before The Dawn
Album=Downhearted (Single)
Tracknumber=01
Year=2022
Genre=Melodic Death Metal

[/more]

Register
(12) ALEXSATHANAS, artscald, caro, Cartman223, gwynnbleid, Hell_Is_Here, infozahist, metalwoman, noel666, sadmannn, satanist666, sergsazan,
Sep 7 2022, 19:53:23 Pure Massacre - Pure Massacre (2022)
Отменный альбом!
Добротный, четкий мелодез, без модернятины, грува, чистоголосья и прочей ненужности. Однозначно в ТОР года. 20.gif
(1) samokot,
Sep 7 2022, 18:43:25 Korpiklaani - Krystallomantia [single] (2022)


*Artist: Korpiklaani
*Album: Krystallomantia [single]
*Year: 2022
*Genre: Folk Metal
*Country: Finland
*Format: mp3@CBR320kbps
*Size: 10MB

Tracklist:
1. Krystallomantia 04:39
******************************
Total playing time: 4:39




[more=Extended info]Cane Guitars, Vocals (backing) (2003-present)
See also: ex-Supreme Court
Jonne Järvelä Vocals, Guitars, Mandolin, Hurdy gurdy, Violafon, Shaman drum, Djembe, Flute (2003-present)
See also: Jonne, ex-Shaman, ex-Finntroll (live), ex-Shamaani Duo
Jarkko Aaltonen Bass (2005-present)
See also: Coronary
Tuomas Rounakari Violin (2012-present)
See also: Shamanviolin
Sami Perttula Accordion (2013-present)
Samuli Mikkonen Drums (2019-present)
See also: The Goat Radio, Battle Beast (live), Ansur, Profane Omen, Uhrilehto, ex-Forever Lost, ex-Arcadian Nocturne, End Begins, ex-Jonne, ex-Evil Angel (live), ex-Less than Three[/more]

[more=Technical info]
Input File: Korpiklaani - Krystallomantia.mp3
Channels : 2
Sample Rate : 44100
Precision : 16-bit
Duration : 00:04:39.58 = 12329346 samples = 20968.3 CDDA sectors
File Size : 11.4M
Bit Rate : 327k
Sample Encoding: MPEG audio (layer I, II or III)
Comments :
Title=Krystallomantia
Artist=Korpiklaani
Album=Krystallomantia
Tracknumber=1/1

[/more]

Register
(21) ALEXSATHANAS, Aresson, artscald, boby9052, Bregon, caro, Cartman223, chipsgott, gwar, gwynnbleid, infozahist, karut, Mannard, metalwoman, noel666, refleks22, russ777, sergsazan, Storky, vlad74, Zenial,
Aug 31 2022, 18:59:00 Pursuit - Scourge Of Humanity (2022)
Капец бестолковщина.
(1) AHBAnep,
Aug 31 2022, 18:52:21 Zyanide - Red Haze (2022)
Отличный материал выдали латиносы, молодчаги! Приятно удивили.
(2) alexeyinc, Sordes,
Aug 29 2022, 12:58:41 Absolute Darkness - Failure Of State (2022)
Что-то давненько не видать автора фразы:" Третьесорт". Она здесь уместна.
(1) alexeyinc,
Aug 28 2022, 20:21:32 Death Scythe - Killing For Pleasure Forever (2022)
Кстати, вполне неплохо. Обычно команды с данного региона намешивают всякого и получается такая невнятица в большинстве случаев, а тут приятно удивили. Не шедевр, разумеется, но слушать можно. Хронометраж великоват..........
(1) isvili,
Aug 26 2022, 19:38:01 Grave Digger - Symbol Of Eternity (2022)
ЦИТАТА(Ghostb @ Aug 26 2022, 00:33:31) *
Насколько мне нравился период 1994-2007 гг., настолько же унылы альбомы с Риттом.

Золотой период команды я думаю всем по душе любителям Диггеров.
Но, как по мне, и Ballads of a Hangman - очень добротный опус. Да и Return of the Reaper очень даже, чего одна Season of the Witch стОит! Мне даже Healed by Metal очень нравится.
По первой прослушке и новый альбом вполне пригодным выглядит. Так что, команду еще рано списывать со счетов.
(2) DTGB, Rhoads,
Aug 23 2022, 19:53:34 Hammer King - Kingdemonium (2022)
Очень неплохо. Мне показалось, что предыдущий поинтереснее был, но все равно, на фоне того УГ, которые выходит в последнее время тоннами, то весьма прилично!
(1) isvili,
Aug 23 2022, 19:31:46 Parasite Inc. - Cyan Night Dreams (2022)
Еще одно разочарование вслед за Soilwork.
Дебютник был очень добротный. Следующий альбом так себе. А вот новое творение...просто без комментариев. Стилистику в шапке можно очень сильно поправить. Какой же нахрен это МДМ???????
(1) alexeyinc,
Aug 23 2022, 19:23:36 Soilwork - Övergivenheten (2022)
Чет воооообще не понравилось, от слова СОВСЕМ!
Насколько я котирую A Predator's Portrait (любимый альбом у группы), Natural Born Chaos, Figure Number Five - переслушиваю время от времени, но дальше произошло видоизменение в звучании и подачи кол-ва.
И да, данный сабж скорее напоминает меланхолично-готичную растянутую жевачку, но ни как не Мелодик Дез, пусть даже и Модерн.
Разочарование года однозначно 6.gif
(2) alexeyinc, avather,
Aug 23 2022, 04:42:36 Sodom - 1982 [single] (2022)


*Artist: Sodom
*Album: 1982 [single]
*Year: 2022
*Genre: Thrash Metal
*Country: Germany
*Format: mp3@CBR320kbps
*Size: 8MB

Tracklist:
1. 1982 03:22
******************************
Total playing time: 3:22





[more=Extended info]Tom Angelripper Bass (1982-present), Vocals (1984-present)
See also: Onkel Tom Angelripper, ex-Dezperadoz, ex-Die Knappen, ex-Bassinvaders
Frank Blackfire Guitars (1987-1989, 2018-present)
See also: Assassin, Frank Blackfire, ex-Mystic, ex-Kreator, ex-Wortmord, ex-Widia
Yorck Segatz Guitars (2018-present)
See also: Neck Cemetery, Rotten Casket, ex-Beyondition
Toni Merkel Drums (2020-present)
See also: Big End Bolt, Frank Blackfire, Interstellar Genocide, Master Deceiver, Sabiendas, ex-Pestlegion, ex-Pighead (live), ex-Negator (live)[/more]

[more=Technical info]
Input File: Sodom - 1982.mp3
Channels : 2
Sample Rate : 44100
Precision : 16-bit
Duration : 00:03:22.65 = 8936689 samples = 15198.5 CDDA sectors
File Size : 8.11M
Bit Rate : 320k
Sample Encoding: MPEG audio (layer I, II or III)
Comments :
Title=1982
Artist=Sodom

[/more]

Register
(27) artscald, boby9052, Branis, caro, chipsgott, Emm Human, Grev, gwar, HeavyMetalBill, hell_armageddon, Hell_Is_Here, Lanceatum, lucifix, Mannard, Marek, martintrue, noel666, Occultas, older68, Papych, rammmirez, sepultura39, sergsazan, smysl, uk82grind, Wail, wreak,
Aug 22 2022, 19:53:18 Convulsis - An Evil Born From The Void [ep] (2022) (1) GorAtheist,
Aug 22 2022, 19:47:25 Unclarity - Beyond From Death, Your Time Is... (2022) (1) DenisKov,
Aug 22 2022, 19:41:18 Anemone - Danse Macabre (2022) (1) + ATheisT +,
Aug 22 2022, 17:56:28 Candlemass - Scandinavian Gods [single] (2022)


*Artist: Candlemass
*Album: Scandinavian Gods [single]
*Year: 2022
*Genre: Epic Doom Metal
*Country: Sweden
*Format: mp3@CBR320kbps
*Size: 11MB

Tracklist:
1. Scandinavian Gods 04:36
******************************
Total playing time: 4:36






[more=Extended info]Leif Edling Bass (1984-1994, 1997-2002, 2004-present), Vocals (1984-1986)
See also: Leif Edling, The Doomsday Kingdom, ex-Abstrakt Algebra, ex-Witchcraft, ex-Krux, ex-Nemesis, ex-Avatarium, ex-Trilogy
Mappe Björkman Guitars (rhythm) (1985-1994, 2001-2002, 2004-present)
See also: ex-ATC, ex-Zoic
Jan Lindh Drums (1987-1994, 2001-2002, 2004-present)
See also: ex-Creozoth, ex-Zoic, ex-Warning
Lars Johansson Guitars (lead) (1987-1994, 2001-2002, 2004-present)
See also: ex-Creozoth, ex-Zoic, FAT.MO.MAC, Nu Jävlar!, ex-Shock Tilt, ex-Hexagon, ex-Macbeth
Johan Längquist Vocals (2018-present)
See also: ex-Jonah Quizz, Impulsia, ex-D-Project[/more]

[more=Technical info]
Input File: Candlemass - Scandinavian Gods.mp3
Channels : 2
Sample Rate : 44100
Precision : 16-bit
Duration : 00:05:05.34 = 13465318 samples = 22900.2 CDDA sectors
File Size : 12.2M
Bit Rate : 320k
Sample Encoding: MPEG audio (layer I, II or III)
Comments :
Title=Scandinavian Gods
Artist=Candlemass
Album=Scandinavian Gods
Year=2022

[/more]

Register
(23) andreikun, Aresson, artscald, caro, chipsgott, Emm Human, garml2, greenock, Grev, gwar, KVRT, LEGION69, Mannard, noel666, plfan93, Reverend, russ777, s810ic1, Sanctus, sergsazan, Shub, Wail, wreak,
Aug 22 2022, 17:49:23 Autopsy - Skin By Skin [single] (2022)


*Artist: Autopsy
*Album: Skin By Skin [single]
*Year: 2022
*Genre: Death Metal
*Country: United States
*Format: mp3@CBR320kbps
*Size: 10MB

Tracklist:
1. Skin by Skin 04:09
******************************
Total playing time: 4:09





[more=Extended info]Chris Reifert Vocals, Drums (1987-1995, 2008, 2009-present)
See also: Siege of Power, Static Abyss, ex-Abscess, ex-Doomed, ex-The Ravenous, Painted Doll, Violation Wound, ex-Burnt Offering, ex-Frightmare, ex-Death, ex-Desecration (live), ex-Eat My Fuk, ex-Guillotine, ex-Mirror Snake
Eric Cutler Vocals, Guitars (1987-1995, 2008, 2009-present)
See also: ex-Funeral, ex-Necrosic, ex-House by the Cemetary, ex-Scolex (live), ex-Doomed, ex-Dark Hall
Danny Coralles Guitars (1988-1995, 2008, 2009-present)
See also: ex-Abscess, ex-Doomed, ex-The Ravenous, Eat My Fuk, ex-Bloodbath, ex-Mirror Snake
Greg Wilkinson Bass (2021-present)
See also: Brainoil, Deathgrave, Leather Glove, Static Abyss, ex-Cruevo (live), I Will Kill You Fucker, PHT (Pig Heart Transplant), ex-Graves at Sea, ex-Laudanum, ex-Carrion, ex-Geni-Sore, ex-Lamar, ex-Lana Dagales, ex-The Malnourished Nothings[/more]

[more=Technical info]
Input File: Autopsy - Skin By Skin.mp3
Channels : 2
Sample Rate : 44100
Precision : 16-bit
Duration : 00:04:08.72 = 10968508 samples = 18653.9 CDDA sectors
File Size : 10.2M
Bit Rate : 328k
Sample Encoding: MPEG audio (layer I, II or III)
Comments :
Title=Skin By Skin
Artist=Autopsy
Album=Skin By Skin (Single)
Tracknumber=01
Year=2022
Genre=22

[/more]

Register
(23) andreikun, artscald, caro, cesar, chipsgott, Emm Human, garml2, greenock, Grev, gwar, Hell_Is_Here, infozahist, noel666, older68, Reverend, SAPOGi, Sarin, spazm, vyacheslav, Wail, wanderer73, wreak, Zhelezjaka,
Aug 17 2022, 09:45:09 Epica - Run For A Fall [single] (2022)


*Artist: Epica
*Album: Run For A Fall [single]
*Year: 2022
*Genre: Symphonic Metal
*Country: Netherlands
*Format: mp3@CBR320kbps
*Size: 42MB

Tracklist:
1. Run for a Fall (Acoustic) 04:46
2. Run for a Fall (Live at Paradiso) 07:08
3. Run for a Fall 06:32
******************************
Total playing time: 18:26




[more=Extended info]Mark Jansen Guitars (rhythm), Orchestrations, Vocals (harsh) (2003-present)
See also: Mayan, Sahara Dust, ex-Carthagods (live), ex-After Forever, ex-Countermove
Coen Janssen Keyboards, Piano, Orchestrations (2003-present)
See also: Amahiru, Sahara Dust, ex-DragonForce (live), ex-Kamelot (live)
Simone Simons Vocals (2003-present)
See also: Sahara Dust, ex-Kamelot (live), ex-Mayan (live), ex-Countermove
Ariën van Weesenbeek Drums, Vocals (grunts, spoken word) (2007-present)
See also: Mayan, ex-Down Till Dawn, ex-Downslide, ex-Edgecrusher, ex-Pandaemonium, ex-God Dethroned, ex-HDK, ex-Aborted (live), ex-Conspiracy
Isaac Delahaye Guitars (lead), Vocals (harsh) (2009-present)
See also: ex-Down Till Dawn, ex-Edgecrusher, ex-Forcible, ex-God Dethroned, ex-Mayan, ex-Panopticum
Rob van der Loo Bass (2012-present)
See also: ex-Fifth, ex-Soulcatcher, ex-Freak Neil Inc., ex-Form, Rob van der Loo, ex-Delain, ex-Mayan, ex-Exivious, ex-Sun Caged, ex-Triple 7,[/more]

[more=Technical info]
Input File: 03 Run For A Fall.mp3
Channels : 2
Sample Rate : 44100
Precision : 16-bit
Duration : 00:06:32.94 = 17328786 samples = 29470.7 CDDA sectors
File Size : 15.8M
Bit Rate : 321k
Sample Encoding: MPEG audio (layer I, II or III)
Comments :
Title=Run For A Fall
Artist=Epica
Album=Run For A Fall
Tracknumber=03
Year=2022
Genre=Acoustic

[/more]

Register
(16) after21allD, artscald, boby9052, caro, Cartman223, csgmnk, Dante_D, GorAtheist, gwar, gwynnbleid, HMHamster, kluval, Reverend, sergsazan, terron, wreak,
Aug 17 2022, 06:25:34 Vvikkan - Velvet Taboo (2022)


*Artist: Vvikkan
*Album: Velvet Taboo
*Year: 2022
*Genre: Gothic/Doom Metal
*Country: United States
*Format: mp3@CBR320kbps
*Size: 94MB

Tracklist:
01. Curiosity of a Woman (Intro)
02. Swing, Cherry Tree
03. The Eye
04. Hekate, Breathe
05. Velvet Taboo
06. Spring
07. Won't You Fall_ feat. Eve Scarlet
******************************
Total playing time: 39:50



[more=Technical info]
Input File: VVikkan - Velvet Taboo - 02 Swing, Cherry Tree.mp3
Channels : 2
Sample Rate : 44100
Precision : 16-bit
Duration : 00:08:10.50 = 21631138 samples = 36787.6 CDDA sectors
File Size : 19.8M
Bit Rate : 323k
Sample Encoding: MPEG audio (layer I, II or III)
Comments :
Title=Swing, Cherry Tree
Artist=VVikkan
Album=Velvet Taboo
Tracknumber=2
Year=2022

[/more]

Register
(16) artscald, caro, Cartman223, chipsgott, Emhyr var Emreis, HMHamster, kimkayoung, metala, Mogozoz, obituarydark, quarantine, robertho777, sergsazan, supremo, VALERY, wreak,

216 Pages V   1 2 3 > » 
- Lo-Fi Version Support form
Copyrights and abuse reports form
Time is now: 25th September 2022 - 11:20:36