Welcome Guest ( Log In | Register )

История благодарностей участнику Andrew ::: Спасибо сказали: 29828 раз(а)
Дата поста: В теме: За сообщение: Спасибо сказали:
Apr 14 2021, 18:00:50 The Offspring - Let The Bad Times Roll (2021)
ЦИТАТА(vosmidesijatye @ Apr 14 2021, 17:57:17) *
Помню то лето

А я помню весну 1996 года, когда по дешевке купил альбом Smash.
Это был пик и вершина творчества. Стиль ааааабсолютно не мой, но альбом МЕГа шикардозный!
А это....уже жалкая породия и попытка нарулить песню.
(3) fateefffddd, infiltrator, Velemysl,
Apr 14 2021, 15:52:54 The Offspring - Let The Bad Times Roll (2021)


Примитивщина, ужас. От старой былой толковой команды, выпустившая пару гениальных альбомов, не осталось и следа.
(2) fateefffddd, infiltrator,
Apr 14 2021, 07:10:11 Svdestada - Azabache (2021)


*Artist: Svdestada
*Album: Azabache
*Year: 2021
*Genre: Melodic Black Metal/Black 'n' Roll
*Country: Spain
*Format: mp3@CBR320kbps
*Size: 75MB

Tracklist:
1. Manifiesto 01:08 instrumental
2. Azabache 03:19
3. Fuga 02:45
4. Hogueras 02:02
5. Pesomuerto 02:58
6. Derrota 03:55
7. Petricor 03:53
8. Apóstata 02:29
9. Rendición 02:56
10. Sotavento 06:24
11. Galerna 00:46 instrumental
******************************
Total playing time: 32:35





[more=Extended info]Jorge Urosa Bass
See also: ex-MotherSloth (live)
Peter Lopez Drums
See also: ex-Lvx in Tenebris
Fernando Lamattina Guitars
Mario C. Vaises Vocals
See also: Khmer, ex-El Ego, ex-Become Wrath[/more]

[more=Technical info]
Input File: 02 - Azabache.mp3
Channels : 2
Sample Rate : 44100
Precision : 16-bit
Duration : 00:03:19.07 = 8778855 samples = 14930 CDDA sectors
File Size : 8.03M
Bit Rate : 323k
Sample Encoding: MPEG audio (layer I, II or III)
Comments :
Title=Azabache
Artist=Svdestada
Album=Azabache
Tracknumber=2
Year=2021
Genre=Melodic Black Metal

[/more]

Register
(14) AlexSmith, atavist, infiltrator, kimkayoung, Olethros, randumbum, robertho777, symphonicadiction, VALERY, varlam4, vasiljev_sergej, Vitald, zhol, Сварог Барг,
Apr 14 2021, 07:02:28 Inner Sanctum - Perpetual Kind Of Past [ep] (2021)


*Artist: Inner Sanctum
*Album: Perpetual Kind Of Past [ep]
*Year: 2021
*Genre: Death/Thrash Metal
*Country: Uruguay
*Format: mp3@CBR320kbps
*Size: 55MB

Tracklist:
1. Waking the Dead 05:18
2. Machines 03:34
3. After the Dark 05:53
4. The Sorrow Must Fall 04:01
5. Dark Frozen Mud 06:38
******************************
Total playing time: 25:24




[more=Extended info]Heber W. Hammer Guitars (1989-present, 2006, 2009-2016, 2020-present)
See also: ex-Legend, ex-Melkor Morgoth
Pablo Van Lagat Bass, Vocals (1990-1996), Vocals (2020-present)
See also: ex-Senda Negra, ex-Angkor Vat, ex-Raven Circle, ex-Varsovia Tyrana
Gustavo Herrera Bass (2020-present)
See also: ex-Charrua, ex-Parasital Existence
Gustavo Tort Drums (2020-present)
See also: ex-Arcanus, ex-Stertor, Macabriah, ex-Malevaje, ex-Varsovia Tyrana[/more]

[more=Technical info]
Input File: 02. Machines.mp3
Channels : 2
Sample Rate : 44100
Precision : 16-bit
Duration : 00:03:35.39 = 9498875 samples = 16154.5 CDDA sectors
File Size : 8.86M
Bit Rate : 329k
Sample Encoding: MPEG audio (layer I, II or III)
Comments :
Title=Machines
Artist=Inner Sanctum
Album=Perpetual Kind of Past
Tracknumber=02/05
Year=2021

[/more]

Register
(9) after21allD, AHBAnep, infiltrator, Marek, Olethros, randumbum, sergsazan, TeamatSE, vyacheslav,
Apr 8 2021, 08:04:40 Sadistic Domain - Descomposicon Mortal (2021)


*Artist: Sadistic Domain
*Album: Descomposicon Mortal
*Year: 2021
*Genre: Death/Thrash Metal
*Country: Colombia
*Format: flac
*Size: 111MB

Tracklist:
1. XII 00:55
2. Herencia de violencia 02:16
3. Ruptura 03:20
4. Acontecimientos de tragedias 02:51
5. Descomposición mortal 03:10
6. MMXX 00:55
7. Antihuman 03:35
******************************
Total playing time: 17:02




[more=Extended info]Juan Morales All instruments (2012-2013), Vocals, Guitars (2013-present)
See also: ex-Anticonforme, Antitaurino, BestialHammer, ex-Alcoholemia, ex-Bio-Death, ex-Dark Pussy, ex-Death in Throne, ex-Silex, ex-Veneno Negro
Luis Alberto Torres Drums (2020-present)
See also: Acrimonia, Evil Possession, ex-Exequia, ex-Ghoulish Pain[/more]

Register
(8) boby9052, infiltrator, jollo, Olethros, sergsazan, stumpheavyrock, wgs73, wtk.412,
Apr 7 2021, 18:49:37 Helloween - Indestructible [single] (2021)


*Artist: Helloween
*Album: Indestructible [single]
*Year: 2021
*Genre: Power/Speed Metal
*Country: Germany
*Format: mp3@CBR320kbps
*Size: 10MB

Tracklist:
1. Indestructible 04:31
******************************
Total playing time: 4:31




[more=Extended info]Markus Grosskopf Bass (1983-present)
See also: ex-Shock Machine, ex-Weinhold, ex-Bassinvaders, Kickhunter, ex-Avantasia, ex-Trick or Treat (live), ex-Edguy (live), ex-Roland Grapow, ex-Blast Furnace, ex-Gentry, ex-Second Hell
Michael Weikath Guitars (1983-present)
See also: ex-Blast Furnace, ex-Powerfool
Kai Hansen Guitars, Vocals (1983-1988, 2017-present)
See also: Gamma Ray, Hansen & Friends, Unisonic, ex-Iron Savior, ex-Avantasia (live), ex-Ancient Call, ex-Gentry, ex-Iron Fist, ex-Powerfool, ex-Second Hell
Michael Kiske Vocals (1986-1993, 2017-present)
See also: Kiske / Somerville, Place Vendome, Unisonic, Michael Kiske, ex-Avantasia (live), ex-Ill Prophecy, ex-SupaRed
Andi Deris Vocals (1994-present)
See also: Andi Deris and The Bad Bankers, ex-Pink Cream 69, ex-Kymera, ex-Dragon, ex-Nameless, ex-Paranoid
Sascha Gerstner Guitars (2002-present)
See also: Palast, ex-Freedom Call, ex-Lanzer (live)
Dani Löble Drums (2005-present)
See also: ex-Glenmore, ex-Höllenhunde, Gotthard (live), ex-Rawhead Rexx, ex-Krokus (live), ex-Blaze (live), ex-Element 58[/more]

[more=Technical info]
Input File: 01 helloween_indestructible.mp3
Channels : 2
Sample Rate : 44100
Precision : 16-bit
Duration : 00:04:31.40 = 11968916 samples = 20355.3 CDDA sectors
File Size : 10.9M
Bit Rate : 320k
Sample Encoding: MPEG audio (layer I, II or III)

[/more]

Register
(4) Aresson, ENDSMOUTH, rammmirez, sergsazan,
Apr 2 2021, 07:35:09 Helloween - Skyfall [single] (2021)


*Artist: Helloween
*Album: Skyfall [single]
*Year: 2021
*Genre: Power/Speed Metal
*Country: Germany
*Format: mp3@CBR320kbps
*Size: 42MB

Tracklist:
1. Skyfall (single edit) 07:19
2. Skyfall (exclusive alternative vocals mix) 12:12
******************************
Total playing time: 19:31




[more=Extended info]Markus Grosskopf Bass (1983-present)
See also: ex-Shock Machine, ex-Weinhold, ex-Bassinvaders, Kickhunter, ex-Avantasia, ex-Trick or Treat (live), ex-Edguy (live), ex-Roland Grapow, ex-Blast Furnace, ex-Gentry, ex-Second Hell
Michael Weikath Guitars (1983-present)
See also: ex-Blast Furnace, ex-Powerfool
Kai Hansen Guitars, Vocals (1983-1988, 2017-present)
See also: Gamma Ray, Hansen & Friends, Unisonic, ex-Iron Savior, ex-Avantasia (live), ex-Ancient Call, ex-Gentry, ex-Iron Fist, ex-Powerfool, ex-Second Hell
Michael Kiske Vocals (1986-1993, 2017-present)
See also: Kiske / Somerville, Place Vendome, Unisonic, Michael Kiske, ex-Avantasia (live), ex-Ill Prophecy, ex-SupaRed
Andi Deris Vocals (1994-present)
See also: Andi Deris and The Bad Bankers, ex-Pink Cream 69, ex-Kymera, ex-Dragon, ex-Nameless, ex-Paranoid
Sascha Gerstner Guitars (2002-present)
See also: Palast, ex-Freedom Call, ex-Lanzer (live)
Dani Löble Drums (2005-present)
See also: ex-Glenmore, ex-Höllenhunde, Gotthard (live), ex-Rawhead Rexx, ex-Krokus (live), ex-Blaze (live), ex-Element 58[/more]

[more=Technical info]
Input File: 01 Helloween - Skyfall (Single Edit) (Single Edit).mp3
Channels : 2
Sample Rate : 44100
Precision : 16-bit
Duration : 00:07:19.72 = 19391520 samples = 32978.8 CDDA sectors
File Size : 17.6M
Bit Rate : 320k
Sample Encoding: MPEG audio (layer I, II or III)

[/more]

Register
(20) ALEXSATHANAS, Aresson, atavist, aviacademy, boby9052, Diflock, dulak, ENDSMOUTH, gattometal, gwar, infiltrator, Kenshiro89, killingod, Mannard, Marek, metalboll, Old Vyaine, Olethros, rammmirez, Yngwarr,
Apr 2 2021, 06:55:03 Aventh - Overshadow [ep] (2021)


*Artist: Aventh
*Album: Overshadow [ep]
*Year: 2021
*Genre: Melodic Death Metal
*Country: Brazil
*Format: flac
*Size: 148MB

Tracklist:
1. Overshadow 04:29
2. Four Walls 05:01
3. Treacherous 05:14
4. Gutter Ballet 05:54
******************************
Total playing time: 20:38




[more=Extended info]Leonardo Boroni Bass (2019-present)
Rôh Souza Vocals (2019-present)
Fernando Ornellas Drums (2021-present)
See also: Structural Repairs, ex-FireGun
Guilherme Mateus Guitars (2021-present)
See also: Bruno Sutter, Piratas do Recife, Children of the Seven Keys, Oversize, Super Fox[/more]

Register
(7) AHBAnep, infiltrator, Marek, Olethros, TeamatSE, varlam4, wanderer73,
Apr 2 2021, 06:25:47 Decrepify - Hunter (2021)


*Artist: Decrepify
*Album: Hunter
*Year: 2021
*Genre: Black Metal
*Country: Argentina
*Format: mp3@CBR320kbps
*Size: 94MB

Tracklist:
1. Chapter I Past
2. Chapter II Fury
3. Chapter III Sacrifice
4. Chapter IV Essence
5. Chapter V Moon
6. Chapter VI Revenge
7. Chapter VII Pests
8. Chapter VIII Shadows
9. Chapter IX Southern
******************************
Total playing time: 41:33






[more=Extended info]Phantom All instruments, Vocals
See also: ex-Nibiruth[/more]

[more=Technical info]
Input File: 02 - Chapter II Fury.mp3
Channels : 2
Sample Rate : 44100
Precision : 16-bit
Duration : 00:04:48.41 = 12718881 samples = 21630.8 CDDA sectors
File Size : 11.5M
Bit Rate : 320k
Sample Encoding: MPEG audio (layer I, II or III)
Comments :
Title=Chapter II Fury
Artist=Decrepify
Album=Hunter
Tracknumber=2
Year=2021

[/more]

Register
(10) AlexSmith, atavist, infiltrator, kim666, Olethros, randumbum, SilentNidhogg, VALERY, varlam4, vasiljev_sergej,
Apr 2 2021, 06:16:35 Kathrash - Incident Nonexistent (2021)


*Artist: Kathrash
*Album: Incident Nonexistent
*Year: 2021
*Genre: Thrash/Groove Metal
*Country: Finland
*Format: mp3@CBR320kbps
*Size: 61MB

Tracklist:
1. My Redemption 03:26
2. Plague Doctor 03:52
3. Medical Experiment 03:07
4. Salvation by Cyanide 03:03
5. Kill With Me 03:13
6. Iron Sight 03:24
7. City 40 03:19
8. Healing through Intoxicants 03:45
******************************
Total playing time: 27:09






[more=Extended info]Mikko Pöllä Bass (2018-present)
See also: Azure, ex-Murderaim, ex-Corpsessed
Severi Seppänen Drums (2018-present)
See also: Azure
Sami Korpela Guitars (2018-present)
Jari Parkkinen Guitars (2018-present)
Valtteri Vuollekoski Vocals (2018-present)
See also: Overdoze, ex-Necrodium[/more]

[more=Technical info]
Input File: 02 - Plague Doctor.mp3
Channels : 2
Sample Rate : 44100
Precision : 16-bit
Duration : 00:03:52.69 = 10261541 samples = 17451.6 CDDA sectors
File Size : 9.31M
Bit Rate : 320k
Sample Encoding: MPEG audio (layer I, II or III)
Comments :
Title=Plague Doctor
Artist=KATHRASH
Album=Incident Nonexistent
Tracknumber=2
Year=2021

[/more]

Register
(8) atavist, boby9052, caro, infiltrator, metala, Olethros, stumpheavyrock, WX419,
Apr 2 2021, 06:09:00 Smolder Glow - Smolder Glow (2021)


*Artist: Smolder Glow
*Album: Smolder Glow
*Year: 2021
*Genre: Blackened Death Metal
*Country: United States
*Format: mp3@CBR320kbps
*Size: 90MB

Tracklist:
1. Divided States of Emergency
2. Liquified
3. Precedent
4. Eviction
5. Power Outage
6. Isolated Incidence
7. The Hourglass Shrine
8. Rusted Sun
9. Ashes
10. Reign (feat. Ivan Torres)
11. Winter Comes
******************************
Total playing time: 39:40





[more=Technical info]
Input File: 02 - Liquified.mp3
Channels : 2
Sample Rate : 44100
Precision : 16-bit
Duration : 00:03:03.71 = 8101435 samples = 13778 CDDA sectors
File Size : 7.35M
Bit Rate : 320k
Sample Encoding: MPEG audio (layer I, II or III)
Comments :
Title=Liquified
Artist=Smolder Glow
Album=Smolder Glow
Tracknumber=2
Year=2021

[/more]

Register
(9) atavist, caro, infiltrator, Olethros, randumbum, Shadechaser, VALERY, varlam4, wanderer73,
Apr 2 2021, 06:02:01 Atropina - Prego Em Carne Podre (2021)


*Artist: Atropina
*Album: Prego Em Carne Podre
*Year: 2021
*Genre: Black/Death Thrash Metal
*Country: Brazil
*Format: mp3@CBR320kbps
*Size: 90MB

Tracklist:
1. Vociferando Sangue
2. Blasfemia Eterna
3. Lagrimas Mortas
4. Prego em Carne Podre
5. Gelida Madeira
6. Anjo Doentio
7. Masmorra dos Acoitados
8. Enfermidades Torturadas
9. Delirios Assombrados
10. Hereditario Fim
******************************
Total playing time: 39:49






[more=Extended info]Gian Rossi Drums
Alex Alves Guitars, Vocals (backing) (1996-2007, 2012-present)
Murillo "Ogro" Rocha Bass (2001-2007), Vocals (2012-present)
Fernando Müller Guitars (2012-present)
Cleomar Schmitzhaus Bass (2013-present)[/more]

[more=Technical info]
Input File: 02 - Blasfêmia Eterna.mp3
Channels : 2
Sample Rate : 44100
Precision : 16-bit
Duration : 00:02:42.89 = 7183229 samples = 12216.4 CDDA sectors
File Size : 6.52M
Bit Rate : 320k
Sample Encoding: MPEG audio (layer I, II or III)
Comments :
Title=Blasfêmia Eterna
Artist=Atropina
Album=Prego em Carne Podre
Tracknumber=2
Year=2021

[/more]

Register
(9) boby9052, caro, Diflock, infiltrator, Olethros, randumbum, stumpheavyrock, VALERY, varlam4,
Apr 2 2021, 05:53:05 Inherit Death - Inherit Death (2021)


*Artist: Inherit Death
*Album: Inherit Death
*Year: 2021
*Genre: Death Metal
*Country: United States
*Format: mp3@CBR320kbps
*Size: 85MB

Tracklist:
1. Desecration and Atonement
2. Tyranny of Sin
3. Inherit Death
4. Imolation
5. The Rite
6. Feast of Shadows
7. Earth is a Grave
8. Obsolete
9. Salem A.D.
******************************
Total playing time: 37:49




[more=Technical info]
Input File: 02 - Tyranny of Sin.mp3
Channels : 2
Sample Rate : 44100
Precision : 16-bit
Duration : 00:03:47.31 = 10024239 samples = 17048 CDDA sectors
File Size : 9.10M
Bit Rate : 320k
Sample Encoding: MPEG audio (layer I, II or III)
Comments :
Title=Tyranny of Sin
Artist=Inherit Death
Album=Inherit Death
Tracknumber=2
Year=2021

[/more]

Register
(17) AHBAnep, atavist, caro, cesar, desekrator, infiltrator, jollo, Mist13Signifier, Olethros, randumbum, TeamatSE, vader69, VALERY, vyacheslav, wanderer73, wtk.412, WX419,
Apr 2 2021, 05:47:17 Tännebränne - Storm (2021)


*Artist: Tännebränne
*Album: Storm
*Year: 2021
*Genre: Progressive Death Metal
*Country: Sweden
*Format: mp3@CBR320kbps
*Size: 87MB

Tracklist:
1. Fall 04:26
2. Storm 03:38
3. Selen 04:58
4. Ordning 04:59
5. Änglamakerskan 04:37
6. Aktas, backas, tuktas 04:49
7. Ursinnes tider 06:03
******************************
Total playing time: 33:30




[more=Technical info]
Input File: Tännebränne - Storm - 02 Storm.mp3
Channels : 2
Sample Rate : 44100
Precision : 16-bit
Duration : 00:03:38.24 = 9624340 samples = 16367.9 CDDA sectors
File Size : 8.92M
Bit Rate : 327k
Sample Encoding: MPEG audio (layer I, II or III)
Comments :
Title=Storm
Artist=Tännebränne
Album=Storm
Tracknumber=2
Year=2021

[/more]

Register
(11) caro, cesar, infiltrator, kimkayoung, kryuger, metala, Olethros, Requiescat, stumpheavyrock, VALERY, wanderer73,
Apr 2 2021, 05:30:42 Neptune - Frames (2021)


*Artist: Neptune
*Album: Frames
*Year: 2021
*Genre: Modern Melodic Death Metal
*Country: Italy
*Format: mp3@CBR320kbps
*Size: 125MB

Tracklist:
01. Farewell
02. The Gesture of Hands
03. Black Hole
04. Heads or Tails
05. Rainbow World
06. Crossing the River
07. Pale Blue Dot
08. Your Lies
09. Relief
10. Forgiveness
11. Frames
******************************
Total playing time: 53:45





[more=Extended info]Francesco "Cesco" Adami Bass
See also: ex-Silence
Corrado "Corradino" Zoccatelli Drums
Claudio Giacometti Guitars
Mattia Filippi Guitars
Mattia "Tia" Nidini Vocals[/more]

[more=Technical info]
Input File: 02 - The Gesture of Hands.mp3
Channels : 2
Sample Rate : 44100
Precision : 16-bit
Duration : 00:04:18.00 = 11377800 samples = 19350 CDDA sectors
File Size : 10.5M
Bit Rate : 326k
Sample Encoding: MPEG audio (layer I, II or III)
Comments :
Title=The Gesture of Hands
Artist=Neptune
Album=Frames
Tracknumber=2
Year=2021-02-04
Genre=Melodic Death Metal
Discnumber=1

[/more]

Register
(11) Bloodn Lord, DenisKov, gwynnbleid, infiltrator, kimkayoung, Lukittaz, Olethros, randumbum, VALERY, zhol, Сварог Барг,
Apr 2 2021, 05:27:45 Nervous Decay - Nervous Decay (2021)


*Artist: Nervous Decay
*Album: Nervous Decay
*Year: 2021
*Genre: Old School Death Metal
*Country: France
*Format: flac
*Size: 303MB

Tracklist:
01. Cerberus Brace 06:15
02. Daily Poison 06:16
03. Mirrors of Pain 06:57
04. Nervous Decay 05:14
05. Shield of Delusion 05:33
06. Doomsday Clock 05:53
07. Lobotomy 04:57
******************************
Total playing time: 41:05






[more=Extended info]NERVOUS DECAY are :
Guillaume Pavaillon : vocals & bass guitar
Gregoire Bonin : guitar
Guilhem Lesage : drums
Nathan Thebault : guitar

Chuck Schuldiner’s Death worship[/more]

Register
(6) AHBAnep, Diflock, infiltrator, metala, vader69, zhol,
Apr 1 2021, 05:54:44 Unflesh - Inhumation (2021)


*Artist: Unflesh
*Album: Inhumation
*Year: 2021
*Genre: Technical/Melodic Death Metal
*Country: United States
*Format: mp3@CBR320kbps
*Size: 112MB

Tracklist:
1. Behold Nightfall 02:21
2. Vast Forest of Impaled Cadavers 05:21
3. To Renounce Flesh and Blood 05:27
4. Inhumanation 07:21
5. Amongst Horrors Must I Dwell 06:37
6. Holocaust of Stars 04:42
7. The Sepulchral Depths 05:28
8. Dehumanized Legion 09:01
******************************
Total playing time: 46:18





[more=Extended info]Ryan Beevers Bass (2014-2016), Vocals, Guitars (2014-present)
See also: ex-Solium Fatalis
Orin Hubbard Bass (2019-present)
See also: ex-Excrecor
Jeff Saltzman Drums (2019-present)
See also: Aversed, Allegaeon (live), Continuum (live), ex-Solium Fatalis[/more]

[more=Technical info]
Input File: 02. Vast Forest of Impaled Cadavers.mp3
Channels : 2
Sample Rate : 44100
Precision : 16-bit
Duration : 00:05:21.14 = 14162450 samples = 24085.8 CDDA sectors
File Size : 12.8M
Bit Rate : 320k
Sample Encoding: MPEG audio (layer I, II or III)
Comments :
Title=Vast Forest of Impaled Cadavers
Artist=Unflesh
Album=Inhumation
Tracknumber=02
Year=2021

[/more]

Register
(29) AHBAnep, BugEyes, caro, chipsgott, daemonarch, DenisKov, gwynnbleid, infiltrator, kimkayoung, Korpse, lary_veel, Lionheart-P, lldma, LokoMadriz, Lukittaz, maochen, Marek, metala, mirotvorets, Olethros, Ostinato, randumbum, sergsazan, Taakeferd, TeamatSE, VALERY, yuratroll, zhol, Сварог Барг,
Apr 1 2021, 05:45:22 For Ruin - Relapse [ep] (2021)


*Artist: For Ruin
*Album: Relapse [ep]
*Year: 2021
*Genre: Melodic Black/Death Metal
*Country: Ireland
*Format: flac
*Size: 108MB

Tracklist:
1. Devout
2. Only the Dead
3. In Vain
4. Bastion
******************************
Total playing time: 13:47





Register
(6) infiltrator, kimkayoung, Marek, Olethros, vasiljev_sergej, zhol,
Mar 28 2021, 19:17:45 Withering Reign - Under The Bleeding Sun (2021)
Шикарный среднетемповый олд скульный МДМ!
По звучанию и по построению композиций очень напоминает In Flames золотого периода.
(3) Bloodn Lord, Ingvar, Thrashman,
Mar 26 2021, 21:54:47 Evile - Hell Unleashed [single] (2021)


*Artist: Evile
*Album: Hell Unleashed [single]
*Year: 2021
*Genre: Thrash Metal
*Country: United Kingdom
*Format: mp3@CBR320kbps
*Size: 8MB

Tracklist:
1. Hell Unleashed 03:57
******************************
Total playing time: 3:57





[more=Extended info]Ben Carter Drums (2004-present)
Ol Drake Guitars (lead) (2004-2013, 2018-present), Vocals (2020-present)
See also: Ol Drake, Reabo, ex-Destruction (live)
Joel Graham Bass (2009-present)
See also: ex-Rise to Addiction, ex-Ninedenine
Adam Smith Guitars (2020-present)
See also: RipTide[/more]

[more=Technical info]
Input File: Evile - Hell Unleashed.mp3
Channels : 2
Sample Rate : 44100
Precision : 16-bit
Duration : 00:03:57.70 = 10482614 samples = 17827.6 CDDA sectors
File Size : 9.51M
Bit Rate : 320k
Sample Encoding: MPEG audio (layer I, II or III)

[/more]

Register
(13) akym, caro, chipsgott, Diflock, gwar, infiltrator, killingod, LokoMadriz, metaljosue, Olethros, sergsazan, Thrashman, victorinox,
Mar 26 2021, 21:11:00 Manimal - Forged In Metal [single] (2021)


*Artist: Manimal
*Album: Forged In Metal [single]
*Year: 2021
*Genre: Power/Heavy Metal
*Country: Sweden
*Format: mp3@CBR320kbps
*Size: 8MB

Tracklist:
1. Forged in Metal 03:43
******************************
Total playing time: 3:43




[more=Extended info]Kenny Boufadene Bass
See also: ex-One Without, ex-The Deliverance, ex-The Deafening Silence, We Are the Catalyst
André Holmqvist Drums
See also: Ice Age, ex-Zero Illusions, ex-Pain and Passion
Henrik "Hank" Stenroos Guitars
Samuel "Sam" Nyman Vocals[/more]

[more=Technical info]
Input File: Manimal - Forged in Metal.mp3
Channels : 2
Sample Rate : 44100
Precision : 16-bit
Duration : 00:03:43.49 = 9855865 samples = 16761.7 CDDA sectors
File Size : 8.94M
Bit Rate : 320k
Sample Encoding: MPEG audio (layer I, II or III)

[/more]

Register
(12) after21allD, aviacademy, boby9052, caro, infiltrator, killingod, Olethros, sergsazan, Storky, stumpheavyrock, Taakeferd, Yngwarr,
Mar 26 2021, 20:58:06 Elvenking - The Moon And Magic [single] (2021)


*Artist: Elvenking
*Album: The Moon And Magic [single]
*Year: 2021
*Genre: Melodic Power/Folk Metal
*Country: Italy
*Format: mp3@CBR320kbps
*Size: 11MB

Tracklist:
1. The Moon and Magic 05:11
******************************
Total playing time: 5:11




[more=Extended info]Aydan Guitars, Vocals (harsh, backing), Keyboards (1997-present)
Damna Vocals (lead) (1998-2002, 2004-present), Bass (1999-2000)
See also: Hell in the Club, ex-Leprechaun
Rafahel Guitars (2009-present)
See also: Burnin' Dolls, Garden Wall, ex-Harduo
Lethien Violin (2010-present)
See also: All My Faith Lost...
Jakob Bass (2012-present)
See also: Moonlight Haze, The Black Lodge, ex-Tragoedia, ex-Trioxia, ex-Burning Black, ex-Scarface
Lancs Drums (2017-present)
See also: Lione / Conti, Sacred Hell, ex-Hell in the Club, ex-DGM (live)[/more]

[more=Technical info]
Input File: Elvenking - The Moon and Magic.mp3
Channels : 2
Sample Rate : 44100
Precision : 16-bit
Duration : 00:05:11.16 = 13722200 samples = 23337.1 CDDA sectors
File Size : 12.4M
Bit Rate : 320k
Sample Encoding: MPEG audio (layer I, II or III)

[/more]

Register
(17) Aresson, aviacademy, boby9052, chipsgott, Forest, GorAtheist, gwar, gwynnbleid, infiltrator, killingod, LokoMadriz, Olethros, randumbum, Reverend, sergsazan, Taakeferd, Yngwarr,
Mar 26 2021, 20:38:38 Rapid Strike - Rapid Strike (2021)
Вокал действительно сюда не очень то. Муз составляющая так себе, средненькая, а вот если бы вокал другой, да помощнее, то может быть и вышло что-нибудь толковое. А так.....
(2) infiltrator, WOLAND,
Mar 26 2021, 16:38:37 Haissem - Philosofiend (2021)


*Artist: Haissem
*Album: Philosofiend
*Year: 2021
*Genre: Melodic Black Metal
*Country: Ukraine
*Format: mp3@CBR320kbps
*Size: 117MB

Tracklist:
01. An Inspiration for My Inner Carnifex
02. Gore Painted Vacuum
03. Bliss Apocryphal
04. Despising the Infidels
05. La Confesiоo del Diablo Blanco
06. Voluntary Exile
07. Archetype of Malice
******************************
Total playing time: 49:11




[more=Extended info]Andrey Tollock All instruments, Vocals
See also: Sunset Forsaken

[youtube]0O6ULHlkUv8[/youtube]
[youtube]aj8h7EhIGCw[/youtube]
[youtube]W6hz5Rli2-M[/youtube]
[youtube]1FE6ZXAGJeQ[/youtube]
[youtube]WKZolgpeNzQ[/youtube][/more]

[more=Technical info]
Input File: 02. Gore Painted Vacuum.mp3
Channels : 2
Sample Rate : 44100
Precision : 16-bit
Duration : 00:06:37.15 = 17514271 samples = 29786.2 CDDA sectors
File Size : 15.9M
Bit Rate : 320k
Sample Encoding: MPEG audio (layer I, II or III)
Comments :
Title=Gore Painted Vacuum
Artist=Haissem
Album=Philosofiend
Tracknumber=02
Year=2021

[/more]

Register
(26) AlexSmith, BugEyes, caro, dermarsoran, GorAtheist, Gurgles, infiltrator, kimkayoung, LokoMadriz, Marek, Messian, Mogozoz, Olethros, randumbum, robertho777, sergsazan, Shadechaser, SilentNidhogg, symphonicadiction, Taakeferd, talismanFS, terron, VALERY, varlam4, vasiljev_sergej, Сварог Барг,
Mar 26 2021, 07:53:42 Perennial Isolation - Portraits (2021)


*Artist: Perennial Isolation
*Album: Portraits
*Year: 2021
*Genre: Atmospheric Black Metal
*Country: Spain
*Format: mp3@CBR320kbps
*Size: 112MB

Tracklist:
1. The Fall Awakening 01:53
2. Autumn Legacy Underlying the Cold's Caress 05:34
3. The Breathless Season Bane 05:55
4. Unceasing Sorrows From the Vastness' Scion 08:15
5. To the Withering Womb 04:57
6. Through Fire Upon Fire 05:11
7. Embers in the Slumbering Threshold 06:30
8. The Silent Solace 04:21
9. Emanations from the Swallowed Twilight 05:57
******************************
Total playing time: 48:33






[more=Extended info]V. Drums
See also: Atrexial, ex-Decapitated Christ
A. Vocals, Bass
See also: Cauldron, Evnar, ex-Crynight, ex-Aeternal Mortuary, ex-Inania Regna, ex-Setge, ex-Engraved
M. Guitars (lead) (2015-present)
I. Guitars (rhythm) (2015-2017, 2018-present)
See also: Kylmä, Iván Ferrús[/more]

[more=Technical info]
Input File: 02 - Autumn Legacy Underlying the Cold\'s Caress.mp3
Channels : 2
Sample Rate : 44100
Precision : 16-bit
Duration : 00:05:34.39 = 14746555 samples = 25079.2 CDDA sectors
File Size : 13.5M
Bit Rate : 323k
Sample Encoding: MPEG audio (layer I, II or III)
Comments :
Title=Autumn Legacy Underlying the Cold's Caress
Artist=Perennial Isolation
Album=Portraits
Tracknumber=2
Year=2021
Discnumber=1/1

[/more]

Register
(25) andivi, demonosz, El_Chibo, infernallord, infiltrator, judaz, kim666, kimkayoung, madera, Marek, metala, Olethros, Ostinato, pahail, randumbum, robertho777, satanist666, sergsazan, Shadechaser, SilentNidhogg, SS2998, Strid, VALERY, varlam4, vasiljev_sergej,

193 Pages V   1 2 3 > » 
- Lo-Fi Version Support form
Copyrights and abuse reports form
Time is now: 19th April 2021 - 18:36:32