Welcome Guest ( Log In | Register )

История благодарностей участнику Andrew ::: Спасибо сказали: 17410 раз(а)
Дата поста: В теме: За сообщение: Спасибо сказали:
Yesterday, 20:29:25 Exzoust - Forevermore (2019)


*Artist: Exzoust
*Album: Forevermore
*Year: 2019
*Genre: Thrash Metal/Metalcore
*Country: Russian Federation
*Format: mp3@CBR320kbps
*Size: 108MB

Tracklist:
1. I. Mea Culpa 06:53
2. Dead I Am 07:16
3. Back to Back 06:19
4. Fearless 07:48
5. What If I Say 05:48
6. Lie... Truth 06:38
7. II. Mea Revelatio 01:36
8. III. Mea Credo 08:18
******************************
Total playing time: 50:36






[more=Technical info]
Input File: 02. Dead I Am.mp3
Channels : 2
Sample Rate : 44100
Precision : 16-bit
Duration : 00:07:15.67 = 19213091 samples = 32675.3 CDDA sectors
File Size : 17.5M
Bit Rate : 321k
Sample Encoding: MPEG audio (layer I, II or III)
Comments :
Title=Dead I Am
Artist=Exzoust
Album=Forevermore
Tracknumber=2/8
Year=2019
Genre=9
Discnumber=1/1

[/more]

Register
(4) artscald, metala, Olethros, stumpheavyrock,
Sep 18 2019, 20:28:50 Borknagar - True North (2019)


*Artist: Borknagar
*Album: True North
*Year: 2019
*Genre: Progressive Viking/Folk/Black Metal
*Country: Norway
*Format: mp3@CBR192kbps
*Size: 96MB

Tracklist:
1. Thunderous 08:34
2. Up North 06:29
3. The Fire That Burns 06:38
4. Lights 05:04
5. Wild Father's Heart 05:42
6. Mount Rapture 06:08
7. Into the White 05:57
8. Tidal 09:32
9. Voices 05:07
******************************
Total playing time: 59:11





[more=Technical info]
Input File: 01 The Fire that Burns.mp3
Channels : 2
Sample Rate : 44100
Precision : 16-bit
Duration : 00:00:00.39 = 17331 samples = 29.4745 CDDA sectors
File Size : 16.6M
Bit Rate : 337M
Sample Encoding: MPEG audio (layer I, II or III)
Comments :
Title=The Fire that Burns
Artist=Borknagar
Album=The Fire that Burns
Tracknumber=1/1
Year=2019
Genre=Progressive Viking/Folk Metal
Discnumber=1/1

[/more]

Register
(59) ahp, Alexis The Best, alikkon, artscald, atavist, autumnwood, BaKu, BandR75, BleedingSun, dalek, dermarsoran, DOKTORBLACK88, Fess, Forest, ForzaMinardi1977, Geralder, Henmik, infernallord, infiltrator, infozahist, jet55, kalmametallinen, kimkayoung, KVRT, legion01, LEGION69, Ludwig Hagen, mardak666, marilin, metal73, metalfaze, metalwoman, Narasimha, Nattfodd, nemx, Nhmrath, Olethros, Oskulum, Ostinato, peppuzzo, Phlebotomized, plfan93, RedMoloch, respect, ripper33, Rover, sadmannn, SatanicPanzer, scorn33, sergsazan, stone88, supremo, suseka, Teshub, vasiljev_sergej, xska, yuratroll, zerger, Авел,
Sep 18 2019, 15:46:43 As I Lay Dying - Shaped By Fire (2019)


*Artist: As I Lay Dying
*Album: Shaped By Fire
*Year: 2019
*Genre: Metalcore
*Country: United States
*Format: mp3@CBR320kbps
*Size: 109MB

Tracklist:
1. Burn to Emerge 00:52
2. Blinded 03:22
3. Shaped by Fire 03:39
4. Undertow 03:57
5. Torn Between 04:01
6. Gatekeeper 03:25
7. The Wreckage 04:43
8. My Own Grave 04:12
9. Take What's Left 04:13
10. Redefined 04:16
11. Only After We've Fallen 03:29
12. The Toll It Takes 03:56
******************************
Total playing time: 44:05




[more=Technical info]
Input File: 02. Blinded.mp3
Channels : 2
Sample Rate : 44100
Precision : 16-bit
Duration : 00:03:22.23 = 8918255 samples = 15167.1 CDDA sectors
File Size : 8.22M
Bit Rate : 325k
Sample Encoding: MPEG audio (layer I, II or III)
Comments :
Title=Blinded
Artist=As I Lay Dying
Album=Shaped by Fire
Tracknumber=2
Year=2019
Genre=Metalcore

[/more]

Register
(19) ahp, ALEXSATHANAS, alikkon, artscald, boby9052, Cheshire, chipsgott, infiltrator, kalmametallinen, kimkayoung, Nattfodd, Olethros, Ostinato, phtm, recber, Reverend, Rover, sadmannn, zerger,
Sep 18 2019, 12:02:52 Welkins Boreal - Phantoms Of Yesteryear (2019)


*Artist: Welkins Boreal
*Album: Phantoms Of Yesteryear
*Year: 2019
*Genre: Gothic Rock
*Country: Finland
*Format: mp3@CBR320kbps
*Size: 89MB

Tracklist:
01. Sleep Eternal 04:42
02. Thirteen Moons 04:01
03. Apparition 04:02
04. Sethian Seal 05:02
05. Discordia 04:52
06. Thelemite 04:11
07. Dance of Nightly Shadows 03:41
08. I Approach the End 03:42
09. Sorrow's Shroud 04:33
******************************
Total playing time: 38:46





[more=Technical info]
Input File: 2 - Thirteen Moons.mp3
Channels : 2
Sample Rate : 44100
Precision : 16-bit
Duration : 00:04:01.44 = 10647372 samples = 18107.8 CDDA sectors
File Size : 9.71M
Bit Rate : 322k
Sample Encoding: MPEG audio (layer I, II or III)
Comments :
Title=Thirteen Moons
Artist=Welkins Boreal
Album=Phantoms Of Yesteryear
Tracknumber=2
Year=2019
Genre=Metal
Discnumber=1

[/more]

Register
(2) metalwoman, Olethros,
Sep 18 2019, 10:03:30 Krenak - Under Hatred (2019)


*Artist: Krenak
*Album: Under Hatred
*Year: 2019
*Genre: Death Metal
*Country: Brazil
*Format: mp3@VBR128kbps
*Size: 25MB

Tracklist:
1. Passage 03:16
2. Under Hatred 03:58
3. Disintegration 03:18
4. Diseased 02:42
5. Solitary Monist 03:28
6. Wasted Aeon 03:14
7. Lost Light 03:10
8. Wrought Involution 03:26
******************************
Total playing time: 26:32




Register
(3) infiltrator, jollo, Olethros,
Sep 17 2019, 21:31:24 Burning Witches - Wings Of Steel [single] (2019)


*Artist: Burning Witches
*Album: Wings Of Steel [single]
*Year: 2019
*Genre: Heavy Metal
*Country: Switzerland
*Format: mp3@CBR320kbps
*Size: 10MB

Tracklist:
1. Wings Of Steel 04:34
******************************
Total playing time: 4:34




[more=Technical info]
Input File: 01_burning_witches_wings_of_steel.mp3
Channels : 2
Sample Rate : 44100
Precision : 16-bit
Duration : 00:04:33.73 = 12071449 samples = 20529.7 CDDA sectors
File Size : 11.0M
Bit Rate : 320k
Sample Encoding: MPEG audio (layer I, II or III)
Comments :
Title=Wings of Steel
Artist=Burning Witches
Album=Wings of Steel
Tracknumber=1
Year=2019

[/more]

Register
(3) artscald, infozahist, Olethros,
Sep 17 2019, 11:23:10 Loathing - Altars To The Ones Above (2019)


*Artist: Loathing
*Album: Altars To The Ones Above
*Year: 2019
*Genre: Death/Sludge/Groove Metal
*Country: Poland
*Format: mp3@CBR320kbps
*Size: 76MB

Tracklist:
01. Altars to the Ones Above 04:50
02. Curse of Consciousness 03:29
03. Anti-Life Code0 5:18
04. Slaves 03:52
05. Fend Off the Wolves 04:46
06. Lifeforce 03:56
07. Like Ravens, Like Crows 04:09
08. Sacred Heart 04:55
******************************
Total playing time: 35:15




[more=Technical info]
Input File: 02. Curse of Consciousness.mp3
Channels : 2
Sample Rate : 44100
Precision : 16-bit
Duration : 00:03:29.07 = 9220075 samples = 15680.4 CDDA sectors
File Size : 8.48M
Bit Rate : 325k
Sample Encoding: MPEG audio (layer I, II or III)
Comments :
Title=Curse of Consciousness
Artist=Loathing
Album=Altars to the Ones Above
Tracknumber=2/8
Year=2019
Genre=9
Discnumber=1/1

[/more]

Register
(5) artscald, Olethros, Ostinato, robertho777, Rosen,
Sep 17 2019, 10:15:27 Kaatarakt - Follow The Raven [demo] (2016)
ЦИТАТА(krotovich @ Sep 17 2019, 10:45:05) *
Melodic Death - мизер

Ну да, его практически и нет.
(2) infiltrator, krotovich,
Sep 17 2019, 09:56:32 Move The Moon - The Aim Of Supreme Entity (2019)


*Artist: Move The Moon
*Album: The Aim Of Supreme Entity
*Year: 2019
*Genre: Deathcore/Metalcore
*Country: Russian Federation
*Format: mp3@CBR320kbps
*Size: 101MB

Tracklist:
01. Radio Silence 04:24
02. At the Edge of Sephiroth 06:00
03. A Hypersphere 05:25
04. Changeling 04:38
05. The Aim of a Supreme Entity 04:56
06. Birth of the Time 04:35
07. Astral Kingdom 04:38
08. Grand Emissary 04:31
09. Until the Beginning of Prophecy 02:15
10. Kwisatz Haderach 05:15
******************************
Total playing time: 46:37







[more=Technical info]
Input File: 02. At the Edge of Sephiroth (feat. Roman Arsafes).mp3
Channels : 2
Sample Rate : 44100
Precision : 16-bit
Duration : 00:06:00.09 = 15880145 samples = 27007 CDDA sectors
File Size : 14.5M
Bit Rate : 323k
Sample Encoding: MPEG audio (layer I, II or III)
Comments :
Title=At the Edge of Sephiroth (feat. Roman Arsafes)
Artist=Move the Moon
Album=The Aim of Supreme Entity
Tracknumber=2/10
Year=2019
Genre=9
Discnumber=1/1

[/more]

Register
(4) artscald, Olethros, respect, Rosen,
Sep 17 2019, 09:39:26 And Hell Followed With - Chimerical Reality [ep] (2019)


*Artist: And Hell Followed With
*Album: Chimerical Reality [ep]
*Year: 2019
*Genre: Deathcore
*Country: United States
*Format: mp3@CBR320kbps
*Size: 69MB

Tracklist:
01. Empty & Hollow 03:55
02. The Notion of Freedom 04:15
03. Discordance 01:25
04. Retribution 03:14
05. Chimerical Reality 04:33
06. Dear Father 05:41
******************************
Total playing time: 23:03






[more=Technical info]
Input File: 02 The Notion of Freedom.mp3
Channels : 2
Sample Rate : 44100
Precision : 16-bit
Duration : 00:04:15.68 = 11275356 samples = 19175.8 CDDA sectors
File Size : 12.2M
Bit Rate : 381k
Sample Encoding: MPEG audio (layer I, II or III)
Comments :
Title=The Notion of Freedom
Artist=And Hell Followed With
Album=Chimerical Reality
Tracknumber=02/6
Year=2019
Genre=Deathcore
Discnumber=1/1

[/more]

Register
(5) artscald, BandR75, Olethros, Ostinato, Rosen,
Sep 16 2019, 22:10:38 Toxikull - Cursed And Punished (2019)
Толклвая вещица с олд скульным звучанием! 20.gif
Альбом очень приличного качества, может конечно и не ТОР, но звучит очень классно! После завершения альбома - возникает желание прослушать заново. metaler.gif
(3) infiltrator, Samaritianin, troll_swamp,
Sep 16 2019, 21:25:13 Holder Of Souls - Holder Of Souls (2019)


*Artist: Holder Of Souls
*Album: Holder Of Souls
*Year: 2019
*Genre: Heavy Metal
*Country: Brazil
*Format: mp3@CBR320kbps
*Size: 119MB

Tracklist:
1. Souls Are Burning 04:09
2. A Punishment for One 04:05
3. Holder of Souls 05:08
4. My Life Dissolves 05:30
5. Resting in the Arms of the Dragon 06:24
6. In the Lived Years 04:10
7. My Last Memories 08:04
8. Inventing the Pain 06:07
9. End of the World 07:47
******************************
Total playing time: 51:24







[more=Technical info]
Input File: 02 - A Punishment for One.mp3
Channels : 2
Sample Rate : 44100
Precision : 16-bit
Duration : 00:04:04.60 = 10786772 samples = 18344.9 CDDA sectors
File Size : 9.90M
Bit Rate : 324k
Sample Encoding: MPEG audio (layer I, II or III)
Comments :
Title=A Punishment for One
Artist=Holder of Souls
Album=Holder of Souls
Tracknumber=2
Year=2019

[/more]

Register
(10) artscald, aviacademy, metala, Olethros, Rosen, Rover, sergsazan, Spork, vir2al, Сварог Барг,
Sep 16 2019, 20:55:49 Obscure - Darkness Must Prevail (2019)
Хорошая работа, шведятина во всей красе! metaler.gif
(5) Baarin, infiltrator, realexxx75, russ777, Samaritianin,
Sep 15 2019, 21:16:45 Non Omnis Moriar - The Mirror (2019)
Очень добротный олд скульный мелодез выдали латиносы! 20.gif
Ясное дело, что ничего нового и изобретательного в свою музыку музыканты не привнесли, но слушается очень даже приятно, учитывая, что в музыке отсутствуют кор, чистый вокал, клавиши, грув и остальная непотребность.
(3) Bloodn Lord, igorst, infiltrator,
Sep 15 2019, 17:55:25 Deface - Born Of Hatred (2019)


*Artist: Deface
*Album: Born Of Hatred
*Year: 2019
*Genre: Death/Thrash Metal
*Country: United States
*Format: mp3@VBR128kbps
*Size: 35MB

Tracklist:
1. Paint the Walls Red 04:04
2. Sever Thy Tongue 03:35
3. Enemy 03:07
4. Slashing the Veil 05:19
5. Pigs 02:17
6. Blood on Your Hands 03:25
7. Institution 03:47
8. Wrath 04:11
9. Hate 07:11
******************************
Total playing time: 36:56




Register
(4) boby9052, Olethros, Rosen, stumpheavyrock,
Sep 15 2019, 17:06:49 Alice Cooper - Breadcrumbs [ep] (2019)


*Artist: Alice Cooper
*Album: Breadcrumbs [ep]
*Year: 2019
*Genre: Hard Rock
*Country: United States
*Format: mp3@CBR320kbps
*Size: 48MB

Tracklist:
01. Detroit City 2020
02. Go Man Go
03. East Side Story [Bob Seger cover]
04. Your Mama Won't Like Me [Suzi Quatro cover]
05. Devil With A Blue Dress / Chains Of Love [Mitch Ryder & The Detroit Wheels cover]
06. Sister Anne [MC5 cover]
******************************
Total playing time: 21:04




[more=Technical info]
Input File: 2 - Go Man Go.mp3
Channels : 2
Sample Rate : 44100
Precision : 16-bit
Duration : 00:02:42.07 = 7147375 samples = 12155.4 CDDA sectors
File Size : 6.55M
Bit Rate : 324k
Sample Encoding: MPEG audio (layer I, II or III)
Comments :
Title=Go Man Go
Artist=Alice Cooper
Album=Breadcrumbs
Tracknumber=2
Year=2019
Genre=Rock/Hard Rock/Metal
Discnumber=1

[/more]

Register
(3) Dooomerrr, recber, Reverend,
Sep 14 2019, 18:55:18 Degitx - Digital Hell (2019)


*Artist: Degitx
*Album: Digital Hell
*Year: 2019
*Genre: Electronic/Power Metal
*Country: Belarus
*Format: mp3@CBR320kbps
*Size: 175MB

Tracklist:
1. Digital Tale (Intro) 05:27
2. Phoenix 05:04
3. Pixel Rain 04:41
4. Digital Hell 05:52
5. Forest House (Vocals) 04:47
6. Enchanted 04:44
7. Lands Are Waiting 04:32
8. Disillusion 04:49
9. Turbo Ghost 05:04
10. Robotic Cycles 06:29
11. Requiem for a Wind (Vocals) 02:19
12. Light End 03:31
13. Warp (Vocals) 04:20
14. City Under Sky (Extended) 03:11
15. New Dawn 03:52
16. Not for Us (Vocals) 03:37
17. Machine Paradigm (Vocals) 04:02
******************************
Total playing time: 1:16:21





[more=Extended info]Alexey Kasyanchuk Everything (2010-present)[/more]

[more=Technical info]
Input File: 02_degitx_phoenix.mp3
Channels : 2
Sample Rate : 44100
Precision : 16-bit
Duration : 00:05:04.45 = 13426289 samples = 22833.8 CDDA sectors
File Size : 12.2M
Bit Rate : 320k
Sample Encoding: MPEG audio (layer I, II or III)
Comments :
Title=Phoenix
Artist=DEgITx
Album=Digital Hell
Year=2019-23-03
Genre=Melodic Death Metal

[/more]

Register
(9) artscald, aviacademy, chipsgott, infiltrator, Olethros, Rosen, Rover, Sanctus, Сварог Барг,
Sep 13 2019, 21:05:58 White Mantis - Sacrifice Your Future (2019)
Отменный трешак! metaler.gif Понятно, что абсолютно никаких новых и новаторских идей в музыку не привнесено, но звучит вполне достойно!
(1) MEmethuselah,
Sep 13 2019, 10:17:57 Lindemann - Steh Auf [single] (2019)


*Artist: Lindemann
*Album: Steh Auf [single]
*Year: 2019
*Genre: Industrial Metal
*Country: Germany
*Format: mp3@CBR320kbps
*Size: 14MB

Tracklist:
01. Steh auf 03:05
02. Steh auf (Trivium Remix) 03:08
******************************
Total playing time: 6:13




[more=Technical info]
Input File: 1 - Steh auf.mp3
Channels : 2
Sample Rate : 44100
Precision : 16-bit
Duration : 00:03:04.75 = 8147387 samples = 13856.1 CDDA sectors
File Size : 7.42M
Bit Rate : 321k
Sample Encoding: MPEG audio (layer I, II or III)
Comments :
Title=Steh auf
Artist=Lindemann/Peter Tägtgren
Album=Steh auf
Tracknumber=1
Year=2019
Genre=Rock
Discnumber=1

[/more]

Register
(5) KKK1488, kostja, Krosis, metalwoman, Olethros,
Sep 13 2019, 10:07:19 Cold - The Things We Can't Stop (2019)


*Artist: Cold
*Album: The Things We Can't Stop
*Year: 2019
*Genre: Alternative Rock/Post-Grunge/Hard Rock
*Country: United States
*Format: mp3@CBR320kbps
*Size: 107MB

Tracklist:
01. Intro
02. Shine
03. Snowblind
04. The Devil We Know
05. Run
06. Better Human
07. Without You
08. Quiet Now
09. The One That Got Away
10. Systems Fail
11. Beautiful Life
12. We All Love
******************************
Total playing time: 45:50







[more=Technical info]
Input File: 02. Shine.mp3
Channels : 2
Sample Rate : 44100
Precision : 16-bit
Duration : 00:04:40.18 = 12355982 samples = 21013.6 CDDA sectors
File Size : 11.5M
Bit Rate : 328k
Sample Encoding: MPEG audio (layer I, II or III)
Comments :
Title=Shine
Artist=Cold
Album=The Things We Can't Stop
Tracknumber=02
Year=2019
Genre=Rock
Discnumber=1

[/more]

Register
(1) Olethros,
Sep 13 2019, 09:53:32 The 69 Eyes - West End (2019)


*Artist: The 69 Eyes
*Album: West End
*Year: 2019
*Genre: Gothic Metal/Rock
*Country: Finland
*Format: mp3@CBR320kbps
*Size: 112MB

Tracklist:
01 Two Horns Up
02 27 & Done
03 Black Orchid
04 Change
05 Burn Witch Burn
06 Cheyenna
07 The Last House On The Left
08 Death & Desire
09 Outsiders
10 Be Here Now
11 Hell Has No Mercy
******************************
Total playing time: 48:38







[more=Technical info]
Input File: 2 27 & Done.mp3
Channels : 2
Sample Rate : 44100
Precision : 16-bit
Duration : 00:04:17.40 = 11351252 samples = 19304.9 CDDA sectors
File Size : 10.4M
Bit Rate : 322k
Sample Encoding: MPEG audio (layer I, II or III)
Comments :
Title=27 & Done
Artist=The 69 Eyes
Album=West End
Tracknumber=2/11
Year=2019
Discnumber=1/1

[/more]

Register
(14) A.L.Rapsod, Aresson, as71, DowntownGsus, EVENGAR, Jackyl, kostja, Krosis, Lanceatum, marilin, mintare, Oath19, Olethros, VALERY,
Sep 11 2019, 20:16:47 Lifecurse - The Wolf You Feed Part 1 Ulsiga (2019)


*Artist: Lifecurse
*Album: The Wolf You Feed Part 1 Ulsiga
*Year: 2019
*Genre: Metalcore/Melodic Death Metal
*Country: United States
*Format: mp3@CBR320kbps
*Size: 112MB

Tracklist:
01. Hostis Humanis Generis 01:25
02. The Wolf You Feed 05:06
03. Lights Out 05:36
04. Proxy 05:12
05. Smoke & Mirrors 04:10
06. Fortunes 02:25
07. Buzzard Bait 03:10
08. I Thought Hurricane Season Was Over 04:24
09. The Path 03:02
10. The Boy Who Cried Wolf 03:54
11. Time Travelling 05:27
12. Vulgatæ Geographia 01:06
******************************
Total playing time: 44:57






[more=Technical info]
Input File: 02_lifecurse_the_wolf_you_feed.mp3
Channels : 2
Sample Rate : 44100
Precision : 16-bit
Duration : 00:00:00.31 = 13451 samples = 22.8759 CDDA sectors
File Size : 13.0M
Bit Rate : 342M
Sample Encoding: MPEG audio (layer I, II or III)
Comments :
Title=The Wolf You Feed
Artist=Lifecurse
Album=The Wolf You Feed Part 1: Ulsiga
Tracknumber=2/12
Year=2019
Genre=Metal
Discnumber=1/1

[/more]

Register
(9) artscald, Bloodn Lord, infiltrator, Olethros, phtm, respect, Rosen, VALERY, zhol,
Sep 10 2019, 21:25:27 Sonata Arctica - Talviyö (2019)
ЦИТАТА(MeatWolf @ Sep 10 2019, 14:10:10) *
Выключил в середине первой песни. И что со звуком?

А что собственно говоря, с самой музыкой, с идеями, с текстами??? 6.gif
По правде говоря, после прослушивания новых альбомов именитых некогда команд стиля, а именно BloodBound, HammerFall, Dragonforce, Sonata Arctica, Freedom Call - создалось такое чувство, что стилю действительно пришел окончательный капец! Слушаешь и тяжело поверить, что 15-20 лет назад, эти команды издавали прекраснейшие альбомы, которые переслушиваешь с большущим удовольствием и, не смотря на то, что материал знаешь практически наизусть, но получаешь при этом действительно удовольствие! 20.gif А новые же альбомы...с трудом дослушиваешь до конца и понимаешь, что к ним ты уже никогда не вернешься, потому как материал просто-напросто высосан из пальца, в котором нет ни души, ни харизмы, ни музыкальных идей.
На мой взгляд - лучше такое вообще не выпускать, потому как кроме раздражения и негодования материал не вызывает никаких положительных эмоций, к сожалению. Повторюсь, но складывается впечатление, что альбомы выпускаются потому что "НАДО", а не потому что "ХОЧЕТСЯ"...
(3) dragonhead, Ghostb, infiltrator,
Sep 9 2019, 12:41:51 Son In Curse - Trivnviratvm (2017)


(1) KVRT,
Sep 6 2019, 10:38:49 Dark Side - Upadek [ep] (2019)


*Artist: Dark Side
*Album: Upadek [ep]
*Year: 2019
*Genre: Melodic Death Metal
*Country: Poland
*Format: mp3@CBR320kbps
*Size: 43MB

Tracklist:
1. Intro 01:09 instrumental
2. Rozdarty 03:33
3. Człowieczeństwo 02:56
4. Teorie 03:42
5. Koszmarny sen 03:41
6. Incydent 03:32
******************************
Total playing time: 18:33





[more=Technical info]
Input File: 02_dark_side_rozdarty.mp3
Channels : 2
Sample Rate : 44100
Precision : 16-bit
Duration : 00:03:33.49 = 9414777 samples = 16011.5 CDDA sectors
File Size : 8.66M
Bit Rate : 325k
Sample Encoding: MPEG audio (layer I, II or III)
Comments :
Title=Rozdarty
Artist=Dark Side
Album=Upadek
Tracknumber=2/6
Year=2019
Genre=9
Discnumber=1/1

[/more]

Register
(16) artscald, Bloodn Lord, chipsgott, Gazzzooo, infiltrator, isvili, metalwoman, Mogozoz, oldvarg, Rosen, sergsazan, TeamatSE, VALERY, Winterdark, zhol, Сварог Барг,

152 Pages V   1 2 3 > » 
- Lo-Fi Version Support form
Copyrights and abuse reports form
Time is now: 20th September 2019 - 10:32:38