Welcome Guest ( Log In | Register )

История благодарностей участнику Andrew ::: Спасибо сказали: 22708 раз(а)
Дата поста: В теме: За сообщение: Спасибо сказали:
Jun 4 2020, 20:08:24 Inhibitions - Divine Plague (2020)


*Artist: Inhibitions
*Album: Divine Plague
*Year: 2020
*Genre: Black Metal
*Country: Greece
*Format: mp3@CBR320kbps
*Size: 86MB

Tracklist:
1. False Prophet 05:13
2. Apotheosis 04:36
3. False Prophet II 04:44
4. Towards the Gates 05:46
5. Benediction of Death 04:00
6. Rascal 04:15
7. Behind the Masquerade 03:42
8. The Knell and the World (The Dawn cover) 08:57
******************************
Total playing time: 41:13





[more=Technical info]
Input File: 02 - Apotheosis.mp3
Channels : 2
Sample Rate : 44100
Precision : 16-bit
Duration : 00:04:36.15 = 12178127 samples = 20711.1 CDDA sectors
File Size : 11.0M
Bit Rate : 320k
Sample Encoding: MPEG audio (layer I, II or III)
Comments :
Title=Apotheosis
Artist=Inhibitions
Album=Divine Plague
Tracknumber=2
Year=2020-04-06
Genre=Black Metal

[/more]

Register
(11) 1968_janeart, AlexSmith, atavist, infernallord, infiltrator, kim666, sagratan, STN, tim47, vasiljev_sergej, Wail,
Jun 2 2020, 21:10:25 Death Courier - Necrotic Verses (2020)
Очень приятные впечатления от альбома греческого коллектива!
Все вроде в рамках жанра, без особого новаторства, но сделано качественно и слушается с большим удовольствием. 20.gif
(1) Samaritianin,
Jun 2 2020, 18:29:09 Northwind - History (2020)


*Artist: Northwind
*Album: History
*Year: 2020
*Genre: Heavy Metal
*Country: Greece
*Format: mp3@CBR320kbps
*Size: 98MB

Tracklist:
1. The Wooden Walls 06:03
2. King Alexander The Third 04:00
3. Soldier's Pay 04:36
4. My Dying Day 05:41
5. First Shot 05:23
6. Marathon March 05:14
7. Pyrrhos The Eagle 05:21
8. Aristodemus The Hero 04:31
9. Cry Free - Die Free 07:01
10. The Dog 04:40
******************************
Total playing time: 52:30




[more=Extended info]Kostas Nikolaidis Bass, Vocals
Thanasis Tsimoudis Drums
Panos Tsakiroglou Guitars
Thodoros Doulamis Vocals (lead)
Panos Jx-f Keyboards (2020-present)[/more]

[more=Technical info]
Input File: 02_northwind_king_alexander_the_third.mp3
Channels : 2
Sample Rate : 44100
Precision : 16-bit
Duration : 00:04:00.86 = 10622058 samples = 18064.7 CDDA sectors
File Size : 7.92M
Bit Rate : 263k
Sample Encoding: MPEG audio (layer I, II or III)
Comments :
Title=King Alexander The Third
Artist=Northwind
Album=History
Tracknumber=02
Year=2020
Genre=Heavy Metal

[/more]

Register
(8) AHBAnep, infiltrator, Mares, metala, Olethros, poeira, rammmirez, sergsazan,
Jun 2 2020, 18:03:49 Sabaton - The Attack Of The Dead Men (Live In Moscow - Feat. Radio Tapok) [single] (2020)


*Artist: Sabaton
*Album: The Attack Of The Dead Men (Live In Moscow - Feat. Radio Tapok) [single]
*Year: 2020
*Genre: Power Metal
*Country: Sweden
*Format: mp3@CBR320kbps
*Size: 19MB

Tracklist:
1. The Attack of the Dead Men (Live in Moscow - feat. Radio Tapok) 04:33
2. The Attack of the Dead Men 03:55
******************************
Total playing time: 8:28

Preview 1




[more=Technical info]
Input File: 02_sabaton_the_attack_of_the_dead_men.mp3
Channels : 2
Sample Rate : 44100
Precision : 16-bit
Duration : 00:03:55.80 = 10398648 samples = 17684.8 CDDA sectors
File Size : 9.43M
Bit Rate : 320k
Sample Encoding: MPEG audio (layer I, II or III)
Comments :
Title=
Artist=
Album=
Tracknumber=
Discnumber=

[/more]

Register
(12) BrutalHero, caro, chipsgott, Golodomor, gwar, Herrant, infiltrator, kluval, Olethros, Reverend, sergsazan, talismanFS,
Jun 2 2020, 17:16:34 Graveolution - Graveolution [ep] (2020)


*Artist: Graveolution
*Album: Graveolution [ep]
*Year: 2020
*Genre: Crust/Death/Thrash Metal
*Country: Hungary
*Format: mp3@CBR320kbps
*Size: 45MB

Tracklist:
1. Once Again 03:43
2. Graveolution 04:21
3. Fire & Rain 03:24
4. On The Verge Of Collapse 04:26
5. Life Line (Sacrilege) 03:43
******************************
Total playing time: 19:37




[more=Extended info]Bogi - Vocals
Kutya - Bass
Kristi - Guitars
Toto - Drums[/more]

[more=Technical info]
Input File: 02_graveolution_graveolution.mp3
Channels : 2
Sample Rate : 44100
Precision : 16-bit
Duration : 00:04:21.58 = 11535722 samples = 19618.6 CDDA sectors
File Size : 10.6M
Bit Rate : 326k
Sample Encoding: MPEG audio (layer I, II or III)
Comments :
Title=Graveolution
Artist=Graveolution
Album=Graveolution
Tracknumber=2
Year=2020

[/more]

Register
(5) boby9052, chipsgott, infiltrator, metala, stumpheavyrock,
Jun 2 2020, 17:00:40 Vicious Circle - Unearthed Precision [ep] (2020)


*Artist: Vicious Circle
*Album: Unearthed Precision [ep]
*Year: 2020
*Genre: Death/Thrash Metal
*Country: United States
*Format: mp3@CBR320kbps
*Size: 42MB

Tracklist:
1. Killing Culture 04:14
2. Fear Everything 03:59
3. The Pain Is the Salvation 04:27
4. Since Oblivion 05:24
******************************
Total playing time: 18:04




[more=Extended info]Mel Leach Bass (1989-present)
See also: American Blood Cult
Dave Surran Drums (1989-present)
Vinny DiBianca Guitars (1989-present)
See also: ex-American Blood Cult
Brian Cook Vocals (1994-1998, 2006-present)
See also: American Blood Cult[/more]

[more=Technical info]
Input File: 02_vicious_circle_fear_everything.mp3
Channels : 2
Sample Rate : 44100
Precision : 16-bit
Duration : 00:03:59.00 = 10539900 samples = 17925 CDDA sectors
File Size : 9.93M
Bit Rate : 332k
Sample Encoding: MPEG audio (layer I, II or III)
Comments :
Title=Fear Everything
Artist=Vicious Circle
Album=Unearthed Precision (320)
Tracknumber=02
Year=2020
Genre=Metal

[/more]

Register
(6) boby9052, chipsgott, infiltrator, Lukittaz, Olethros, stumpheavyrock,
May 29 2020, 12:21:41 Winters Howl - Instinctive (2020)
https://www.youtube.com/watch?v=TfeJHFPL2JI

https://www.youtube.com/watch?v=uvEwk2T5qiE

По-моему обычный Death Metal без МДМа
(2) djsema4, Old Vyaine,
May 28 2020, 20:41:46 Grave Digger - Fields Of Blood (2020)
ЦИТАТА(vosmidesijatye @ May 28 2020, 18:22:06) *
Эх, второго бы Knights Of The Cross или Excalibur...

Хум хау, но, лично я бы предпочел бы Heart of Darkness - Tunes of War

ЦИТАТА(Skybolter @ May 28 2020, 22:39:36) *
Отличный мелодичный альбом.

А альбом и вправду очень даже неплохой, особенно после того УГ, которое было на предыдущем творении.
Кстати, 2 половина альбом поинтереснее будет.
(1) fateefffddd,
May 23 2020, 18:40:22 Mausoleum Of Death - Behind The Veil (2020)


*Artist: Mausoleum Of Death
*Album: Behind The Veil
*Year: 2020
*Genre: Death Metal
*Country: International
*Format: mp3@CBR128kbps
*Size: 21MB

Tracklist:
1. Shat into Existence 04:19
2. Portraits of Death 03:57
3. Innocence Denied 03:54
4. Darkness Consumes 05:08
5. The Obscure Archetype 06:29
******************************
Total playing time: 23:47




[more=Extended info]Snarl Guitars, Bass (2016-present)
See also: Black Faith, ex-Hibernus
Untermensch Vocals (2016-present)
See also: Cryptic Scream, Djevelsang
AGandrud "Snuff-X" Drums (2019-present)
See also: Chinbjer, Massemord, Coldbound (live), ex-Arvas[/more]

Register
(12) alikkon, andreikun, atavist, infiltrator, jollo, lldma, LUCASDEATH, metala, multizwilling, Olethros, VALERY, vyacheslav,
May 23 2020, 18:34:06 Entorx - Faceless Insanity (2020)
Отличная работа! Четкий, размеренный, качевый сабж, потрясающая ритм секция - альбом слушается с большим удовольствием, несмотря на низковатый битрейд.
(2) infiltrator, kranger,
May 23 2020, 18:12:34 Pointed Mutation - Engineering The Unhuman [ep] (2020)


*Artist: Pointed Mutation
*Album: Engineering The Unhuman [ep]
*Year: 2020
*Genre: Death Metal
*Country: Iran
*Format: mp3@CBR320kbps
*Size: 26MB

Tracklist:
1. Prelude: Arcanum of Aeviternity 01:14 instrumental
2. Implosion 03:44
3. Fractal Equivalence 03:32
4. Engineering the Unhuman 03:14
******************************
Total playing time: 11:44






[more=Extended info]Ali Darani Bass (2019-present)
Sina Ghadimipour Drums (2019-present)
See also: Chaos Descent
Ali Zakeri Songwriting, Guitars, Lyrics (2019-present)
Saleh Rezaei Vocals, Lyrics (2019-present)
See also: Ekwon[/more]

[more=Technical info]
Input File: 02. Implosion.mp3
Channels : 2
Sample Rate : 44100
Precision : 16-bit
Duration : 00:04:06.01 = 10849129 samples = 18450.9 CDDA sectors
File Size : 9.83M
Bit Rate : 320k
Sample Encoding: MPEG audio (layer I, II or III)
Comments :
Title=Implosion
Artist=Pointed Mutation
Album=Engineering the Unhuman
Tracknumber=02/04
Year=2020
Genre=Death Metal
Discnumber=1/1

[/more]

Register
(8) 380661176558, infiltrator, LUCASDEATH, Olethros, randumbum, satanist666, VALERY, vyacheslav,
May 23 2020, 17:52:43 Moonthoth - Battlehymns [demo] (2020)


*Artist: Moonthoth
*Album: Battlehymns [demo]
*Year: 2020
*Genre: Atmospheric Black Metal
*Country: Poland
*Format: mp3@CBR320kbps
*Size: 26MB

Tracklist:
1. Raven's Cry 02:11
2. Battlehymns 05:12
3. Blood Tale 03:12
******************************
Total playing time: 10:35




[more=Extended info]Nocturnal Everything
See also: Blackmoon[/more]

[more=Technical info]
Input File: Moonthoth - Battlehymns - 02 Battlehymns.mp3
Channels : 2
Sample Rate : 44100
Precision : 16-bit
Duration : 00:05:12.10 = 13763698 samples = 23407.6 CDDA sectors
File Size : 12.5M
Bit Rate : 321k
Sample Encoding: MPEG audio (layer I, II or III)
Comments :
Title=Battlehymns
Artist=Moonthoth
Album=Battlehymns
Tracknumber=2
Year=2020

[/more]

Register
(16) 1968_janeart, aleon, craP_cillA, infiltrator, kim666, Olethros, randumbum, robertho777, satanist666, senecazm, SilentNidhogg, thenecromancer, VALERY, vasiljev_sergej, Wail, Wolftribes,
May 23 2020, 15:39:29 Barang - Ancestral Bakasi Pakal Masaker (2020)


*Artist: Barang
*Album: Ancestral Bakasi Pakal Masaker
*Year: 2020
*Genre: Brutal Death Metal
*Country: Philippines
*Format: mp3@CBR320kbps
*Size: 77MB

Tracklist:
01. Intro
02. Larang Bakasi
03. Ayala Lagoon
04. Abiba Komentaryo
05. Mactan Newtown
06. Call Center
07. Lolo Nimo
08. Pinakupsang Baboy
09. Bangus Inun-Unam
******************************
Total playing time: 22:16




[more=Technical info]
Input File: 02. Larang Bakasi.mp3
Channels : 2
Sample Rate : 44100
Precision : 16-bit
Duration : 00:02:58.32 = 7864088 samples = 13374.3 CDDA sectors
File Size : 9.88M
Bit Rate : 443k
Sample Encoding: MPEG audio (layer I, II or III)
Comments :
Title=Larang Bakasi
Artist=Barang
Album=Ancestral Bakasi Pakal Masaker
Tracknumber=2
Year=2020
Genre=Brutal Death

[/more]

Register
(18) atavist, Hell_Is_Here, infiltrator, jollo, LUCASDEATH, MMMMM, multizwilling, Olethros, randumbum, Sanctus, SatanicPanzer, satanist666, SnaP, supremo, vyacheslav, WarmasterChorus, Герб, Сварог Барг,
May 23 2020, 15:31:37 Sederai Mutilation - Agony Of Borneo (2020)


*Artist: Sederai Mutilation
*Album: Agony Of Borneo
*Year: 2020
*Genre: Brutal Death Metal
*Country: Indonesia
*Format: mp3@CBR320kbps
*Size: 84MB

Tracklist:
01. Impending Destruction (Intro)
02. Emas Hitam Pualu Bormeo
03. Murka Dunia
04. Human Rotten
05. Membunuh Atau Mati
06. Kerusakan Organ Otak
07. Jeritan Kesakitan
08. Carcass Amputated
09. Infected Agony
******************************
Total playing time: 34:05





[more=Extended info]Putra Riezky Everything
See also: Kropos[/more]

[more=Technical info]
Input File: 02. EMAS HITAM PUALU BORMEO.mp3
Channels : 2
Sample Rate : 44100
Precision : 16-bit
Duration : 00:03:41.59 = 9771943 samples = 16619 CDDA sectors
File Size : 9.06M
Bit Rate : 327k
Sample Encoding: MPEG audio (layer I, II or III)
Comments :
Title=EMAS HITAM PUALU BORMEO
Artist=Sederai Mutilation
Album=Agony of Borneo
Tracknumber=2
Year=2020
Genre=Brutal Death

[/more]

Register
(18) alikkon, atavist, hate_eternal, Hell_Is_Here, infiltrator, jollo, LUCASDEATH, maochen, metala, MMMMM, multizwilling, Olethros, randumbum, SatanicPanzer, satanist666, supremo, vyacheslav, Сварог Барг,
May 22 2020, 21:12:11 Daemon Pyre - Serpent Gods And A Dying Sun (2020)


Modern MDM
(1) pongsifu,
May 22 2020, 21:08:50 Constant Nausea - Niech Bedzie Chwala [demo] (2020)


*Artist: Constant Nausea
*Album: Niech Bedzie Chwala [demo]
*Year: 2020
*Genre: Black Metal
*Country: Poland
*Format: mp3@CBR320kbps
*Size: 50MB

Tracklist:
1. Ostateczny Koniec Wszystkiego
2. Niech Bedzie Chwala
3. Prawdziwa Wolnosc
4. Masturbacja To Zycie
5. Zobaczyc Deszcz
******************************
Total playing time: 21:05





[more=Technical info]
Input File: Constant Nausea - Niech Będzie Chwała - 02 Niech Będzie Chwała.mp3
Channels : 2
Sample Rate : 44100
Precision : 16-bit
Duration : 00:03:18.88 = 8770652 samples = 14916.1 CDDA sectors
File Size : 8.01M
Bit Rate : 322k
Sample Encoding: MPEG audio (layer I, II or III)
Comments :
Title=Niech Będzie Chwała
Artist=Constant Nausea
Album=Niech Będzie Chwała
Tracknumber=2
Year=2020

[/more]

Register
(10) 1968_janeart, infiltrator, kim666, Olethros, randumbum, robertho777, satanist666, SilentNidhogg, VALERY, vasiljev_sergej,
May 22 2020, 20:30:43 Dehumanaut - Dust In The Giant's Hand (2020)


*Artist: Dehumanaut
*Album: Dust In The Giant's Hand
*Year: 2020
*Genre: Extreme/Melodic Death Metal
*Country: United Kingdom
*Format: mp3@CBR320kbps
*Size: 100MB

Tracklist:
1. Judgement Reigns
2. The Noose Is Tight
3. Ashes
4. Eyes to the Sky
5. Curses
6. This Is Our War
7. In the Ruins of Light
8. Inherited Absurdity
9. Cognitive Dissonance
10. A World Unmade
******************************
Total playing time: 42:02




[more=Technical info]
Input File: 02 - The Noose Is Tight.mp3
Channels : 2
Sample Rate : 44100
Precision : 16-bit
Duration : 00:03:28.65 = 9201641 samples = 15649 CDDA sectors
File Size : 8.76M
Bit Rate : 336k
Sample Encoding: MPEG audio (layer I, II or III)
Comments :
Title=The Noose Is Tight
Artist=Dehumanaut
Album=Dust in the Giant's Hand
Tracknumber=2
Year=2020

[/more]

Register
(14) AHBAnep, BugEyes, chipsgott, DenisKov, infiltrator, lldma, Lukittaz, metala, multizwilling, Olethros, sergsazan, VALERY, zhol, Сварог Барг,
May 22 2020, 20:05:08 Sekator - Defy Inertia (2020)


*Artist: Sekator
*Album: Defy Inertia
*Year: 2020
*Genre: Thrash/Death Metal
*Country: Poland
*Format: mp3@CBR320kbps
*Size: 118MB

Tracklist:
1. Intro 01:33 instrumental
2. Threaten the World 04:23
3. A Drastic Conversion 03:47
4. Suffering ov Myself 05:22
5. Lost 03:32
6. Corrosion ov the Mind 02:56
7. Exodos 05:27
8. Soul Collector 02:46
9. Fuck You 04:16
10. Barbaric Minds 04:35
11. Fear Controlled 03:20
12. Insomnia 10:12
******************************
Total playing time: 52:09





[more=Extended info]Maciej "Repeta" Krzewski Bass (2008-present)
See also: ex-Bloodfeast
Przemysław "MC Harambe" Krzewski Vocals (2008-present)
Adam "Krasz" Niekrasz Drums (2011-present)
See also: Devilish Impressions, Paint My Horror
Kuba "Andrzej" Andruszkiewicz Guitars (2014-present)
See also: ex-Deathibrillator, 13 Piętro
Kuba "Różal" Różycki Guitars (2015-present)
See also: 13 Piętro[/more]

[more=Technical info]
Input File: 02 - Threaten the World.mp3
Channels : 2
Sample Rate : 44100
Precision : 16-bit
Duration : 00:04:13.82 = 11193550 samples = 19036.6 CDDA sectors
File Size : 10.3M
Bit Rate : 325k
Sample Encoding: MPEG audio (layer I, II or III)
Comments :
Title=Threaten the World
Artist=Sekator
Album=Defy Inertia
Tracknumber=2
Year=2020

[/more]

Register
(15) atavist, boby9052, BugEyes, Dark Sage, infiltrator, Korpse, Lukittaz, metala, multizwilling, Olethros, sergsazan, stumpheavyrock, terron, Vladimir, wanderer73,
May 22 2020, 19:57:47 Kasvoton - Jumalansa Tappaneet (2020)


*Artist: Kasvoton
*Album: Jumalansa Tappaneet
*Year: 2020
*Genre: Death Metal
*Country: Finland
*Format: mp3@CBR320kbps
*Size: 88MB

Tracklist:
1. Pois valosta 03:54
2. Niele lasia 02:56
3. Dehumanisaatio 02:52
4. Orja ja mestari 04:44
5. Tuhkasta noussut 05:34
6. Hehku 02:12
7. Kirottu 03:54
8. --- 06:22
9. Jumalansa tappaneet 05:17
******************************
Total playing time: 37:45





[more=Extended info]Antti Kaipainen Drums
Rolle Hirsimäki Guitars
Mikko Ropo Vocals, Bass[/more]

[more=Technical info]
Input File: 02 - Niele Lasia.mp3
Channels : 2
Sample Rate : 44100
Precision : 16-bit
Duration : 00:02:55.97 = 7760409 samples = 13198 CDDA sectors
File Size : 7.32M
Bit Rate : 333k
Sample Encoding: MPEG audio (layer I, II or III)
Comments :
Title=Niele Lasia
Artist=Kasvoton
Album=Jumalansa Tappaneet
Tracknumber=2
Year=2020

[/more]

Register
(18) 666kolobok666, atavist, Dark Sage, infiltrator, jollo, lldma, Mares, metala, MMMMM, multizwilling, Olethros, sabr, samokot, satanist666, VALERY, Vladimir, vyacheslav, wanderer73,
May 22 2020, 18:46:34 Entorx - Faceless Insanity (2020)


*Artist: Entorx
*Album: Faceless Insanity
*Year: 2020
*Genre: Death/Thrash Metal
*Country: Germany
*Format: mp3@CBR128kbps
*Size: 47MB

Tracklist:
1. Overture: Condamnation 02:27
2. Black Dawn 06:13
3. Hypocritical Faith 04:48
4. PTSD 05:00
5. Isolation 01:13
6. Madness Unchained 07:10
7. Paranoid Conspiracy 04:07
8. Morbid Rage 04:54
9. Doomed 10:10
10. Death Machine 04:28
******************************
Total playing time: 50:30





[more=Extended info]Lukas Neff Drums
Taras Brygadin Bass (2009-present)
See also: ex-Tremescum
Bogdan Brygadin Guitars (2009-present)
See also: Burning Buses, ex-Tremescum
René Baron Vocals (2012-present)
See also: Arkuum
Sascha Dörr Guitars (2018-present)
See also: ex-Morphyn[/more]

[more=Technical info]
Input File: 02_entorx_black_dawn.mp3
Channels : 2
Sample Rate : 44100
Precision : 16-bit
Duration : 00:06:13.78 = 16483522 samples = 28033.2 CDDA sectors
File Size : 6.06M
Bit Rate : 130k
Sample Encoding: MPEG audio (layer I, II or III)
Comments :
Title=Black Dawn
Artist=ENTORX
Album=Faceless Insanity
Tracknumber=2/10
Year=2020

[/more]

Register
(8) boby9052, infiltrator, jollo, kranger, metala, multizwilling, Olethros, wanderer73,
May 21 2020, 18:42:52 Leather Witch - Leather Witch (2020)


*Artist: Leather Witch
*Album: Leather Witch
*Year: 2020
*Genre: Heavy/Speed Metal
*Country: Colombia
*Format: mp3@CBR320kbps
*Size: 66MB

Tracklist:
1. Pull the Trigger 03:42
2. Stronger than Death 05:11
3. Day of Glory 04:00
4. Murder Ride 03:21
5. No Pain, No Game 04:26
6. Fast Killer 03:48
7. Do It for Money 03:27
8. Leather Witch 03:33
******************************
Total playing time: 31:28




[more=Extended info]Hernan Gonzalez "Otto" Bass
Juan "Chamo" Hurtado Drums
See also: No Remorse, ex-Aggressive
Pablo Meza Guitars (lead)
See also: Tears of Glory
José Uribe Guitars (rhythm)
See also: Cold Evocation, No Remorse, Rebelion, Shadows and Chaos, Vaitor
Tania Ospina Gomez Vocals
See also: Black Head, Macabre Bullet, Tania[/more]

[more=Technical info]
Input File: 02_leather_witch_stronger_than_death.mp3
Channels : 2
Sample Rate : 44100
Precision : 16-bit
Duration : 00:05:11.27 = 13726963 samples = 23345.2 CDDA sectors
File Size : 12.6M
Bit Rate : 324k
Sample Encoding: MPEG audio (layer I, II or III)
Comments :
Title=Stronger than Death
Artist=Leather Witch
Album=Leather Witch
Tracknumber=2/8
Year=2020
Genre=17
Discnumber=1/1

[/more]

Register
(22) ace73pq, AHBAnep, andreikun, Bzth, Darkness, gwar, infiltrator, Lukittaz, Mares, metala, multizwilling, Old Vyaine, oldvarg, Olethros, postal67, raul666, Rover, samokot, sergsazan, thrashiac55, wgs73, Yarri,
May 21 2020, 18:31:18 Primal Fear - Along Came The Devil [single] (2020)


*Artist: Primal Fear
*Album: Along Came The Devil [single]
*Year: 2020
*Genre: Heavy/Power Metal
*Country: Germany
*Format: mp3@CBR320kbps
*Size: 10MB

Tracklist:
1. Along Came the Devil 04:21
******************************
Total playing time: 4:21




[more=Extended info]Mat Sinner Bass, Vocals (1997-present)
See also: Goddess Shiva, Jorn, Kiske / Somerville, Level 10, Silent Force, Sinner, Mat Sinner, Voodoo Circle, ex-Scheepers (live), ex-Cans
Tom Naumann Guitars (1997-2000, 2003-2007, 2015-present)
See also: Sinner, Mat Sinner, ex-Godiva (live)
Ralf Scheepers Vocals (1997-present)
See also: Blackwelder, Scheepers, ex-F.B.I., ex-Gamma Ray, ex-Tyran' Pace
Magnus Karlsson Guitars (2008-present)
See also: Allen / Olzon, Kiske / Somerville, Magnus Karlsson's Free Fall, The Codex, The Ferrymen, Planet Alliance, ex-Last Tribe, ex-Midnight Sun, Starbreaker, ex-Allen - Lande, ex-Bob Catley, ex-Scheepers (live)
Alex Beyrodt Guitars (2011-present)
See also: Jorn, Level 10, Missa Mercuria, Silent Force, Mat Sinner, ex-The Sygnet, ex-Wild Axes, Voodoo Circle, ex-Sinner
Michael Ehré Drums (2019-present)
See also: Gamma Ray, Nitewalk, The Unity, Unisonic (live), ex-Love.Might.Kill, ex-Metalium, ex-Murder One, ex-Pryer, Uli Jon Roth (live), ex-Firewind, ex-Starchild, ex-Hansen & Friends (live), ex-Vinnie Moore (live), ex-Matt Gonzo Roehr, ex-Kee Marcello (live)[/more]

[more=Technical info]
Input File: 01 primal_fear_along_came_the_devil.mp3
Channels : 2
Sample Rate : 44100
Precision : 16-bit
Duration : 00:04:21.27 = 11521919 samples = 19595.1 CDDA sectors
File Size : 10.6M
Bit Rate : 326k
Sample Encoding: MPEG audio (layer I, II or III)
Comments :
Title=Along Came the Devil
Artist=Primal Fear
Album=Along Came the Devil
Tracknumber=01
Year=2020-15-05
Genre=Metal
Discnumber=1/1

[/more]

Register
(13) ALEXSATHANAS, Aresson, Dark Sage, gwar, infiltrator, infozahist, Lanceatum, Olethros, Reverend, senecazm, sergsazan, terron, Yarri,
May 21 2020, 18:07:29 Oxidize - Dark Confessions (2020)


*Artist: Oxidize
*Album: Dark Confessions
*Year: 2020
*Genre: Melodic Heavy Metal
*Country: Sweden
*Format: mp3@CBR320kbps
*Size: 120MB

Tracklist:
01. Heading for Tomorrow 05:00
02. Bleeding Heart 03:55
03. Coma 2:59
04. Not an Angel 04:04
05. Tell Me Why 04:50
06. Revolution 04:17
07. Anti Hero 04:12
08. Hey Angel 05:23
09. Dark Confessions 05:19
10. Titanic 03:39
11. Devil in Disguise 05:19
12. Crucify Me 03:13
******************************
Total playing time: 52:10




[more=Technical info]
Input File: 02 - Bleeding Heart.mp3
Channels : 2
Sample Rate : 44100
Precision : 16-bit
Duration : 00:03:54.75 = 10352563 samples = 17606.4 CDDA sectors
File Size : 9.46M
Bit Rate : 323k
Sample Encoding: MPEG audio (layer I, II or III)
Comments :
Title=Bleeding Heart
Artist=Oxidize
Album=Dark Confessions
Tracknumber=2
Year=2020
Genre=Metal
Discnumber=1

[/more]

Register
(12) Bloodn Lord, csgmnk, infiltrator, Lukittaz, Mares, metala, oldvarg, Olethros, Rover, senecazm, terron, Сварог Барг,
May 21 2020, 16:25:06 Biest - Stirb Oder Friss (2021)


*Artist: Biest
*Album: Stirb Oder Friss
*Year: 2020
*Genre: Heavy Metal
*Country: Germany
*Format: mp3@CBR320kbps
*Size: 94MB

Tracklist:
01 Ehrlich Und Verlogen
02 Kamikaze
03 Abrakadabra
04 Halte Es Aus
05 Anders
06 Nervengift
07 Seelenräuber
08 Stillstand
09 Hier Bei Mir
10 Stirb Oder Friss
11 Wenn Alles Gesagt Ist
12 Ich Bleib
******************************
Total playing time: 44:18





[more=Technical info]
Input File: 02. Kamikaze.mp3
Channels : 2
Sample Rate : 44100
Precision : 16-bit
Duration : 00:03:14.65 = 8584153 samples = 14598.9 CDDA sectors
File Size : 7.92M
Bit Rate : 326k
Sample Encoding: MPEG audio (layer I, II or III)
Comments :
Title=Kamikaze
Artist=Biest
Album=Stirb oder friss
Tracknumber=2/12
Year=2020
Genre=17
Discnumber=1/1

[/more]

Register
(9) aviacademy, gwar, infiltrator, Lukittaz, Olethros, Rover, senecazm, stumpheavyrock, toly1917,
May 21 2020, 12:16:24 Henry Kane - Age Of The Idiot (2020)


*Artist: Henry Kane
*Album: Age Of The Idiot
*Year: 2020
*Genre: Crust/Death/Black Metal
*Country: Sweden
*Format: mp3@CBR320kbps
*Size: 83MB

Tracklist:
1. En evig plågan 01:54
2. Tidens tand 01:51
3. Veil of Hatred 02:02
4. Den felande länken 01:23
5. Embraced by Nothing 00:59
6. Age of the Idiot 02:48
7. Disposable Humans 01:52
8. Entrenched in Nihilism 04:09
9. Mitt hjärtas mörker 01:10
10. My Sweet Escape 01:09
11. Keep Us from the Truth 02:29
12. No Road to Redemption 00:47
13. March of the Dumb 01:09
14. By the Virtue of Hate 02:39
15. Liar oh Father the Liar 00:54
16. Snarans Ballad 00:57
17. Take It Back 01:52
18. Welcome to Oblivion 01:24
19. Psykopaten (Asta Kask cover) 02:31
******************************
Total playing time: 33:59




[more=Extended info]Jonny Pettersson All instruments (2016-present)
See also: Acid Domain, Ashcloud, Berzerker Legion, Cropsy Maniac, Crossbow Suicide, Gods Forsaken, Heads for the Dead, Human Harvest, Just Before Dawn, Nattravnen, Pale King, Skineater, Syn:drom, Ursinne, Vholdghast, Wombbath, ex-Disfigured Victims, ex-Cavevomit, Troikadon, ex-Sorghegard, ex-Ooz[/more]

[more=Technical info]
Input File: HENRY KANE (Sweden) - Age of the Idiot (Death Metal-Grind-Crust) - 01 En Evig Plågan.mp3
Channels : 2
Sample Rate : 44100
Precision : 16-bit
Duration : 00:01:53.61 = 5010289 samples = 8520.9 CDDA sectors
File Size : 4.78M
Bit Rate : 336k
Sample Encoding: MPEG audio (layer I, II or III)
Comments :
Title=En Evig Plågan
Artist=HENRY KANE (Sweden)
Album=Age of the Idiot (Death Metal/Grind/Crust)
Tracknumber=1
Year=2020

[/more]

Register
(10) atavist, Boozer, Hell_Is_Here, infiltrator, multizwilling, Olethros, Ostinato, VALERY, vov7609, xax,

172 Pages V   1 2 3 > » 
- Lo-Fi Version Support form
Copyrights and abuse reports form
Time is now: 6th June 2020 - 13:53:55