Welcome Guest ( Log In | Register )

История благодарностей участнику Andrew ::: Спасибо сказали: 28078 раз(а)
Дата поста: В теме: За сообщение: Спасибо сказали:
Jan 23 2021, 20:09:41 Maculator - Witchcraft (2020)


*Artist: Maculator
*Album: Witchcraft
*Year: 2020
*Genre: Death Metal
*Country: Brazil
*Format: mp3@CBR320kbps
*Size: 64MB

Tracklist:
1. Intro
2. Apocalyptic Rampage
3. Of Malice and Lust
4. Interlude
5. Enlightened Through Darkness
6. Triunfo
7. Witchcraft
******************************
Total playing time: 27:32






[more=Extended info]Lucas Braga Bass (2017-present)
Henrique Sousa Drums (2017-present)
See also: Berserk
Gustavo Ross Guitars (2017-present)
Fabrício Estripador Vocals (2017-present)
See also: Blasfemador, Maleficarum
Igor Guitars (2020-present)[/more]

[more=Technical info]
Input File: 02 - Apocalyptic Rampage.mp3
Channels : 2
Sample Rate : 44100
Precision : 16-bit
Duration : 00:04:58.07 = 13145019 samples = 22355.5 CDDA sectors
File Size : 12.3M
Bit Rate : 329k
Sample Encoding: MPEG audio (layer I, II or III)
Comments :
Title=Apocalyptic Rampage
Artist=Maculator
Album=Witchcraft
Tracknumber=2
Year=2020

[/more]

Register
(17) AHBAnep, andreikun, atavist, caro, cesar, El_Chibo, jollo, Marek, MMMMM, Olethros, Rosen, smysl, Taakeferd, VALERY, wanderer73, wreak, Yngwarr,
Jan 23 2021, 19:25:51 Accept - Too Mean To Die (2021)
Прослушал один раз альбом целиком и понимаю, что больше я к его прослушке не вернусь. Уже просто-напросто неинтересно. Пару вменяемых треков на весь альбом и все.
Blood Of The Nation - шикарный и великолепный альбом, который был как глоток свежего воздуха, после затяжного перерыва и который время от времени с удовольствием переслушиваю. А вот дальше хуже. С каждым последующим альбомом все слабее и слабее.
(1) mardak666,
Jan 22 2021, 19:13:23 Nervosa - Perpetual Chaos (2021)
Не знаю, но мне вообще не зашло. По сравнению с первыми двумя альбомами - на новом опусе простецки-примитивно исполнено абсолютно все, начиная с муз части и заканчивая вокалом.
(1) necroulv,
Jan 22 2021, 17:28:00 Plagueborne - A Blueprint For Annihilation (2021)
Скорее Deathcore/Death Metal -но дебют у немцев вышел очень добротным!
(1) Occultas,
Jan 22 2021, 17:16:25 Tidal Fall - Tidal Fall [ep] (2021)
ЦИТАТА(Сварог Барг @ Jan 22 2021, 16:42:01) *
Скорее модерн с чистоголосьем, больше одного раза слушать желания не возникло.

К сожалению, но так все и есть. Больше двух треков не осилить...
(2) infiltrator, Сварог Барг,
Jan 22 2021, 17:10:52 Kharon - Kharon [ep] (2021)
Чет вообще ни о чем! Особенно ударные - это примитивизм высшей степени!
(2) infiltrator, Shadechaser,
Jan 19 2021, 21:26:43 Bloody Obsession - Inevitable Death (2020)
Очень приличного качества добротная и смачная дезяра!
(1) Gelukas,
Jan 14 2021, 17:18:53 Amongst The Moonlight - A Journey Through Darkness (2020)
Хороший, добротный Melodic/Symphonic Black Metal. 20.gif
(1) Strid,
Jan 11 2021, 20:45:24 Praise The Sun - The Art Of Agony [ep] (2020)


*Artist: Praise The Sun
*Album: The Art Of Agony [ep]
*Year: 2020
*Genre: Melodic Death Metal
*Country: Poland
*Format: mp3@CBR320kbps
*Size: 43MB

Tracklist:
1. The Art of Agony 03:05
2. Anna 03:59
3. Praise the Sun 03:56
4. Alive 03:32
5. Mistake Daughter 03:30
******************************
Total playing time: 18:02





[more=Extended info]Konrad Romanowski Bass
See also: ex-Pravia
Wojciech Mroziński Drums
Mateusz Zarczuk Guitars
Daniel Kowalski Guitars
Marcelina Janik Vocals[/more]

[more=Technical info]
Input File: 02 - Anna.mp3
Channels : 2
Sample Rate : 44100
Precision : 16-bit
Duration : 00:03:59.25 = 10550705 samples = 17943.4 CDDA sectors
File Size : 9.79M
Bit Rate : 327k
Sample Encoding: MPEG audio (layer I, II or III)
Comments :
Title=Anna
Artist=Praise The Sun
Album=The Art of Agony
Tracknumber=2
Year=2020
Discnumber=1/1

[/more]

Register
(10) infiltrator, Marek, Olethros, randumbum, Rosen, satanist666, sergsazan, Taakeferd, wreak, zhol,
Jan 11 2021, 20:12:04 Faded Echoes - ...Of The Dead [ep] (2021)


*Artist: Faded Echoes
*Album: ...Of The Dead [ep]
*Year: 2021
*Genre: Melodic Death Metal
*Country: France
*Format: mp3@CBR320kbps
*Size: 53MB

Tracklist:
1. Intro
2. Manhatred
3. Tabula Rasa
4. The Meteors
5. Nature is Gone
6. This Sour Way
******************************
Total playing time: 22:47



[more=Technical info]
Input File: Faded Echoes - ...Of the Dead - 02 Manhatred.mp3
Channels : 2
Sample Rate : 44100
Precision : 16-bit
Duration : 00:03:57.07 = 10454963 samples = 17780.5 CDDA sectors
File Size : 9.59M
Bit Rate : 324k
Sample Encoding: MPEG audio (layer I, II or III)
Comments :
Title=Manhatred
Artist=Faded Echoes
Album=...Of the Dead
Tracknumber=2
Year=2021

[/more]

Register
(21) CTPEMLEHIE, fateefffddd, gwynnbleid, infiltrator, Marek, multizwilling, oldvarg, Olethros, Paradayz, randumbum, Rosen, satanist666, sergsazan, Taakeferd, TeamatSE, VALERY, Wail, wanderer73, wreak, zhol, Сварог Барг,
Jan 9 2021, 09:49:01 Last Legion - Division Skaraborg [ep] (2021)


*Artist: Last Legion
*Album: Division Skaraborg [ep]
*Year: 2021
*Genre: Blackened Death/Thrash Metal
*Country: Sweden
*Format: mp3@CBR320kbps
*Size: 35MB

Tracklist:
1. The End 03:06
2. Division Skaraborg 04:40
3. Där Liv En Gång Fanns 04:19
4. Min Undergång 02:51
******************************
Total playing time: 14:56




[more=Extended info]Andreas Schütz Bass (2009-present)
Christian Larsson Guitars (2009-present)
See also: Hellevator, ex-Svavelvinter
Tomas Jeppsson Drums (2014-present)
Olle Olsson Vocals (2016-present)
See also: Nordkväde, Myhrding (live), ex-Seedna, ex-Katabatikos[/more]

[more=Technical info]
Input File: 02. Division Skaraborg.mp3
Channels : 2
Sample Rate : 44100
Precision : 16-bit
Duration : 00:04:40.60 = 12374416 samples = 21044.9 CDDA sectors
File Size : 11.2M
Bit Rate : 320k
Sample Encoding: MPEG audio (layer I, II or III)
Comments :
Title=Division Skaraborg
Artist=Last Legion
Album=Division Skaraborg
Tracknumber=02
Year=2021

[/more]

Register
(14) boby9052, infiltrator, Olethros, Rosen, satanist666, sergsazan, sludge666, stumpheavyrock, varlam4, Vitald, Wail, wanderer73, wgs73, wreak,
Jan 8 2021, 11:45:35 Deathgoat - Regurgitated Into Existence (2021)


*Artist: Deathgoat
*Album: Regurgitated Into Existence
*Year: 2021
*Genre: Old School Death Metal
*Country: Finland
*Format: mp3@CBR320kbps
*Size: 79MB

Tracklist:
01. Embrace of Dead Flesh
02. Chainsaw Abortion
03. Rotten Salvation
04. Obsessed With Decapitation
05. Carniwhore
06. Homicide Effect
07. Dismember the Unworthy
08. A Farewell to Humanity
******************************
Total playing time: 33:26





[more=Technical info]
Input File: 02. Chainsaw Abortion.mp3
Channels : 2
Sample Rate : 44100
Precision : 16-bit
Duration : 00:03:32.97 = 9391757 samples = 15972.4 CDDA sectors
File Size : 8.52M
Bit Rate : 320k
Sample Encoding: MPEG audio (layer I, II or III)
Comments :
Title=Chainsaw Abortion
Artist=Deathgoat
Album=Regurgitated into Existence
Tracknumber=02
Year=2021

[/more]

Register
(29) akym, alikkon, andreikun, atavist, caro, denver, infiltrator, insufferable, john73, jollo, judaz, metala, Mist13Signifier, multizwilling, older68, Olethros, Rosen, sergsazan, stumpheavyrock, Taakeferd, TeamatSE, THROWER666, Tino, VALERY, vyacheslav, Wail, wreak, Yngwarr, zhol,
Jan 8 2021, 10:35:38 Break Of Dusk - …and The Winter Came (2021)
ЦИТАТА(Samaritianin @ Jan 7 2021, 15:11:37) *
*Genre: Melodic Death Metal

Та ну не!!! Меланхолично-среднетемповая-акустическая-плаксивая готика, в отдельных моментах с гроулингом (процентов 5 от силы). Но не МДМ ни разу!!!
(1) northerking,
Jan 8 2021, 10:26:32 Viral - Viral (2021)


*Artist: Viral
*Album: Viral
*Year: 2021
*Genre: Old School Heavy Metal
*Country: Sweden
*Format: mp3@CBR320kbps
*Size: 104MB

Tracklist:
01. Scarred 03:11
02. Going Down 03:32
03. Machine 03:31
04. Gallows 05:30
05. Gonna Lose It 04:04
06. Viral 04:59
07. Mephorius 05:10
08. Selo's Tale 06:20
09. Devil's Clockwork 04:29
******************************
Total playing time: 40:46




[more=Extended info]Line Up:
Albin Forsell: Vocals
Larri Malinen: Guitars
Marcus Borggren: Guitars
Christian Stahl: Bass
Linus Melchiorsen: Drums[/more]

[more=Technical info]
Input File: 02 - Going Down.mp3
Channels : 2
Sample Rate : 44100
Precision : 16-bit
Duration : 00:03:32.00 = 9349200 samples = 15900 CDDA sectors
File Size : 8.67M
Bit Rate : 327k
Sample Encoding: MPEG audio (layer I, II or III)
Comments :
Title=Going Down
Artist=Viral
Album=Viral
Tracknumber=2
Year=2021-08-01
Genre=Heavy Metal
Discnumber=1

[/more]

Register
(16) AHBAnep, andreikun, Darkness, Herrant, infiltrator, Marek, metala, multizwilling, oldvarg, Phlebotomized, Rosen, stumpheavyrock, Taakeferd, Wail, wreak, Yngwarr,
Jan 8 2021, 10:10:52 Zac Leaser - Ostiarius (2021)
Тоже особо не зашло. Подзатянутые треки. Да и МДМа здесь нет.
Скорее Technical/Progressive Death Metal
(2) fateefffddd, infiltrator,
Jan 8 2021, 10:03:25 Ritualist - An Audience Of Desolation [ep] (2021)


*Artist: Ritualist
*Album: An Audience Of Desolation [ep]
*Year: 2021
*Genre: Death Metal/Deathcore
*Country: United States
*Format: mp3@CBR320kbps
*Size: 43MB

Tracklist:
01. Effete 01:50
02. Neural Inferno 04:00
03. Kana Tevoro 03:15
04. An Audience of Desolation 04:47
05. The Lamb 03:39
******************************
Total playing time: 17:31





[more=Extended info]Kevin Calderon Bass
Blaine Cochran Guitars
Danny Boismier Guitars
See also: Summon the Ancients
Chris Velarde Vocals[/more]

[more=Technical info]
Input File: 02 Neural Inferno.mp3
Channels : 2
Sample Rate : 44100
Precision : 16-bit
Duration : 00:04:00.58 = 10609490 samples = 18043.4 CDDA sectors
File Size : 10.2M
Bit Rate : 340k
Sample Encoding: MPEG audio (layer I, II or III)
Comments :
Title=Neural Inferno
Artist=Ritualist
Album=An Audience of Desolation
Tracknumber=2/5
Year=2021-21-20
Genre=Metal
Discnumber=1/1

[/more]

Register
(5) infiltrator, Olethros, Rosen, Taakeferd, wreak,
Jan 2 2021, 20:42:10 Jurassic Jade - Id (2020)
Хренотень клоунадная.
(1) AHBAnep,
Jan 2 2021, 19:00:35 Trapmaker - Will Of The Warrior (2020)
Олд скульный хеви. Лет так 35, наверное, этот материал бы был востребован.
Но сейчас сей материал воспринимается как то наивным, да еще и вокал...
(1) Taakeferd,
Dec 27 2020, 22:00:19 Sound Of Memories - The Sand Within (2020)
Очень даже неплохо. Легковесный олд скульный МДМ, без модерновости и прочей ненужности. Абсолютно ничего нового не привнесено, но слушается легко и ненапряжно.
(1) Ingvar,
Dec 27 2020, 21:46:52 Screams Of Hockomock - Morbid Curiosity (2020)
ЦИТАТА(krotovich @ Dec 27 2020, 15:03:13) *
Кем обнаружено?

Не, все верно!
9. Downfall - СoB
(3) infiltrator, krotovich, Samaritianin,
Dec 16 2020, 10:21:00 The Eye Of The North - Black Thrashing Onslaught (2020)


*Artist: The Eye Of The North
*Album: Black Thrashing Onslaught
*Year: 2020
*Genre: Black/Thrash Metal
*Country: Norway
*Format: mp3@CBR128kbps
*Size: 35MB

Tracklist:
1. Winds of Death
2. The Triumph of G
3. Nowhere to Run
4. Airstrike
5. Blind Fury
6. Black Thrashing Onslaught
7. Into Oblivion
8. Terror from the Eastern Sky
******************************
Total playing time: 33:18



[more=Extended info]G. Everything (2019-present)
See also: Deadlight Sanctuary, Goatkraft

Несмотря на One Man Band -очень добротная и качественная работа![/more]

Register
(16) Asketto, boby9052, Dark_Viking, Diflock, infiltrator, metala, Occultas, Ogneslov, Olethros, Rosen, satanist666, sergsazan, vasiljev_sergej, Wail, wanderer73, wgs73,
Dec 16 2020, 09:15:11 Sepultura - Tainted Love [single] (2020)


*Artist: Sepultura
*Album: Tainted Love [single]
*Year: 2020
*Genre: Groove/Thrash Metal
*Country: Brazil
*Format: mp3@CBR320kbps
*Size: 7MB

Tracklist:
1. Tainted Love (Soft Cell cover) 03:02
******************************
Total playing time: 3:02




[more=Extended info]Paulo Jr. Bass (1984-present)
See also: The Unabomber Files, ex-AI-5, ex-Brasil Rock Stars (live)
Andreas Kisser Guitars (lead), Vocals (backing) (1987-present)
See also: De la Tierra, Metal Allegiance (live), ex-Pestilence, ex-Sexoturica, ex-Esfinge, Andreas Kisser, Hail!, Kisser Clan, ex-Anthrax (live), ex-Asesino (live), ex-Scorpions (live), ex-Andreas Kisser & Embromation Society, ex-Brasil Rock Stars, ex-Charles' Angels, ex-DJ Andreas Kisser, ex-Ed Motta, Andreas Kisser and Rui Veloso, ex-Godswallop, ex-Projeto Brasil Guitarras, ex-Quarteto da Pinga, ex-Clube Big Beatles (live), ex-Far From Alaska (live), ex-Orquestra Rockfônica (live)
Derrick Green Vocals, Guitars (additional) (1998-present)
See also: Beloved Ghouls, Derrick Green, Maximum Hedrum, ex-Pitboss 2000, ex-Musica Diablo, ex-Alpha Jerk, ex-Krop Acid, ex-Outface, ex-Overfiend, ex-Brasil Rock Stars (live)
Eloy Casagrande Drums, Percussion (2011-present)
See also: Iahweh, ex-Aclla, ex-Mr. Ego, ex-Andre Matos, ex-2OIS, ex-Gloria, ex-Projeto Brasil Guitarras, ex-Andreas Kisser (live)[/more]

[more=Technical info]
Input File: 01 sepultura_tainted_love.mp3
Channels : 2
Sample Rate : 44100
Precision : 16-bit
Duration : 00:00:00.18 = 8026 samples = 13.6497 CDDA sectors
File Size : 7.34M
Bit Rate : 322M
Sample Encoding: MPEG audio (layer I, II or III)
Comments :
Title=Tainted Love
Artist=Sepultura
Album=Tainted Love
Tracknumber=1
Year=2020-22-10
Genre=Thrash Metal
Discnumber=1

[/more]

Register
(16) Aresson, cancer1974, Deada, Diflock, gwar, infiltrator, Mannard, Marek, martintrue, Occultas, Olethros, Reverend, Rosen, sepultura39, VALERY, wreak,
Dec 16 2020, 09:06:28 Machine Head - My Hands Are Empty [single] (2020)


*Artist: Machine Head
*Album: My Hands Are Empty [single]
*Year: 2020
*Genre: Thrash/Groove Metal
*Country: United States
*Format: mp3@CBR320kbps
*Size: 12MB

Tracklist:
1. My Hands Are Empty 05:32
******************************
Total playing time: 5:32




[more=Extended info]Robb Flynn Vocals, Guitars (1991-present)
See also: ex-Vio-lence, ex-Sexoturica, ex-Forbidden Evil, ex-Quarteto de Pinga, ex-Roadrunner United
Jared MacEachern Bass, Vocals (backing) (2013-present)
See also: ex-Serenity Dies, ex-Sanctity
Matt Alston Drums, Percussion (2019-present)
See also: Eastern Front, Sanctorum, Devilment
Vogg Guitars (lead) (2019-present)
See also: Decapitated, Lux Occulta, ex-Sceptic (live), ex-Vader (live)[/more]

[more=Technical info]
Input File: 01 machine_head_my_hands_are_empty.mp3
Channels : 2
Sample Rate : 44100
Precision : 16-bit
Duration : 00:00:00.33 = 14597 samples = 24.8248 CDDA sectors
File Size : 13.4M
Bit Rate : 324M
Sample Encoding: MPEG audio (layer I, II or III)
Comments :
Title=My Hands Are Empty
Artist=Machine Head
Album=My Hands Are Empty
Tracknumber=1
Year=2020-13-11
Genre=Groove Metal
Discnumber=1

[/more]

Register
(16) Bloodn Lord, boby9052, cancer1974, Diflock, garml2, gorven, gwar, hell_armageddon, infiltrator, Marek, older68, Olethros, Reverend, Rosen, stumpheavyrock, wreak,
Dec 15 2020, 12:37:17 Sylosis - Worship Decay [single] (2020)


*Artist: Sylosis
*Album: Worship Decay [single]
*Year: 2020
*Genre: Melodic Death/Thrash Metal
*Country: United Kingdom
*Format: mp3@CBR320kbps
*Size: 10MB

Tracklist:
1. Worship Decay 04:37
******************************
Total playing time: 4:37




[more=Extended info]Josh Middleton Guitars, Keyboards, Vocals (lead) (2000-present)
See also: Josh Middleton Project, Passages, Architects
Alex Bailey Guitars (2008-present)
See also: ex-Maggot Stuffed Cunt, ex-Viatrophy, ex-Traces
Ali Richardson Drums (2014-present)
See also: Bleed from Within, ex-Savage Messiah (live)
Conor Marshall Bass (2019-present)
See also: Conjurer, ex-Obsessed by Cruelty[/more]

[more=Technical info]
Input File: 01 sylosis_worship_decay.mp3
Channels : 2
Sample Rate : 44100
Precision : 16-bit
Duration : 00:00:00.26 = 11334 samples = 19.2755 CDDA sectors
File Size : 10.4M
Bit Rate : 323M
Sample Encoding: MPEG audio (layer I, II or III)
Comments :
Title=Worship Decay
Artist=Sylosis
Album=Worship Decay
Tracknumber=1
Year=2020-11-12

[/more]

Register
(12) after21allD, boby9052, chipsgott, gwynnbleid, infiltrator, Olethros, Reverend, Rosen, savaman, stumpheavyrock, wanderer73, wreak,
Dec 15 2020, 12:15:39 Above The Stars - Dreamland Conquest (2020)
Мда...столько аваций, восторга, а материал слаб и не интересен.
(1) Bloodn Lord,

188 Pages V   1 2 3 > » 
- Lo-Fi Version Support form
Copyrights and abuse reports form
Time is now: 26th January 2021 - 08:43:52