Welcome Guest ( Log In | Register )

История благодарностей участнику Andrew ::: Спасибо сказали: 26655 раз(а)
Дата поста: В теме: За сообщение: Спасибо сказали:
Oct 11 2020, 16:43:48 1492 - Atrocities Of A New World (2020)


*Artist: 1492
*Album: Atrocities Of A New World
*Year: 2020
*Genre: Black Metal
*Country: Denmark
*Format: mp3@CBR320kbps
*Size: 83MB

Tracklist:
01. The Ocean Blue 02:54
02. Indigenous Rape Slave 04:04
03. Blood for Gold 04:04
04. Santa Maria 03:41
05. Haiti to Hades 03:31
06. Catholicism Will Set You Free 01:18
07. Terror Island 03:08
08. Conquistador of Plauges 03:53
09. Blanketed to Death 03:00
10. Genocidal Tendencies 02:36
11. Lies for the Future 02:35
******************************
Total playing time: 34:44







[more=Technical info]
Input File: 02 - Indigenous Rape Slave.mp3
Channels : 2
Sample Rate : 44100
Precision : 16-bit
Duration : 00:04:04.00 = 10760400 samples = 18300 CDDA sectors
File Size : 9.85M
Bit Rate : 323k
Sample Encoding: MPEG audio (layer I, II or III)
Comments :
Title=Indigenous Rape Slave
Artist=1492
Album=Atrocities Of A New World
Tracknumber=2
Year=2020-06-10
Discnumber=1

[/more]

Register
(22) 1968_janeart, alikkon, caro, frituz3, Froze, infiltrator, kim666, multizwilling, nadin85, Olethros, Phlebotomized, randumbum, robertho777, Rosen, Scuns, smes, stub888, VALERY, varlam4, vasiljev_sergej, Vitald, vov7609,
Oct 11 2020, 11:36:15 Elanor - Way Of The Sword (2020)


*Artist: Elanor
*Album: Way Of The Sword
*Year: 2020
*Genre: Symphonic Power/Folk Metal
*Country: Hungary
*Format: mp3@CBR320kbps
*Size: 87MB

Tracklist:
1. Dawn of Heroes 01:13
2. Straight Way, Strong Will 04:53
3. Pendragon's Might 04:28
4. Myth of Steel 04:34
5. Way of the Sword 04:19
6. Land of the Sin 05:04
7. The Reign's End 04:05
8. Birth of a Siren 04:41
9. Freezing Blades 04:03
******************************
Total playing time: 37:20





[more=Extended info]Márk Wencler Guitars (2009-2014), Keyboards (2014-present), Vocals (2017-present)
László Jámbrik Bass (2012-present)
Bálint Kemény Guitars (2014-present)
See also: Astur, Runeshard, ex-Ignotus Enthropya, ex-Mythlond, ex-Niburta, ex-Númenor
Attila István Hekele Drums (2016-present)
See also: Exodikon, Isatha
Christian Alexander Oppitz Guitars (2016-present)
See also: ex-Ignotus Enthropya
Roslen Bondì Vocals (female) (2018-present)
See also: ex-Tothem[/more]

[more=Technical info]
Input File: 02 - Straight Way, Strong Will.mp3
Channels : 2
Sample Rate : 44100
Precision : 16-bit
Duration : 00:04:53.08 = 12924960 samples = 21981.2 CDDA sectors
File Size : 11.9M
Bit Rate : 324k
Sample Encoding: MPEG audio (layer I, II or III)
Comments :
Title=Straight Way, Strong Will
Artist=Elanor
Album=Way of the Sword
Tracknumber=2
Year=2020

[/more]

Register
(14) ace73pq, Druidir, flamandez, gwar, gwynnbleid, Herrant, infiltrator, infozahist, randumbum, Rosen, Rover, satanist666, zhol, Сварог Барг,
Oct 11 2020, 10:52:31 Haalbuaer - Tribal Genocide [ep] (2020)


*Artist: Haalbuaer
*Album: Tribal Genocide [ep]
*Year: 2020
*Genre: Death/Doom Metal
*Country: Norway
*Format: mp3@CBR320kbps
*Size: 40MB

Tracklist:
1. Glaciation
2. Tribal Genocide
3. Survival Cannibalism
4. Caverns of the Deceased
5. Primitive Funeral
******************************
Total playing time: 15:21



[more=Technical info]
Input File: Haalbuaer - Tribal Genocide - 02 Tribal Genocide.mp3
Channels : 2
Sample Rate : 44100
Precision : 16-bit
Duration : 00:03:01.38 = 7998770 samples = 13603.4 CDDA sectors
File Size : 7.49M
Bit Rate : 331k
Sample Encoding: MPEG audio (layer I, II or III)
Comments :
Title=Tribal Genocide
Artist=Haalbuaer
Album=Tribal Genocide
Tracknumber=2
Year=2020

[/more]

Register
(13) caro, HMHamster, infiltrator, Lukittaz, Marek, multizwilling, randumbum, Rosen, sergsazan, stumpheavyrock, VALERY, vyacheslav, Wail,
Oct 11 2020, 10:45:04 Skullsplitter - Exploitation 101 (2020)


*Artist: Skullsplitter
*Album: Exploitation 101
*Year: 2020
*Genre: Death/Thrash Metal
*Country: United States
*Format: mp3@CBR320kbps
*Size: 72MB

Tracklist:
1. Snake
2. Procreational Agriculture
3. 200,000 Days
4. Evicted from the Grave
5. Flush
6. Symbiosis
7. Unrequited
8. Exploitation 101
******************************
Total playing time: 31:02






[more=Technical info]
Input File: 02 - Procreational Agriculture.mp3
Channels : 2
Sample Rate : 44100
Precision : 16-bit
Duration : 00:03:11.51 = 8445767 samples = 14363.5 CDDA sectors
File Size : 7.81M
Bit Rate : 326k
Sample Encoding: MPEG audio (layer I, II or III)
Comments :
Title=Procreational Agriculture
Artist=Skullsplitter
Album=Exploitation 101
Tracknumber=2
Year=2020

[/more]

Register
(17) AHBAnep, boby9052, caro, frituz3, infiltrator, jollo, Lukittaz, Marek, metala, Morgoth, multizwilling, Niknne, Rosen, scorpionmk, sergsazan, stumpheavyrock, vyacheslav,
Oct 11 2020, 10:24:54 Arseis - Melz Venist Li Brullin (2020)


*Artist: Arseis
*Album: Melz Venist Li Brullin
*Year: 2020
*Genre: Black/Death Metal/Folk
*Country: France
*Format: mp3@CBR320kbps
*Size: 131MB

Tracklist:
1. Au Gibet De Montfaucon 08:04
2. Yseult et Léproserie 07:02
3. Chevaleis del Cheravais 05:46
4. L'Ordalie les Ignocentes 07:01
5. Sorceresce Haguenau 06:37
6. Le Mal les Ardenz 04:37
7. La Nef les morz 07:11
8. Interlude 01:45
9. La Recluse 08:33
******************************
Total playing time: 56:36




[more=Extended info]Thomas Lefebvre Bass
See also: ex-Dusk and Darkness
Julien Crabe Guitars
Victor Vndl Guitars
Flo Butcher Vocals
See also: Balance of Terror, Human Vivisection, Relics of Humanity, Vile (live), ex-Butcher Instinct, ex-Lappalainen, ex-Glavio[/more]

[more=Technical info]
Input File: 02 - Yseult et Leproserie.mp3
Channels : 2
Sample Rate : 44100
Precision : 16-bit
Duration : 00:07:02.58 = 18635778 samples = 31693.5 CDDA sectors
File Size : 17.1M
Bit Rate : 324k
Sample Encoding: MPEG audio (layer I, II or III)
Comments :
Title=Yseult et Leproserie
Artist=Arseis
Album=Melz Venist Li Brullin
Tracknumber=2
Year=2020

[/more]

Register
(14) AlexSmith, Altkiller, frituz3, infiltrator, Korpse, Lukittaz, Morgoth, Phlebotomized, randumbum, Rosen, satanist666, VALERY, vasiljev_sergej, Сварог Барг,
Oct 10 2020, 18:33:22 Kerberos - The Awakening Of The Hellhound [ep] (2020)


*Artist: Kerberos
*Album: The Awakening Of The Hellhound [ep]
*Year: 2020
*Genre: Symphonic Death Metal
*Country: Switzerland
*Format: mp3@CBR320kbps
*Size: 52MB

Tracklist:
1. Awakening of the Hellhound 04:41
2. One-Dimensional Sight 07:33
3. In the Name of God 04:16
4. Holy Downfall 04:35
******************************
Total playing time: 21:05





[more=Extended info]Rouven Neukomm Bass
Nicolas Käser Drums
Félicien Burkard Guitars, Vocals
Ai-lan Metzger Vocals

Female vocal[/more]

[more=Technical info]
Input File: Kerberos - The Awakening of the Hellhound - 02 One-Dimensional Sight.mp3
Channels : 2
Sample Rate : 44100
Precision : 16-bit
Duration : 00:07:33.09 = 19981357 samples = 33981.9 CDDA sectors
File Size : 18.3M
Bit Rate : 323k
Sample Encoding: MPEG audio (layer I, II or III)
Comments :
Title=One-Dimensional Sight
Artist=Kerberos
Album=The Awakening of the Hellhound
Tracknumber=2
Year=2020

[/more]

Register
(13) caro, Ice Gnoll, infiltrator, Lukittaz, Olethros, Reverend, Rosen, satanist666, sergsazan, TeamatSE, VALERY, zhol, Сварог Барг,
Oct 10 2020, 05:09:17 Supreme Unbeing - Enter Reality (2020)


*Artist: Supreme Unbeing
*Album: Enter Reality
*Year: 2020
*Genre: Progressive Heavy/Power Metal
*Country: Sweden
*Format: mp3@CBR320kbps
*Size: 124MB

Tracklist:
01. Enter Reality (Instrumental) 01:42
02. You'll Never Make It 04:32
03. Animals 05:11
04. Do It Again 04:00
05. The Sinner 04:01
06. Solution 05:23
07. I Can't Help You 04:52
08. Become 06:06
09. The Liar 03:26
10. Dreaming 05:01
11. Angel of the Dark 06:55
******************************
Total playing time: 51:09





[more=Technical info]
Input File: 02 - You\'ll Never Make It.mp3
Channels : 2
Sample Rate : 44100
Precision : 16-bit
Duration : 00:04:32.00 = 11995200 samples = 20400 CDDA sectors
File Size : 11.1M
Bit Rate : 327k
Sample Encoding: MPEG audio (layer I, II or III)
Comments :
Title=You'll Never Make It
Artist=Supreme Unbeing
Album=Enter Reality
Tracknumber=2
Year=2020-10-10
Discnumber=1

[/more]

Register
(13) ace73pq, boby9052, DenisKov, Herrant, infiltrator, infozahist, Marek, metala, Olethros, randumbum, Rosen, Rover, satanist666,
Oct 9 2020, 21:20:11 Q-Fonia - Outro (2020)
ЦИТАТА(isvili @ Oct 7 2020, 18:08:36) *
Больше на какой то progressive technical death/thrash metal похоже, но не на mdm.


Однозначно! И, что самое примечательное, мелодеза здесь вовсе нет!
(1) Metalass,
Oct 5 2020, 20:27:24 Breeding The Shadows - Breeding The Shadows (2020)


*Artist: Breeding The Shadows
*Album: Breeding The Shadows
*Year: 2020
*Genre: Post-Black Metal
*Country: Greece
*Format: mp3@CBR320kbps
*Size: 89MB

Tracklist:
01. Seizure
02. The Hunt
03. Eternal Silence
04. REM
05. Killing the Beloved
06. Breeder of Shadows
07. Awakening
******************************
Total playing time: 38:30




[more=Technical info]
Input File: 02. The Hunt.mp3
Channels : 2
Sample Rate : 44100
Precision : 16-bit
Duration : 00:03:39.31 = 9671571 samples = 16448.2 CDDA sectors
File Size : 8.89M
Bit Rate : 324k
Sample Encoding: MPEG audio (layer I, II or III)
Comments :
Title=The Hunt
Artist=Breeding The Shadows
Album=Breeding The Shadows
Tracknumber=2
Year=2020

[/more]

Register
(18) 1968_janeart, aleon, cast_iron, frituz3, infiltrator, kim666, Legacy100, Morgoth, Olethros, randumbum, robertho777, Rosen, Shadechaser, SilentNidhogg, VALERY, vasiljev_sergej, wreak, yuratroll,
Oct 5 2020, 12:25:43 Emperor Of Myself - All My Feelings Exposed (2020)


*Artist: Emperor Of Myself
*Album: All My Feelings Exposed
*Year: 2020
*Genre: Black/Gothic Metal
*Country: Greece
*Format: mp3@CBR320kbps
*Size: 78MB

Tracklist:
1. The Art Of Pain 03:50
2. Sunken Eyes 03:45
3. What I Could Not Forgive 05:04
4. Lost Inside 04:05
5. All My Feelings Exposed 03:50
6. Six Word Story 03:44
7. A Return To Emptiness 03:54
8. October 05:46
******************************
Total playing time: 33:58







[more=Technical info]
Input File: 02. Sunken Eyes.mp3
Channels : 2
Sample Rate : 44100
Precision : 16-bit
Duration : 00:03:45.92 = 9963028 samples = 16943.9 CDDA sectors
File Size : 9.12M
Bit Rate : 323k
Sample Encoding: MPEG audio (layer I, II or III)
Comments :
Title=Sunken Eyes
Artist=Emperor Of Myself
Album=All My Feelings Exposed
Tracknumber=2
Year=2020

[/more]

Register
(22) aleon, AlexSmith, caro, Cartman223, chipsgott, infiltrator, infozahist, kluval, Lukittaz, Morgoth, multizwilling, Olethros, randumbum, robertho777, Rosen, satanist666, sergsazan, Shadechaser, ssao2, VALERY, vasiljev_sergej, wreak,
Oct 5 2020, 11:33:34 Falce - Codex Chaos (2020)


*Artist: Falce
*Album: Codex Chaos
*Year: 2020
*Genre: Death/Thrash Metal
*Country: Italy
*Format: mp3@CBR320kbps
*Size: 64MB

Tracklist:
1. Breda M35 03:29
2. City of God 04:53
3. Homicide 04:16
4. Infestation 04:28
5. Oppressive Black 03:39
6. Sabbat Whisky & Cocaine 05:09
7. The Blackest Night 03:17
8. The Resurrection of Assur 03:28
******************************
Total playing time: 32:39




[more=Extended info]Au Drums
Under Guitars, Bass
See also: Tundra, Under, Varnas, Whiskey & Funeral, ex-Ebola, ex-My Darkest Side, Galera
Agonia Guitars, Vocals, Bass
See also: Agonia Black Vomit, Nailed God, Zedher's Coffin, ex-Zedher, Galera[/more]

[more=Technical info]
Input File: 02-falce-city_of_god.mp3
Channels : 2
Sample Rate : 44100
Precision : 16-bit
Duration : 00:04:16.00 = 11289600 samples = 19200 CDDA sectors
File Size : 8.83M
Bit Rate : 276k
Sample Encoding: MPEG audio (layer I, II or III)
Comments :
Title=City of God
Artist=Falce
Album=Codex Chaos
Tracknumber=2/8
Year=2020-00-00
Genre=Black Metal

[/more]

Register
(16) boby9052, cist, frituz3, infiltrator, infozahist, jollo, Lukittaz, metala, Olethros, Rosen, SadistikSlayer, sergsazan, stumpheavyrock, vyacheslav, wanderer73, wreak,
Oct 5 2020, 10:57:48 Kolobos - A Symphony Of Horror [ep] (2020)


*Artist: Kolobos
*Album: A Symphony Of Horror [ep]
*Year: 2020
*Genre: Brutal/Technical Death Metal
*Country: Indonesia
*Format: mp3@CBR320kbps
*Size: 40MB

Tracklist:
1. Senjata Makan Tuan 03:07
2. Nosferatu 02:56
3. Stigma 03:38
4. It 01:56
5. Vonis Mati 04:56
******************************
Total playing time: 16:33





[more=Extended info]Galink Vocals
Ricky Minan Guitars (2000-present)
Irwan Drums (2011-present)
Doriz Bass (2014-present)[/more]

[more=Technical info]
Input File: 02. Nosferatu.mp3
Channels : 2
Sample Rate : 44100
Precision : 16-bit
Duration : 00:02:56.21 = 7770773 samples = 13215.6 CDDA sectors
File Size : 7.24M
Bit Rate : 328k
Sample Encoding: MPEG audio (layer I, II or III)
Comments :
Title=Nosferatu
Artist=Kolobos
Album=A Symphony of Horror
Tracknumber=2
Year=2020
Discnumber=1

[/more]

Register
(10) chipsgott, cist, infiltrator, Lukittaz, Olethros, randumbum, Rosen, satanist666, vyacheslav, wreak,
Oct 5 2020, 10:37:26 Skyless Aeons - Drain The Sun (2020)


*Artist: Skyless Aeons
*Album: Drain The Sun
*Year: 2020
*Genre: Melodic Black/Death Metal
*Country: Canada
*Format: mp3@CBR320kbps
*Size: 104MB

Tracklist:
1. Ascension Towards Nothing 06:30
2. A Consciousness Decays 07:10
3. Go Forth and Multiply 03:19
4. The Age of Regression 07:33
5. Dimensional Entrapment 06:31
6. Path of Desolation 06:16
7. Drain the Sun 08:05
******************************
Total playing time: 45:24




[more=Extended info]Martin Burchill Drums (2013-present)
Nicholas Luck Guitars, Vocals (2013-present)
See also: Æpoch
Nathan Ferreira Vocals (2013-present)
See also: Cryopathy, Hell Is Other People, The Outer RIM
Steve Oliva Bass (2015-present)[/more]

[more=Technical info]
Input File: 02 - A Consciousness Decays.mp3
Channels : 2
Sample Rate : 44100
Precision : 16-bit
Duration : 00:07:10.34 = 18977906 samples = 32275.4 CDDA sectors
File Size : 17.3M
Bit Rate : 322k
Sample Encoding: MPEG audio (layer I, II or III)
Comments :
Title=A Consciousness Decays
Artist=Skyless Aeons
Album=Drain the Sun
Tracknumber=2
Year=2020

[/more]

Register
(24) BugEyes, cist, DenisKov, frituz3, infiltrator, infozahist, legion01, Lukittaz, metala, nsk2008, Olethros, Ostinato, randumbum, Rosen, satanist666, sergsazan, Shadechaser, TeamatSE, terron, VALERY, vasiljev_sergej, wreak, zhol, Сварог Барг,
Sep 29 2020, 20:41:19 Wintaar - There Is No God In War (2020)


*Artist: Wintaar
*Album: There Is No God In War
*Year: 2020
*Genre: Atmospheric Black Metal
*Country: Russian Federation
*Format: mp3@CBR320kbps
*Size: 108MB

Tracklist:
1. World Without End 07:06
2. There Is No God in War 08:18
3. The Vultures 05:38
4. Depth of the Grave 08:30
5. Last Gallows 06:48
6. Dawn over the Volga 09:53
******************************
Total playing time: 46:13





[more=Extended info]WV Everything (2017-present)
See also: Dodmorke, Eres Nod, Howl, Rooforest, Theoroth, Time Heals Nothing, Vhaatreim, ex-Spirit of Night, ex-Wampyric Bloodlust, ex-W, ex-Зимний Дракон, Unguth Vaentron
E.J.C. Drums (2020-present)
See also: Eres Nod
Namiros Guitars (2020-present)
See also: Octomber, Sibentodt, On a Ledge[/more]

[more=Technical info]
Input File: 02 - There Is No God in War.mp3
Channels : 2
Sample Rate : 44100
Precision : 16-bit
Duration : 00:08:18.00 = 21961800 samples = 37350 CDDA sectors
File Size : 20.1M
Bit Rate : 323k
Sample Encoding: MPEG audio (layer I, II or III)
Comments :
Title=There Is No God in War
Artist=Wintaar
Album=There Is No God in War
Tracknumber=2
Year=2020-24-09
Genre=GetMetal.club
Discnumber=1

[/more]

Register
(22) 1968_janeart, AlexSmith, alikkon, blacky66, fallen, frituz3, infiltrator, kim666, metala, multizwilling, Olethros, Ostinato, randumbum, robertho777, Rosen, Shadechaser, SilentNidhogg, Surt, VALERY, vasiljev_sergej, Wail, wreak,
Sep 29 2020, 19:49:33 Scarring - Hark, An Apparition (2020)


*Artist: Scarring
*Album: Hark, An Apparition
*Year: 2020
*Genre: Black Metal
*Country: Australia
*Format: mp3@CBR320kbps
*Size: 60MB

Tracklist:
1. Equilibrium 03:30
2. A Dark Night of the Soul 04:34
3. First Light 03:48
4. Capricorn 04:28
5. Singing Wilderness 03:47
6. Evocation 03:42
7. A Sense of God 03:00
******************************
Total playing time: 26:49



[more=Technical info]
Input File: 02 A Dark Night Of The Soul.mp3
Channels : 2
Sample Rate : 44100
Precision : 16-bit
Duration : 00:04:34.62 = 12110610 samples = 20596.3 CDDA sectors
File Size : 11.1M
Bit Rate : 325k
Sample Encoding: MPEG audio (layer I, II or III)
Comments :
Title=A Dark Night Of The Soul
Artist=Scarring
Album=Hark, An Apparition
Tracknumber=2
Year=2020

[/more]

Register
(10) AlexSmith, Bzth, frituz3, infiltrator, kim666, Olethros, Rosen, stub888, vasiljev_sergej, Vitald,
Sep 29 2020, 15:36:22 Ulvens - Forgotten Wisdom (2020)


*Artist: Ulvens
*Album: Forgotten Wisdom
*Year: 2020
*Genre: Atmospheric Black Metal/Ambient/Instrumental
*Country: Brazil
*Format: mp3@CBR320kbps
*Size: 101MB

Tracklist:
01. When the Night Falls 01:29
02. Manifestation of the Essence 06:36
03. Into the Void of Forest 06:10
04. Fathers and Mothers from Ancient Times 08:23
05. Towards the Stars Unsen (Ascension) 05:55
06. Spectral Sphere 09:40
07. Astral Luminous 04:50
******************************
Total playing time: 43:03




[more=Technical info]
Input File: 02 - Manifestation of the Essence.mp3
Channels : 2
Sample Rate : 44100
Precision : 16-bit
Duration : 00:06:36.00 = 17463600 samples = 29700 CDDA sectors
File Size : 16.1M
Bit Rate : 324k
Sample Encoding: MPEG audio (layer I, II or III)
Comments :
Title=Manifestation of the Essence
Artist=Ulvens
Album=Forgotten Wisdom
Tracknumber=2
Year=2020-10-06
Genre=GetMetal.club
Discnumber=1

[/more]

Register
(12) AlexSmith, blacky66, caro, infiltrator, kim666, Lukittaz, Olethros, randumbum, Rosen, SilentNidhogg, vasiljev_sergej, wreak,
Sep 29 2020, 08:50:13 Chasing The Rise - Ephemeral (2020)


*Artist: Chasing The Rise
*Album: Ephemeral
*Year: 2020
*Genre: Melodic Death Metal/Metalcore
*Country: Lithuania
*Format: mp3@CBR320kbps
*Size: 104MB

Tracklist:
01. Acedia 05:05
02. Wanderers 05:17
03. Billions of Lighthouses Stuck at the Far End of the Sky 05:30
04. Detachment 05:10
05. As for Us 04:10
06. Ephemeral God 04:18
07. A Thousand Miles 04:54
08. What the Lights in Each of Their Hands Illuminate 05:16
09. A Memory Without a Name (Acoustic) (Acoustic) 03:30
10. Reprise 01:21
******************************
Total playing time: 44:31







[more=Extended info]Remigijus Juškėnas Guitars (2012-present)
Edgaras Kolomiecas Guitars (2012-present)
Vytis Gontis Vocals (2012-present)
Andrej Chatkevič Bass (2015-present)
Tomas Urbanavičius Drums (2016-present)[/more]

[more=Technical info]
Input File: 02 - Wanderers.mp3
Channels : 2
Sample Rate : 44100
Precision : 16-bit
Duration : 00:05:17.00 = 13979700 samples = 23775 CDDA sectors
File Size : 12.9M
Bit Rate : 325k
Sample Encoding: MPEG audio (layer I, II or III)
Comments :
Title=Wanderers
Artist=Chasing the Rise
Album=Ephemeral
Tracknumber=2
Year=2020-29-09
Genre=GetMetal.club
Discnumber=1

[/more]

Register
(9) infiltrator, infozahist, Lukittaz, Olethros, randumbum, Rosen, VALERY, wreak, zhol,
Sep 29 2020, 07:48:01 In My Silence - A World Gone Quiet (2020)


*Artist: In My Silence
*Album: A World Gone Quiet
*Year: 2020
*Genre: Melodic Metalcore
*Country: United States
*Format: mp3@CBR320kbps
*Size: 120MB

Tracklist:
01. Wayfinder
02. How Low
03. Erasure
04. Death Walks
05. The Endless Divide
06. In the Passing Light
07. Shadow Dweller
08. Mutiny of a Madman
09. Echoes in the Ruins
10. Sole Survivor
11. Immolate
12. Fallen Star
13. A World Gone Quiet
******************************
Total playing time: 52:05






[more=Technical info]
Input File: 02 - How Low.mp3
Channels : 2
Sample Rate : 44100
Precision : 16-bit
Duration : 00:03:23.09 = 8956137 samples = 15231.5 CDDA sectors
File Size : 8.18M
Bit Rate : 322k
Sample Encoding: MPEG audio (layer I, II or III)
Comments :
Title=How Low
Artist=In My Silence
Album=A World Gone Quiet
Tracknumber=02
Year=2020
Genre=Progressive Metalcore

[/more]

Register
(12) Barlak, caro, chipsgott, infiltrator, infozahist, Lukittaz, Olethros, randumbum, Rosen, VALERY, wreak, zhol,
Sep 29 2020, 07:34:08 Symphia - Anteludium [ep] (2020)


*Artist: Symphia
*Album: Anteludium [ep]
*Year: 2020
*Genre: Symphonic Metal/Female Vocal
*Country: Spain
*Format: mp3@CBR320kbps
*Size: 75MB

Tracklist:
01. Living Like a Wolf 05:07
02. Eternal Flame 05:09
03. Kingdom of Souls 05:00
04. The Light Shines in the Darkness 06:45
05. Firebird 04:37
06. Night is Coming 05:49
******************************
Total playing time: 32:27







[more=Technical info]
Input File: 02 - Eternal Flame.mp3
Channels : 2
Sample Rate : 44100
Precision : 16-bit
Duration : 00:05:08.00 = 13582800 samples = 23100 CDDA sectors
File Size : 12.5M
Bit Rate : 324k
Sample Encoding: MPEG audio (layer I, II or III)
Comments :
Title=Eternal Flame
Artist=Symphia
Album=Anteludium
Tracknumber=2/6
Year=2020
Discnumber=1/1

[/more]

Register
(2) after21allD, AHBAnep,
Sep 28 2020, 19:14:29 Sodom - Sodom & Gomorrah [single] (2020)


*Artist: Sodom
*Album: Sodom & Gomorrah [single]
*Year: 2020
*Genre: Thrash Metal
*Country: Germany
*Format: mp3@CBR320kbps
*Size: 9MB

Tracklist:
1. Sodom & Gomorrah 04:06
******************************
Total playing time: 4:06





[more=Extended info]Tom Angelripper Bass (1982-present), Vocals (1984-present)
See also: Onkel Tom Angelripper, ex-Dezperadoz, ex-Die Knappen, ex-Bassinvaders
Frank Blackfire Guitars (1987-1989, 2018-present)
See also: Assassin, Frank Blackfire, ex-Mystic, ex-Kreator, ex-Wortmord, ex-Widia
Yorck Segatz Guitars (2018-present)
See also: Neck Cemetery, ex-Beyondition
Toni Merkel Drums (2020-present)
See also: Big End Bolt, Frank Blackfire, Interstellar Genocide, Sabiendas, ex-Pestlegion, ex-Negator (live), ex-Pighead (live)[/more]

[more=Technical info]
Input File: 01 sodom_sodom_and_gomorrah.mp3
Channels : 2
Sample Rate : 44100
Precision : 16-bit
Duration : 00:00:00.25 = 10849 samples = 18.4507 CDDA sectors
File Size : 9.96M
Bit Rate : 324M
Sample Encoding: MPEG audio (layer I, II or III)
Comments :
Title=Sodom & Gomorrah
Artist=Sodom
Album=Sodom & Gomorrah
Tracknumber=1
Year=2020
Genre=Thrash Metal
Discnumber=1

[/more]

Register
(31) andreikun, Aresson, Asketto, caro, cesar, chipsgott, deatholocaust, gwar, Hell_Is_Here, infiltrator, kessler, Lanceatum, Lyrch, martintrue, multizwilling, NathanSS, Occultas, Olethros, postal67, recber, Rosen, Samogon, SAPOGi, sergsazan, stone88, tOmV, Utugg, victorinox, Wail, wanderer73, wreak,
Sep 28 2020, 06:29:34 Among Your Gods - Shards Of Yourself [ep] (2020)


*Artist: Among Your Gods
*Album: Shards Of Yourself [ep]
*Year: 2020
*Genre: Melodic Death Metal
*Country: Belarus
*Format: flac
*Size: 100MB

Tracklist:
1. Shards of Yourself 04:14
2. The Fugitive 04:03
3. Rise Up (Russian version) 04:18
******************************
Total playing time: 12:35





[more=Extended info]Pavel Dyatko Guitars
See also: Aillion
Alexander Prokofyev Drums (2014-present)
See also: Aillion, ex-Terragon, ex-Sweet Blood
Sergey Ruzikov Guitars (2014-present)
Alina Pochebyt Vocals (2017-present)
Konstantin Nikolayevitch Bass (2018-present)[/more]

Register
(8) cesar, Femto, Olethros, Rosen, sergsazan, wanderer73, wreak, Сварог Барг,
Sep 27 2020, 16:16:55 Children Of God - Funeral Of Hope (2020)


*Artist: Children Of God
*Album: Funeral Of Hope
*Year: 2020
*Genre: Gothic/Doom Metal
*Country: Slovenia
*Format: mp3@CBR320kbps
*Size: 164MB

Tracklist:
1. Intro - Lost Shores 01:41
2. The Ritual 07:58
3. Come to the Sabbath 09:29
4. When Drugs Don't Work 06:25
5. Angelfuck (Misfits cover) 03:53
6. Black Birthday - Weltschmerz 07:02
7. The Fall of Man 06:51
8. Crawling Desire 08:29
9. Intro - Mourning Hymn 05:56
10. The Longing 06:54
11. Funeral of Hope 07:13
******************************
Total playing time: 1:11:51




[more=Technical info]
Input File: 02. The Ritual.mp3
Channels : 2
Sample Rate : 44100
Precision : 16-bit
Duration : 00:07:58.72 = 21111684 samples = 35904.2 CDDA sectors
File Size : 19.2M
Bit Rate : 320k
Sample Encoding: MPEG audio (layer I, II or III)
Comments :
Title=The Ritual
Artist=Children Of God
Album=Funeral Of Hope
Tracknumber=2
Year=2020
Genre=Gothic/Doom

[/more]

Register
(18) Cartman223, chipsgott, fallen, infiltrator, infozahist, metala, Morgoth, Olethros, randumbum, Rosen, Sanctus, Satyr, sergsazan, Shadechaser, umnaxtet, Un4given, VALERY, wreak,
Sep 23 2020, 06:37:55 Nightwölf - Unleash The Beast [ep] (2020)


*Artist: Nightwölf
*Album: Unleash The Beast [ep]
*Year: 2020
*Genre: Heavy Metal
*Country: Brazil
*Format: mp3@CBR320kbps
*Size: 61MB

Tracklist:
1. Lunam et Sanguis 01:19 instrumental
2. Unleash the Beast 05:03
3. Shadowmaker 04:32
4. Perpetual Crime 04:21
5. Halls of Hell 05:09
6. Holy Machine 05:17
******************************
Total playing time: 25:41







[more=Extended info]Guilherme de Almeida Bass
João Videira Drums
Adan Hessen Guitars
Rafael Roan Guitars
Jack Znake Vocals

Отличный олд скульный хеви!!![/more]

[more=Technical info]
Input File: 02 Unleash the Beast.mp3
Channels : 2
Sample Rate : 44100
Precision : 16-bit
Duration : 00:05:03.09 = 13366225 samples = 22731.7 CDDA sectors
File Size : 12.6M
Bit Rate : 332k
Sample Encoding: MPEG audio (layer I, II or III)
Comments :
Title=Unleash the Beast
Artist=Nightwolf
Album=Unleash the Beast
Tracknumber=2/6
Year=2020
Genre=Alternative
Discnumber=1/1

[/more]

Register
(18) after21allD, BugEyes, caro, Darkness, frituz3, gwar, infiltrator, Lukittaz, Marek, Mogozoz, Morgoth, Olethros, Reverend, Rosen, Rover, Wail, wreak, Сварог Барг,
Sep 23 2020, 05:37:22 Sammas' Equinox - Tulikehrät (2020)


*Artist: Sammas' Equinox
*Album: Tulikehrät
*Year: 2020
*Genre: Black Metal
*Country: Finland
*Format: mp3@CBR320kbps
*Size: 76MB

Tracklist:
1. Fire 05:51
2. The Staunching 02:55
3. Northern Gate of the Sun 07:37
4. Carved in Stone 05:13
5. Mustat vedet 05:36
6. High Seat of the Pain Mountain 05:17
******************************
Total playing time: 32:29





[more=Extended info]Adar Drums, Electronics
See also: Blood Red Fog, John the Baptist, Lordamor, Teloch, Nécropole (live), ex-Vearmraev, ex-Funerary Bell
Sùrya-Ishtara Guitars
See also: Blood Red Fog, Lordamor, Pantheon of Blood, Utgard, Nécropole (live), Nephilim's Howl (live), ex-Demonitar, ex-Charnel Winds, ex-Saturnian Mist, ex-Verge, ex-The Lust I Seek
Voidraugr Vocals, Bass[/more]

[more=Technical info]
Input File: 02 - The Staunching.mp3
Channels : 2
Sample Rate : 44100
Precision : 16-bit
Duration : 00:02:54.64 = 7701668 samples = 13098.1 CDDA sectors
File Size : 7.41M
Bit Rate : 339k
Sample Encoding: MPEG audio (layer I, II or III)
Comments :
Title=The Staunching
Artist=Sammas' Equinox
Album=Tulikehrät
Tracknumber=2
Year=2020
Genre=GetMetal.CLUB

[/more]

Register
(26) 1968_janeart, acerbus, andivi, caro, El_Chibo, Evilded, frituz3, infiltrator, kim666, Lamby90, legion01, Morgoth, multizwilling, Oath19, Olethros, Ostinato, randumbum, rimfrost, robertho777, Rosen, SilentNidhogg, stub888, VALERY, vasiljev_sergej, Vidyadharov, wreak,
Sep 21 2020, 18:47:05 Rupskallex - Resistance (2020)
Очень катирую коллективы с Туманного Альбиона, но здесь оооочень плохое исключение из правил. Честно говоря, xy@ня редкостная.
(1) Metalass,

183 Pages V   1 2 3 > » 
- Lo-Fi Version Support form
Copyrights and abuse reports form
Time is now: 22nd October 2020 - 12:21:29