Welcome Guest ( Log In | Register )

История благодарностей участнику Andrew ::: Спасибо сказали: 14038 раз(а)
Дата поста: В теме: За сообщение: Спасибо сказали:
Jan 4 2019, 22:28:51 Nachthafen - Todellisuuden Tuolla Puolen (2018)
Register
(2) Mogozoz, Razorbladeswaltz,
Jan 4 2019, 11:27:06 Warpath - Ashes Of Better Days (2018)
(1) AHBAnep,
Jan 3 2019, 18:09:22 лучшие Death Metal альбомы 2018
Ну так, пора голосовалку организовывать!
(2) avather, nunim,
Jan 3 2019, 18:05:20 Iced Earth - Something Wicked This Way Comes (1998)
320, 140 Mb:

Register

(1) Aresson,
Jan 3 2019, 17:51:12 Hobos - Nell'era Dell'apparenza (2019)
(1) artscald,
Jan 1 2019, 21:16:02 Hollow - Cynoptic Eschaton [ep] (2010)
256, 43Mb:

Register


(5) Aresson, Diflock, fateefffddd, nunim, Ostinato,
Jan 1 2019, 21:15:49 All-Devouring Light - Descent Into Hadal [ep] (2011) (3) Aresson, kim666, Ostinato,
Jan 1 2019, 12:44:11 Soilwork - A Predator's Portrait (2001)
После ознакомления с новым опусом - данный сабж катирую еще больше!
Потрясающе классный альбом!

320, 113Mb:
Register
(1) Aresson,
Dec 30 2018, 22:05:46 Obscenity - Summoning The Circle (2018)
Добротная и мощнецко-бронебойная дезяра c присуще немецким знаком качества!
(1) quicksand,
Dec 29 2018, 21:21:52 Outlaw - Marauders (2018)
ЦИТАТА(cesar @ Dec 29 2018, 23:10:31) *
Первая ассоциация - Мановар.

А мне Майден образца 1980-81г.г.
Register
(2) Boozer, forgersky,
Dec 29 2018, 21:16:50 Soilwork - Verkligheten (2019)
ЦИТАТА(Dreamtale @ Dec 29 2018, 10:28:02) *
В плеере до сих лежит Figure Number Five – вот он был интересный

Полностью согласен. Лично для меня, после этого альбома полностью потерян интерес к группе.
Natural Born Chaos & A Predator's Portrait - лично для меня 2 прекрасных альбома, которые время от времени переслушиваю с большим удовольствием. А дальше уже пошла совершенно другая направленность. 6.gif
(1) avather,
Dec 26 2018, 18:25:59 Fractal Gates - The Light That Shines (2018)
320, 102Mb:
Register

(2) Aresson, Ingvar,
Dec 26 2018, 18:20:39 Fragments Of Unbecoming - Perdition Portal (2018)
ЦИТАТА(Storky @ Sep 14 2018, 19:10:53) *
Хороший мдм

dooo.gif
320, 103Mb:
Register
(1) Aresson,
Dec 26 2018, 18:17:07 Inexorum - Lore Of The Lakes (2018)
Зачетный альбом, слушается легко и приятно!

320, 76Mb:
Register
(1) Aresson,
Dec 26 2018, 18:11:29 Lucis Absentia - Gehenna Gate (2018)
Прекрасная работа.

320, 169 Mb:
Register
Register
[/hide]
(2) Aresson, скептик,
Dec 26 2018, 18:05:59 Symmetry Of The Void - Symmetry Of The Void (2018)
Отменный и качественный МДМ, с претензией на лучший альбом в данном жанре в 2018 году, как по мне.

320, 64Mb:
Register
(1) Aresson,
Dec 26 2018, 18:00:12 Wintriness - From Light To Absolute Darkness (2018)
Жаль лучшего качества пока нет, но альбус достойный внимания!

128, 38Mb:
Register

(2) Aresson, fateefffddd,
Dec 26 2018, 17:55:54 The Blessing Way - From Empty Plates We Dine (2018)
ЦИТАТА(kakha_k @ Mar 7 2018, 00:50:19) *
Да, но слышали такое уже неимоверно много раз.

Согласен, но альбом очень приятный!

320, 91Mb:
Register
(1) Aresson,
Dec 26 2018, 17:47:06 The Last Judgement - Collection [compilation] (2018)
ЦИТАТА(andris @ Mar 16 2018, 22:44:00) *
Кстати довольно шикарно pray.gif headcrab.png ! Отсутствие вокала для меня оказалось плюсом!!!

Очень достойная работа. И, отсутствие вокала скорее действительно плюс!

320, 74 Mb:
Register
(1) Aresson,
Dec 26 2018, 17:41:02 Tyrmfar - Human Abomination (2017)
ЦИТАТА(sadmannn @ Aug 18 2018, 00:11:39) *
Отличнейший релиз! Работа на 10 из 10!

Однозначно!
320, 112 Mb:

Register

(2) AHBAnep, Aresson,
Dec 24 2018, 20:04:26 Suicidal Ride - Invisible Man [ep] (2018)


*Artist: Suicidal Ride
*Album: Invisible Man [ep]
*Year: 2018
*Genre: Heavy Metal
*Country: Finland
*Format: mp3@CBR320kbps
*Size: 56MB

Tracklist:
1. Intro 01:39 instrumental
2. Invisible Man 03:54
3. No Smoke Without Fire 05:11
4. Bite Me 03:00
5. Death of Heroes 03:45
6. Last Ride 06:24
******************************
Total playing time: 23:53





[more=Technical info]
Input File: 02_suicidal_ride_invisible_man.mp3
Channels : 2
Sample Rate : 44100
Precision : 16-bit
Duration : 00:00:00.23 = 10319 samples = 17.5493 CDDA sectors
File Size : 9.69M
Bit Rate : 331M
Sample Encoding: MPEG audio (layer I, II or III)
Comments :
Title=Invisible Man
Artist=Suicidal Ride
Album=Invisible Man
Tracknumber=2/6
Year=2018
Genre=Metal
Discnumber=1/1

[/more]

Register
(8) csgmnk, marilin, Mogozoz, Olethros, Rosen, Rover, sergsazan, wgs73,
Dec 23 2018, 12:59:29 Hermandad De Infiernos - Descensión (2017)
- All 7 tracks
(1) AHBAnep,
Dec 22 2018, 21:39:44 Scarlet Moon - From The Vastelands Of Eastern Europe (2014)
ЦИТАТА(Svafrlami @ Dec 22 2018, 13:35:00) *
*Genre: Symphonic Black Metal

Во-первых - инструментал.
А во-вторых - чистой воды симфо, блэка вооообще нет.
(2) Kwaad, Ostinato,
Dec 22 2018, 17:43:36 Arch Enemy - Reason To Believe [single] (2018)
Мда...в новом треке мелодеза хрен целых и столько же десятых.
Группа уже окончательно скатилась в какой-то хеви - от мелодеза осталось одно лишь упоминание...
(1) Foneg,
Dec 21 2018, 17:35:30 Azking - Ohse [ep] (2018)
На данном релизе я окончательно осознал, почему мне не по душе японский МДМ: что в куплете, что в припеве доминируют примитивные соло поливалочки, вместо четких и жестких риффов. Вся эта "уж слишком обильная приторно-сахарная соло доминация" характеризует скорее всего сабж как хеви с харшевым вокалом, нежели мелодез...
(2) avather, Ostinato,

124 Pages V  < 1 2 3 4 > » 
- Lo-Fi Version Support form
Copyrights and abuse reports form
Time is now: 20th January 2019 - 10:19:29