Welcome Guest ( Log In | Register )

История благодарностей участнику Andrew ::: Спасибо сказали: 12951 раз(а)
Дата поста: В теме: За сообщение: Спасибо сказали:
Jun 6 2018, 13:58:53 Kaatarakt - Echoes Of The Past [ep] (2018)
Register
(3) Fess, SymbyoticEntity, system36,
Jun 3 2018, 22:01:48 Хуковые песни - 2018
Fractal Gates - Breath of Life

(1) Lucifer,
Jun 3 2018, 21:43:00 Хуковые песни - 2018
Commander - Fatalis (The Unbroken Circle) Отменная дезяра с привкусом мелодеза

(1) Lucifer,
Jun 2 2018, 13:07:46 Lipz - Scaryman (2018)
[youtube]watch?v=ekCg6bOul6U&list=RDekCg6bOul6U&t=25[/youtube]

ЦИТАТА(avkruchinin @ Jun 2 2018, 12:04:09) *
Дебютник?

Да, первый полноформатник.
До него было 3 сингла и одна Епишка.
(1) avkruchinin,
Jun 2 2018, 12:54:06 Robin Beck - Trouble Or Nothin' (1989)


*Artist: Robin Beck
*Album: Trouble Or Nothin'
*Year: 1989
*Genre: Rock
*Country: United States
*Format: mp3@CBR320kbps
*Size: 91MB

Tracklist:
01. Hide Your Heart 4:03
02. Don't Lose Any Sleep 4:06
03. If You Were A Woman (And I Was A Man) 4:03
04. Hold Back The Night 3:37
05. Save Up All Your Tears 4:05
06. In A Crazy World Like This 3:56
07. Tears In The Rain 4:41
08. A Heart For You 4:11
09. Sleeping With The Enemy 3:35
10. First Time 3:18
******************************
Total playing time: 39:35

[more=Extended info]Шикарный Альбом! Хит На Хите!

[youtube]watch?v=9jQC3ZH0Z0Q&list=RD9jQC3ZH0Z0Q&t=36[/youtube]
[youtube]watch?v=Bh6-L98l6eE&list=RDBh6-L98l6eE&t=11[/youtube]
[youtube]watch?v=amnDg7_3n6Q&list=RDamnDg7_3n6Q&t=3[/youtube]
[youtube]watch?v=elvwc3dEyJ8&list=RDelvwc3dEyJ8&t=3[/youtube][/more]

[more=Technical info]
Input File: 01_robin_beck_hide_your_heart.mp3
Channels : 2
Sample Rate : 44100
Precision : 16-bit
Duration : 00:04:05.32 = 10818568 samples = 18398.9 CDDA sectors
File Size : 9.81M
Bit Rate : 320k
Sample Encoding: MPEG audio (layer I, II or III)
Comments :
Title=Hide Your Heart
Artist=Robin Beck
Album=Trouble Or Nothin'
Tracknumber=1
Year=1989
Genre=17

[/more]

Register
(3) avkruchinin, gwar, v.v.m,
Jun 2 2018, 08:55:04 Lipz - Scaryman (2018)
Register
(1) avkruchinin,
Jun 2 2018, 08:49:04 Crazy Lixx - Crazy Lixx (2014)


*Artist: Crazy Lixx
*Album: Crazy Lixx
*Year: 2014
*Genre: Glam/Heavy Metal/Hard Rock
*Country: Sweden
*Format: mp3@CBR320kbps
*Size: 118MB

Tracklist:
01. Hell Raising Women
02. Sound Of The Loud Minority
03. Outlaw
04. Girl's Of The 80's
05. I Missed The Mark
06. All Looks, No Hooks
07. Ain't No Rest In Rock N' Roll
08. Call To Action
09. Heroes Are Forever
10. Psycho City
11. Wrecking Ball Crew
12. Bad Luck (Japanese Bonus Track)
******************************
Total playing time: 51:37

[more=Extended info][youtube]watch?v=1k2PT_lFWoQ&list=RD1k2PT_lFWoQ&t=10[/youtube]
[youtube]watch?v=xyLantEtsJw&list=RDxyLantEtsJw&t=10[/youtube]
[youtube]watch?v=djkoHA84r4k&list=RDdjkoHA84r4k&t=9[/youtube]
w[youtube]atch?v=dISRCtZhdus&list=RDdISRCtZhdus&t=6[/youtube][/more]

[more=Technical info]
Input File: 04_crazy_lixx_girls_of_the_80s.mp3
Channels : 2
Sample Rate : 44100
Precision : 16-bit
Duration : 00:04:33.43 = 12058087 samples = 20507 CDDA sectors
File Size : 11.0M
Bit Rate : 321k
Sample Encoding: MPEG audio (layer I, II or III)
Comments :
Title=Girls Of The 80's
Artist=Crazy Lixx
Album=Crazy Lixx
Tracknumber=4
Year=2014
Genre=Pop Metal
Discnumber=1/1

[/more]

Register
(3) avkruchinin, infiltrator, Rosen,
Jun 1 2018, 20:42:20 Lipz - Scaryman (2018)


*Artist: Lipz
*Album: Scaryman
*Year: 2018
*Genre: Glam/Heavy Metal/Hard Rock
*Country: Sweden
*Format: mp3@CBR320kbps
*Size: 83MB

Tracklist:
01. The Awakening
02. Scaryman
03. Star
04. Get up on the Stage
05. Fight
06. Get It On
07. Falling Away
08. Tick Tock
09. Trouble in Paradise
10. Everytime I Close My Eyes (Acoustic) [Bonus Track]
******************************
Total playing time: 38:30




[more=Extended info]Неплохо. Олд скульная подача глэма а-ля Motley Crue.[/more]

[more=Technical info]
Input File: 02. Scaryman.mp3
Channels : 2
Sample Rate : 44100
Precision : 16-bit
Duration : 00:02:59.19 = 7902279 samples = 13439.2 CDDA sectors
File Size : 7.25M
Bit Rate : 324k
Sample Encoding: MPEG audio (layer I, II or III)
Comments :
Title=Scaryman
Artist=Lipz
Album=Scaryman
Tracknumber=02
Year=2018
Genre=Р РѕРє
Discnumber=1

[/more]

Register
(5) avkruchinin, infiltrator, metala, Rosen, vir2al,
Jun 1 2018, 19:57:44 Decayed - Of Fire And Evil (2018)
Register
(2) nadin85, Oldskulthrasher,
Jun 1 2018, 15:13:03 Elemental Device - Post Incendium (2018)
Register


https://www.youtube.com/watch?v=rA6o8m8gr78 Full Album
https://www.youtube.com/watch?v=TT4klzo2aiw Elemental Device - Life is a Carnival of Pain
(5) AHBAnep, DenisKov, fateefffddd, kimkayoung, SymbyoticEntity,
Jun 1 2018, 06:37:33 Kataklysm - Meditations (2018)
К большому сожалению, но некогда толковая и интересная команда скатилась в бездну...
И да, по стилю то не мелодез ни разу!!!
(1) fateefffddd,
May 31 2018, 10:50:18 Хук 2017
Kreator - Lion with Eagle Wings
(1) randyhermit,
May 30 2018, 18:22:55 лучшие Death Metal альбомы 2018
Gruesome - Twisted Prayers (2018)

Шулдинер воршип, но альбом отменным вышел! metaler.gif
(1) Thrashman,
May 30 2018, 18:19:09 Gruesome - Twisted Prayers (2018)
Хорошая дезяра. Хоть и плагиат чувствуется с первых же минут...но ведь добротно ж ведь все сделано!
(2) neoatheist, RUSP73,
May 28 2018, 14:25:16 Epiphany From The Abyss - Epiphany From The Abyss (2018)
Register
(2) Korpse, VALERY,
May 27 2018, 16:44:36 Cantabile Wind - Deliverance (2014)
ЦИТАТА(krotovich @ May 27 2018, 18:39:43) *
Извини что не в личку мега от demenn рабочая

Да ничего. Зато на облако ссылку добавил.
(2) Badmutherfucker, krotovich,
May 26 2018, 19:28:13 Cantabile Wind - Deliverance (2014)
Решил обновить ссылки. Очень добротный альбус. Не слышал его пару лет - сижу слушаю и заходит еще больше, нежели 4 года назад!

320, 88 Mb:

Register




[youtube]watch?v=9C3YhOqJEos&list=RD9C3YhOqJEos&t=8[/youtube]

[youtube]watch?v=yKH2ao59QxQ&list=RDyKH2ao59QxQ&t=6[/youtube]

[youtube]watch?v=qQIolPpS6Cw&list=RDqQIolPpS6Cw&t=8[/youtube]



(4) Diflock, krotovich, Ostinato, Thrashman,
May 26 2018, 16:59:49 Bleeding Through - Love Will Kill All (2018)
Register
(2) 6666666, deadxramones,
May 26 2018, 16:34:09 Fear Bound - Seize The Day (2018)
Register
(1) fateefffddd,
May 26 2018, 16:32:57 Abhor - Occulta Religio (2018)
Register
(1) fuoco,
May 26 2018, 16:29:38 The Gallows Instance - Black Mass (2018)
Register
(2) kimkayoung, satanist666,
May 26 2018, 16:22:29 Witch Mountain - Witch Mountain (2018)
Register
(1) marilin,
May 25 2018, 21:12:10 Infrared - Saviours (2018)
(1) Diflock,
May 25 2018, 17:06:05 Black Pestilence - Urban Hell Rhythmics (2018)
Register
(1) vasiljev_sergej,
May 25 2018, 17:04:42 Defiant - Insurrection Icon (2018)
Register
(1) nsk2008,

110 Pages V  < 1 2 3 4 > » 
- Lo-Fi Version Support form
Copyrights and abuse reports form
Time is now: 18th June 2018 - 18:06:32