Welcome Guest ( Log In | Register )

История благодарностей участнику Andrew ::: Спасибо сказали: 13228 раз(а)
Дата поста: В теме: За сообщение: Спасибо сказали:
Jul 16 2018, 14:30:46 Лучшие Thrash Metal альбомы 2018
Toxik Shokk - Story Of Our Life (2018)
Сыграно вообще супер! Вокал чутарик слабоват, а так очень неплохо!
(3) Diflock, Genuine Thrashiac, Samaritianin,
Jul 16 2018, 14:28:22 Toxik Shokk - Story Of Our Life (2018)
Хорош трешак! Без откровений, но ровный добротный сабж.
(2) metalboll, Samaritianin,
Jul 14 2018, 19:53:44 Nastik - Gnostic (2018)
Очень неплохо, мощно и драйвово! metaler.gif
(1) Samaritianin,
Jul 13 2018, 21:13:55 Aeon Of Disease - Veil Of Oblivion (2017)
...Давно хотел написать отзыв, но что-то как-то руки не доходили.
Короче говоря, меня альбом порадовал, хотя поначалу мне показался слегка нудноватым. Но потом расслушал. Сабж на стыке деза и мелодеза, среднетемповый, качевый, но, вместе с тем слушается легко и приятно.
Ну и конечно, что радует: отсутствие модернятины, чистого вокала.
2 и 5 треки с альбома однозначно выделяются! 20.gif

Register
(5) Aresson, avather, Badmutherfucker, fateefffddd, Thrashman,
Jul 13 2018, 21:04:27 Blodshämnd - Premature Obituary (2017)
...Месяц наслаждаюсь альбомом и с каждым прослушиванием заходит все больше и больше!!! Отличный материал.
(1) Samaritianin,
Jul 13 2018, 20:43:30 Morbid Sin - Where's Your Fucking God? (2018)

А сыграно то очень прилично!
(2) Genuine Thrashiac, Samaritianin,
Jul 11 2018, 16:53:14 Maltese Falcon - Metal Rush (1984)
Хоть запись и глуховата, но бас гитаре отведены самые главенствующие позиции! Уж бас выделяется очень сильно! metaler.gif
(1) smes,
Jul 10 2018, 19:59:08 Yngwie J. Malmsteen - Magnum Opus (1995)
ЦИТАТА(Aresson @ Jul 10 2018, 17:53:02) *
Чё бы дальше не говорил 80й, дальше пошло всё менее интереснее

Однозначно! Самое интересное сыграно именно до этого альбома (вклячая сабж). Потом уже как то не то...
(1) smes,
Jul 8 2018, 20:18:02 Reaper - Birth Of Chaos (2018)
(1) Genuine Thrashiac,
Jul 8 2018, 19:16:38 Murder Manifest - Mental Surgery (2008) (5) Aresson, avather, Diflock, fateefffddd, Thrashman,
Jul 8 2018, 17:34:04 Hatalom - Of Sorrow And Human Dust [ep] (2018)
Register
(4) Hell_Is_Here, infiltrator, Ostinato, SymbyoticEntity,
Jul 5 2018, 21:34:15 Asgrauw - Gronspech (2018)
Register
(4) 1968_janeart, artscald, kauyumari, SilentNidhogg,
Jul 5 2018, 21:33:23 Azgaroth - Ikiunten Mailla (2018)
Register
(5) 1968_janeart, artscald, kauyumari, nsk2008, SilentNidhogg,
Jul 5 2018, 21:23:49 Latrodectus - Mactans (2018)
(2) kauyumari, rickzammuto,
Jul 5 2018, 21:18:56 DevilDriver - Outlaws 'til The End, Vol. 1 (2018)
ЦИТАТА(vosmidesijatye @ Jul 5 2018, 14:50:02) *
Грув? Аахааххааха ахахахах ахахахаха

А мелодез в определении, не смешно разве???
(2) Genuine Thrashiac, vosmidesijatye,
Jul 4 2018, 20:41:13 Bullet - Dust To Gold (2018)
Офигенный альбом, отдающий нафффталином с первых же аккордов.
Олд скул во всей красе! metaler.gif
(1) smes,
Jul 2 2018, 14:05:13 Deadflesh - Sic Semper Tyrannis (2017)
Мне тоже пришелся по душе альбом. Среднетемповая, добротная дезяра.
(1) nunim,
Jul 2 2018, 13:37:54 Halford - Crucible (2002)
Альбом, безусловно, хорош, но вот до мега шедеврального предыдущего, все таки не дотягивает.
(1) smes,
Jul 1 2018, 20:37:41 Caratucay - Deranged Serenades (2018)
Register
(3) infiltrator, kimkayoung, SymbyoticEntity,
Jul 1 2018, 20:27:19 Albion - Buried Souls (2018)
Register
(1) ace73pq,
Jul 1 2018, 06:44:03 In Purulence - Putrid Valley (2018)

Register
(5) AHBAnep, infiltrator, jollo, Ostinato, SymbyoticEntity,
Jul 1 2018, 06:27:41 Necrytis - Dread En Ruin (2018)

Register
(2) AHBAnep, infiltrator,
Jun 29 2018, 19:34:26 Tyketto - Don't Come Easy (1991)


*Artist: Tyketto
*Album: Don't Come Easy
*Year: 1991
*Genre: Melodic Hard Rock/Aor
*Country: United States
*Format: mp3@CBR320kbps
*Size: 107MB

Tracklist:
1. Forever Young 5:08
2. Wings 4:29
3. Burning Down Inside 4:36
4. Seasons 4:56
5. Standing Alone 5:29
6. Lay Your Body Down 4:46
7. Walk On Fire 5:15
8. Nothing But Love 3:43
9. Strip Me Down 4:05
10.Sail Away 4:29
******************************
Total playing time: 46:56

[more=Technical info]
Input File: 01_tyketto_forever_young.mp3
Channels : 2
Sample Rate : 44100
Precision : 16-bit
Duration : 00:05:08.17 = 13590429 samples = 23113 CDDA sectors
File Size : 12.3M
Bit Rate : 320k
Sample Encoding: MPEG audio (layer I, II or III)
Comments :
Title=Forever Young
Artist=Tyketto
Album=Don't Come Easy
Tracknumber=1
Year=1991
Genre=Hard Rock

[/more]

Register
(2) A.L.Rapsod, Dreamtale,
Jun 28 2018, 15:53:05 Shylmagoghnar - Transience (2018)
Неплохой материал, но на мой взгляд по стилю - Melodic/Sympho Black.
Мелодеза здесь как то не очень...
(1) AHBAnep,
Jun 25 2018, 21:34:29 Judas Priest - Jugulator (1997)
ЦИТАТА(vosmidesijatye @ Jun 25 2018, 14:58:01) *
Ну а Дифендерсы плачут под ивой в сторонке?

Я имел в виду, что поле Painkillera во временном отрезке.
(1) vosmidesijatye,

114 Pages V  < 1 2 3 4 > » 
- Lo-Fi Version Support form
Copyrights and abuse reports form
Time is now: 17th August 2018 - 00:13:38