Welcome Guest ( Log In | Register )

История благодарностей участнику Andrew ::: Спасибо сказали: 15362 раз(а)
Дата поста: В теме: За сообщение: Спасибо сказали:
Jun 13 2019, 17:44:39 Nightqueen - Seduction (2019)
Register
(1) AHBAnep,
Jun 13 2019, 17:42:56 Merging Flare - Revolt Regime (2019)
Register
(1) wn129aa,
Jun 13 2019, 17:41:30 Freternia - The Gathering (2019)
Register
(3) AHBAnep, Druidir, Fess,
Jun 13 2019, 17:41:02 Out Of Order - Facing The Ruin (2019)
Register
(1) wn129aa,
Jun 13 2019, 17:38:27 Awaken - Out Of The Shadows (2019)
Register
(1) dimitriusk,
Jun 12 2019, 15:22:41 Vinnfrost - Initiation (2019)
Register
(7) AHBAnep, ahp, Evgen79, infernallord, infiltrator, Shadechaser, undeadlich,
Jun 11 2019, 20:56:30 Æternal Requiem - Rise (2019)


Облога красивая!
(1) Amadeus,
Jun 11 2019, 20:48:38 Forge - The Weight Of Us (2019)
Во-первых: инструментал.
А во-вторых: скорее стонер, нежели хеви...
(1) AHBAnep,
Jun 11 2019, 20:45:11 Dark Doom - The Journey (2019)
One Man Band - чувствуется нехватка музыкальных идей и мыслей.
(2) BandR75, Ostinato,
Jun 11 2019, 18:19:36 Bayne - Bulletgame (2019)
Несмотря на звездный состав, тоже не понравилось. Уж как то все примитивно и простецки сыграно - вообще не интересно слушается 6.gif
(1) Ghostb,
Jun 11 2019, 11:57:13 I, Apokalypse - Destroyer Of Worlds (2019)


*Artist: I, Apokalypse
*Album: Destroyer Of Worlds
*Year: 2019
*Genre: Blackened Death Metal
*Country: Canada
*Format: mp3@VBR128kbps
*Size: 38MB

Tracklist:
01. Eschatology 00:52
02. Of Terror and Torment 04:27
03. Destroyer of Worlds 05:24
04. Ripped by Dimension 04:34
05. Soul-Scarved 04:41
06. Black Death 03:29
07. Leviathan Rise 04:16
08. The Becoming 04:40
09. Flaying Living Disgrace 06:30
******************************
Total playing time: 38:53





Register
(4) metala, MMMMM, Rosen, Sanctus,
Jun 10 2019, 21:31:09 Stone Sovereign - Tales Of Myth & Madness (2019)
Register
(2) kimkayoung, Ostinato,
Jun 10 2019, 21:29:55 Ocriah - Shattered Kingdom (2019)
Register
(1) Ostinato,
Jun 10 2019, 09:46:09 Ocriah - Shattered Kingdom (2019)


*Artist: Ocriah
*Album: Shattered Kingdom
*Year: 2019
*Genre: Melodic Death Metal
*Country: United Kingdom
*Format: mp3@CBR320kbps
*Size: 78MB

Tracklist:
01. Torment of Suffering
02. Forgotten Son
03. The Aftermath
04. A Different Perspective
05. Into Nowhere
06. A Living Nightmare
07. Warzone
08. The End of Time
******************************
Total playing time: 32:46




[more=Technical info]
Input File: 1 - Torment of Suffering.mp3
Channels : 2
Sample Rate : 44100
Precision : 16-bit
Duration : 00:04:13.72 = 11188832 samples = 19028.6 CDDA sectors
File Size : 10.2M
Bit Rate : 321k
Sample Encoding: MPEG audio (layer I, II or III)
Comments :
Title=Torment of Suffering
Artist=Ocriah
Album=Shattered Kingdom
Tracknumber=1
Year=2019
Genre=Metal
Discnumber=1

[/more]

Register
(16) BugEyes, DenisKov, GorAtheist, gwynnbleid, kimkayoung, metalwoman, MMMMM, Olethros, Ostinato, Rosen, sadmannn, sergsazan, TeamatSE, VALERY, zhol, Сварог Барг,
Jun 10 2019, 09:37:37 Eternal - Entre Cadáveres (2019)
https://www.youtube.com/watch?time_continue...p;v=2_cPHhNg3zQ
https://www.youtube.com/watch?v=syCWUP9vc2A

Мелодезовых команд из Доминикан на моей памяти еще не было.
Уровень, ясное дело, совсем не тот, но, для ознакомления пойдет.
(2) djsema4, TodesGott,
Jun 10 2019, 08:18:06 Asmodeus Mantra - Prologue To The Plague (2019)
Кстати, очень достойная работа, не лишенная ноток мелодизма.
Альбом слушается легко и приятно 20.gif Молодцы мадьяры, учитывая, что это дебютная работа!

4. Hollow
8. Salem
- Мелодез в чистом виде!
(1) Ostinato,
Jun 10 2019, 07:55:32 Ironwill - Jonathan's Journey (2019)
Register

Register
(3) eyes0re, Olethros, sergsazan,
Jun 9 2019, 13:55:57 Ironwill - Jonathan's Journey (2019)


*Artist: Ironwill
*Album: Jonathan's Journey
*Year: 2019
*Genre: Heavy Metal
*Country: Italy
*Format: mp3@CBR320kbps
*Size: 102MB

Tracklist:
01. The Mirror
02. Demons on the Floor
03. The Infinity
04. Playing on and On
05. Bees and Flies
06. I Believe
07. Time
08. Angel
09. Ironwill
10. The Dam
******************************
Total playing time: 42:48






[more=Technical info]
Input File: 01. The Mirror.mp3
Channels : 2
Sample Rate : 44100
Precision : 16-bit
Duration : 00:05:34.96 = 14771868 samples = 25122.2 CDDA sectors
File Size : 13.5M
Bit Rate : 322k
Sample Encoding: MPEG audio (layer I, II or III)
Comments :
Title=The Mirror
Artist=IronWill
Album=Jonathan's Journey
Tracknumber=1/10
Year=2019
Genre=9
Discnumber=1/1

[/more]

Register
(8) aviacademy, GorAtheist, metala, metalwoman, Rosen, Rover, sergsazan, Сварог Барг,
Jun 8 2019, 21:45:22 Beyond The Grave - Veneration Of Corpses (2019)
(1) DarkHorde,
Jun 7 2019, 18:07:48 Daemonic Dreams - Hellbound (2019)
ЦИТАТА(DenisKov @ Jun 7 2019, 17:12:28) *
лучше первоисточник в 1000 раз включить.

Ну, если так рассуждать, то новые релизы можно воооообще не слушать.
Ничего нового и новаторского там не услышать. В данном жанре уже все сыграно переиграно!
(2) Ghostb, krotovich,
Jun 6 2019, 18:30:39 Geoda - Here And Now (2019)
Register
(3) kimkayoung, Vital157, wn129aa,
Jun 6 2019, 14:21:36 Varg - Wolfszeit II (2019)
Register
(2) kimkayoung, Victim of fate,
Jun 6 2019, 14:17:13 The Rods - Brotherhood Of Metal (2019)
Register
(1) boby9052,
Jun 6 2019, 14:13:45 Tanzwut - Seemannsgarn (2019)
Register
(6) DMIYUR, Guns, natrogrii, okarodb, Алексейглаз, Козлотролль,
Jun 6 2019, 14:12:16 Diviner - Realms Of Time (2019)
Register
(3) Forest, SAPOGi, stumpheavyrock,

141 Pages V  < 1 2 3 4 > » 
- Lo-Fi Version Support form
Copyrights and abuse reports form
Time is now: 27th June 2019 - 09:35:28