Welcome Guest ( Log In | Register )

История благодарностей участнику Andrew ::: Спасибо сказали: 13681 раз(а)
Дата поста: В теме: За сообщение: Спасибо сказали:
Oct 9 2018, 14:27:17 All Consumed - Birth Of Ruin (2018)
ЦИТАТА(Thrashman @ Oct 9 2018, 10:37:46) *
зачётный олдскульчик! m0114.gif

Поддерживаю, добротный сабж.
Хочу заметить, что этот год вообще урожайный на знаковые и топовые альбомы в дез метале! metaler.gif
(1) Leshiy666,
Oct 8 2018, 17:37:41 Stryvigor - Шлях Завдовжки У Нескінченність (2018)
Я совсем не по блэк металу, но данная работа очень понравилась!!!
(1) krotovich,
Oct 7 2018, 16:12:53 Thron - Abysmal (2018)
Очень приятный альбом, слушается на одном дыхании. 20.gif
(1) Shadowman,
Oct 7 2018, 11:38:06 Лучший альбом 2017 года в стиле Death Metal
Thrashman, молодчага, отличная тема!

В 2017 году довольно таки много было дезовых альбомов!

Aeon Of Disease - Veil Of Oblivion
Cut Up - Wherever They May Rot
Deserted Fear - Dead Shores Rising
Deadflesh - Sic Semper Tyrannis
Firespawn - The Reprobate
Graceless - Shadowlands
Horrid - Beyond The Dark Border
Necrot - Blood Offerings
Paganizer - Land Of Weeping Souls
Rogga Johansson - Garpedans
Throne Of Heresy - Decameron
Toxic Crypt - Where Dead Trees Grow
Winds Of Leng - Horrid Dominion
(1) Thrashman,
Oct 6 2018, 17:57:09 Withering Surface - The Nude Ballet (1998) (5) Aresson, Diflock, hammer, samokot, Thrashman,
Oct 6 2018, 16:11:18 Dusk Dwell - Through The Bright Halls (2018)
Register
(3) Narasimha, postal67, VALERY,
Oct 6 2018, 15:54:23 The Invict - A Sun That Never Sets (2018)
- All 8 Songs
(2) AHBAnep, DenisKov,
Oct 5 2018, 16:10:51 Dead Hunt - Dead Hunt (2018)


*Artist: Dead Hunt
*Album: Dead Hunt
*Year: 2018
*Genre: Hardcore/Thrash Metal/Punk
*Country: United States
*Format: mp3@CBR320kbps
*Size: 64MB

Tracklist:
01. Dead Hunt
02. Mind Pollution
03. Nails Of Ice
04. Iron Will
05. Wrath Of God
06. Trapped In A Nightmare
07. Open Your Veins
08. Dig Your Grave
09. Breakdown
******************************
Total playing time: 27:53




[more=Technical info]
Input File: 02_dead_hunt_mind_pollution.mp3
Channels : 2
Sample Rate : 44100
Precision : 16-bit
Duration : 00:03:01.33 = 7996609 samples = 13599.7 CDDA sectors
File Size : 7.31M
Bit Rate : 322k
Sample Encoding: MPEG audio (layer I, II or III)
Comments :
Title=Mind Pollution
Artist=Dead Hunt
Album=Dead Hunt
Tracknumber=02
Year=2018
Genre=Hardcore

[/more]

Register
(6) avkruchinin, boby9052, METALHUNTER, Ostinato, Rosen, volostakoeto,
Oct 4 2018, 21:01:42 Enterfire - Slave Of Time (2018)
Без вокала было бы лучше.
(1) avather,
Oct 2 2018, 17:36:11 Голосование лучший альбом 2015 в стиле Thrash Metal


Biotoxic Warfare - Lobotomized
Hatchet - Fear Beyond Lunacy
Slayer - Repentless
Traitor - Venomizer
(2) Samaritianin, Thrashman,
Oct 2 2018, 16:53:30 Behind The Scenery - Retroviseur (2004)
ЦИТАТА(DenKov @ Jan 5 2013, 18:51:09) *
По сравнению с первыми альбомами МДМ звучит получше

Соглашусь, что из 3 альбомов - этот наиболее интересный и разноплановый.
Некоторые прогрессивные ноткки и вкрапления делают МДМ более разнообразным. Хорошая, крепкая и интересная работа!

320, 126 Mb:

Register


https://www.youtube.com/watch?v=FpoemeesIWY (Full Album)
https://www.youtube.com/watch?v=34kuCA3kcE0
https://www.youtube.com/watch?v=8jdNbYu99iI
https://www.youtube.com/watch?v=fbM_zk_jVjc


(3) Aresson, Diflock, Olrak,
Oct 2 2018, 09:27:59 лучшие Death Metal альбомы 2018
Weak Aside - Forward Into Darkness (2018)
Шикарный альбом! И олд скул, и мелодичный, СУПЕР!
(4) Decapitated, judaz, Samaritianin, Thrashman,
Oct 1 2018, 19:59:04 Grave Digger - The Living Dead (2018)
Наконец то дошли руки до внимательной прослушки нового Диггера...
Такого ужаса я, честно говоря, даже и не ожидал. В дискографии МогилоКопальщиков были откровенно говоря слабоватые альбомы, но чтобы настолько!!! Опус вообще не то чтобы без хитов, а вообще без единой нормальной композиции. Полнейший провал. Я бы на месте музыкантов либо удалился на покой, либо в следующем году срочно готовил реабилитацию в глазах поклонников, да наверное и в своих собственных... 6.gif
(2) hammer, zolotoiskatel,
Sep 30 2018, 17:09:41 Elegiac - Pagan Storm (2018)
Register
(3) nemx, nsk2008, SilentNidhogg,
Sep 30 2018, 14:28:23 Gangari - Songs Of A Southern Winter (2018)


*Artist: Gangari
*Album: Songs Of A Southern Winter
*Year: 2018
*Genre: Progressive/Instrumental Metal
*Country: New Zealand
*Format: mp3@CBR320kbps
*Size: 107MB

Tracklist:
1. Haust 04:21 instrumental
2. The Adventurer 05:01 instrumental
3. Burn Within 03:52 instrumental
4. Southern Wind 04:23 instrumental
5. All The Winter Rains 02:36 instrumental
6. After Solstice 05:11 instrumental
7. Spear Storm 04:43 instrumental
8. The Butterfly 05:09 instrumental
9. The Lost Viking 05:20 instrumental
10. A Midnight Dance 03:45 instrumental
11. The Butterfly (Folk Reprise) 02:30 instrumental
******************************
Total playing time: 46:51



[more=Extended info]Архивы говорят про наличие мелодеза...но я его сознательно в стиле не указывал, потому как его просто-напросто НЕТ![/more]

[more=Technical info]
Input File: 02_gangari_the_adventurer.mp3
Channels : 2
Sample Rate : 48000
Precision : 16-bit
Duration : 00:05:01.47 = 14470656 samples ~ 22610.4 CDDA sectors
File Size : 12.1M
Bit Rate : 321k
Sample Encoding: MPEG audio (layer I, II or III)
Comments :
Title=The Adventurer
Artist=Gangari
Album=Songs Of A Southern Winter
Tracknumber=2/11
Year=2018
Genre=Melodic Death Metal/Instrumental
Discnumber=1/1

[/more]

Register
(3) avkruchinin, csgmnk, Rosen,
Sep 29 2018, 11:23:53 Agents Of Aggression - Drop Beg Plead (2018)


*Artist: Agents Of Aggression
*Album: Drop Beg Plead
*Year: 2018
*Genre: Thrash Metal
*Country: United States
*Format: mp3@CBR320kbps
*Size: 94MB

Tracklist:
01 – My World 02:52
02 – Drop, Beg, Plead 03:38
03 – Death Arise 03:58
04 – We Are On 03:09
05 – Our Hearts Bleed 04:10
06 – Don’t Hit the Wall 03:12
07 – What Is Low 03:32
08 – Dying Wish 04:34
09 – Nobody Hears 03:39
10 – Coma 03:00
11 – Flip the Cross 03:00
******************************
Total playing time: 38:44





[more=Technical info]
Input File: 02_agents_of_aggression_drop_beg_plead.mp3
Channels : 2
Sample Rate : 44100
Precision : 16-bit
Duration : 00:03:38.97 = 9656709 samples = 16423 CDDA sectors
File Size : 9.28M
Bit Rate : 339k
Sample Encoding: MPEG audio (layer I, II or III)
Comments :
Title=Drop, Beg, Plead
Artist=Agents of Aggression
Album=Drop Beg Plead
Tracknumber=2/11
Year=2018
Genre=Heavy Metal
Discnumber=1/1

[/more]

Register
(10) avkruchinin, boby9052, Diflock, gwar, metala, METALHUNTER, postal67, Rosen, terron, wgs73,
Sep 29 2018, 10:57:25 Dare To War - Anatomy Of Soul (2018)


*Artist: Dare To War
*Album: Anatomy Of Soul
*Year: 2018
*Genre: Melodic Death/Doom Death Metal/Progressive
*Country: Russian Federation
*Format: mp3@CBR320kbps
*Size: 93MB

Tracklist:
01. In Ruins
02. Anatomy of Aggression
03. Calling the Earth
04. Old Photo
05. Corpsetower
06. Torn Thread
07. Blood in River
08. Sadness of Hell
09. March No. 3
10. Mind Cleavage
******************************
Total playing time: 39:27



[more=Extended info]Инструментал.[/more]

[more=Technical info]
Input File: 02_dare_to_war_anatomy_of_aggression.mp3
Channels : 2
Sample Rate : 44100
Precision : 16-bit
Duration : 00:04:11.16 = 11076068 samples = 18836.9 CDDA sectors
File Size : 10.3M
Bit Rate : 329k
Sample Encoding: MPEG audio (layer I, II or III)
Comments :
Title=Anatomy of Aggression
Artist=Dare To War
Album=Anatomy of Soul
Tracknumber=02/10
Year=2018
Genre=Metal
Discnumber=1/1

[/more]

Register
(6) metala, Ostinato, Rosen, Shadechaser, tOmV, VALERY,
Sep 28 2018, 18:23:49 Bellako - Demonios (2018)


*Artist: Bellako
*Album: Demonios
*Year: 2018
*Genre: Hardcore/Thrash Metal
*Country: Spain
*Format: mp3@CBR320kbps
*Size: 80MB

Tracklist:
01. Demonios
02. De nuevo
03. Vivir enfadado
04. Trepanación
05. Quién eres tú
06. Siglo XXI (feat. Sergi KOP)
07. La llave
08. La vida es perra
09. Odio y desprecio
10. Omibozu
11. Suciedad humana (feat. Fer Cannibal Grandpa)
12. Ahí fuera
13. Hail Satan
******************************
Total playing time: 33:12







[more=Technical info]
Input File: 02_bellako_de_nuevo.mp3
Channels : 2
Sample Rate : 44100
Precision : 16-bit
Duration : 00:00:00.18 = 7718 samples = 13.1259 CDDA sectors
File Size : 7.35M
Bit Rate : 336M
Sample Encoding: MPEG audio (layer I, II or III)
Comments :
Title=De Nuevo
Artist=Bellako
Album=Demonios
Tracknumber=2
Year=2018
Discnumber=1/1

[/more]

Register
(3) METALHUNTER, Rosen, Герб,
Sep 28 2018, 11:10:12 Empty - Vacío (2018)
Register
(3) Ludwig Hagen, nsk2008, SyncestrA,
Sep 28 2018, 10:55:05 Solar Temple - Fertile Descent (2018)
Register
(4) Amsterdam, kyrkovisan, nsk2008, SilentNidhogg,
Sep 27 2018, 17:43:44 Korriban - The Masquerade (2018)


*Artist: Korriban
*Album: The Masquerade
*Year: 2018
*Genre: Melodic Death Metal/Metalcore/Groove
*Country: Spain
*Format: mp3@CBR320kbps
*Size: 92MB

Tracklist:
01. Redemption 01:53
02. Fury 03:00
03. First Light04:05
04. Humanity 04:36
05. Nocturne 01:28
06. Voight-Kampff 03:38
07. The Unchained 04:34
08. Seas & Monsters 03:53
09. Burn Your Fears 04:20
10. Requiem 08:00
******************************
Total playing time: 39:27




[more=Technical info]
Input File: 02_korriban_fury.mp3
Channels : 2
Sample Rate : 44100
Precision : 16-bit
Duration : 00:03:00.10 = 7942454 samples = 13507.6 CDDA sectors
File Size : 7.38M
Bit Rate : 328k
Sample Encoding: MPEG audio (layer I, II or III)
Comments :
Title=Fury
Artist=Korriban
Album=The Masquerade
Tracknumber=02
Year=2018
Genre=Melodic Death Metal | Metalcore

[/more]

Register
(5) DenisKov, Mogozoz, Ostinato, Rosen, VALERY,
Sep 27 2018, 17:15:02 Thy Desolation - Desolated (2018)


*Artist: Thy Desolation
*Album: Desolated
*Year: 2018
*Genre: Melodic Death Metal/Metalcore
*Country: Germany
*Format: mp3@CBR320kbps
*Size: 77MB

Tracklist:
01. Intro
02. Desolated
03. Sun
04. Blossom
05. Puppet Master
06. Darkness of Death
07. Lost Person
08. Inner Enemy
09. Maze of Life
10. Hypocrite
******************************
Total playing time: 32:41





[more=Technical info]
Input File: 02_thy_desolation_desolated.mp3
Channels : 2
Sample Rate : 44100
Precision : 16-bit
Duration : 00:00:00.19 = 8335 samples = 14.1752 CDDA sectors
File Size : 7.79M
Bit Rate : 330M
Sample Encoding: MPEG audio (layer I, II or III)
Comments :
Title=Desolated
Artist=Thy Desolation
Album=Desolated
Tracknumber=2
Year=2018
Discnumber=1/1

[/more]

Register
(8) DenisKov, gwynnbleid, infozahist, Mogozoz, Ostinato, Rosen, talismanFS, VALERY,
Sep 26 2018, 18:10:12 Wolfsblood - Vomit & Lice (2018)


*Artist: Wolfsblood
*Album: Vomit & Lice
*Year: 2018
*Genre: Hardcore/Thrash Metal
*Country: Sweden
*Format: mp3@CBR320kbps
*Size: 86MB

Tracklist:
1. Vernichtung
2. Serpents Of Our Lives
3. Le Trezieme
4. On Your Knees
5. Last Train
6. Kamagra
7. Contagious
8. Bury Your Heart
9. Vengeance
10. Unalive
******************************
Total playing time: 36:57




[more=Technical info]
Input File: 02_wolfsblood_serpents_of_our_lives.mp3
Channels : 2
Sample Rate : 44100
Precision : 16-bit
Duration : 00:02:16.16 = 6004656 samples = 10212 CDDA sectors
File Size : 5.55M
Bit Rate : 326k
Sample Encoding: MPEG audio (layer I, II or III)
Comments :
Title=Serpents Of Our Lives
Artist=Wolfsblood
Album=Vomit & Lice
Tracknumber=2
Year=2018
Genre=Thrash Metal
Discnumber=1/1

[/more]

Register
(6) avkruchinin, DarkHorde, metala, METALHUNTER, Ostinato, Rosen,
Sep 26 2018, 11:31:21 Nightrage - A New Disease Is Born (2007)
Отличная работа.

320, 105 Mb:

Register
(1) Aresson,
Sep 26 2018, 11:30:52 Nightrage - Descent Into Chaos (2005)
Шикарная работа!

320, 98 Mb:

Register
(2) Aresson, Olrak,

120 Pages V  < 1 2 3 4 > » 
- Lo-Fi Version Support form
Copyrights and abuse reports form
Time is now: 24th October 2018 - 06:27:45