Welcome Guest ( Log In | Register )

История благодарностей участнику Andrew ::: Спасибо сказали: 13228 раз(а)
Дата поста: В теме: За сообщение: Спасибо сказали:
Jun 25 2018, 12:56:38 Judas Priest - Jugulator (1997)
...Прекрасно помню 1997 год, купив аудио кассету, залетел как ошпаренный домой (словно нес что-то архи важное), вставил в кассетник (как-будто бы что-то святое на домашний алтарь) и.......просто ужаснулся. После Painkillera я не мог поверить свои ушам, что это любимый и обожаемый Джудас. Еще пару раз прослушал опус, ужаснулся в который раз и года 4 вообще к сабжу не притрагивался (тем паче, что в тот период добротных творений вышло просто через край!)
А вот в 2001, после выхода Демолишина, который так же не очень пошел мне, решил переслушать Жигулятора. То ли настроение было, то ли еще по каким то причинам, но он мне даже слегонца понравился.
В итоге, данный альбом, не считая пластинку этого года, считаю самой интересной и мощной после Painkillera.
(2) smes, vosmidesijatye,
Jun 24 2018, 17:59:00 Hatchet - Dying To Exist (2018)
ЦИТАТА(avkruchinin @ Jun 24 2018, 12:22:46) *
Для новодела очень даже халяльно banana.gif

А чего новодел? 4 альбом все таки.
(1) Samaritianin,
Jun 22 2018, 10:48:07 Cxfxcx - Assuma A Culpa (2018)

Register
(4) DarkHorde, gwar, terron, wgs73,
Jun 19 2018, 16:30:14 Radwaste - War Within (2018)
давай заменим на наличие - суть от этого не поменяется! bye.gif
(1) vosmidesijatye,
Jun 17 2018, 11:50:38 Desecrate - Schizophrenia (2018)
Не, слабенький материал, даже не взирая на вокал.
(1) aserius,
Jun 16 2018, 06:42:40 Lizzy Borden - My Midnight Things (2018)
Еще одни проснулись...

Register
(1) Alexis The Best,
Jun 15 2018, 15:46:28 Blodshämnd - Premature Obituary (2017)
Сабж хорош! Но я бы не сказал, что прям таки олд скул.

На вечерней пробежке 2 раза прогнал альбом - отменный материал! Крепкая работа, без перепадов и провалов, ровненький от первого и до последнего трека. В ТОР года однозначно. СУПЕР!
(3) andreikun, Foneg, Samaritianin,
Jun 15 2018, 15:43:04 Axel Rudi Pell - Kings And Queens (2004)
Чем примечателен этот альбус - так это наличием 2 классных хитов:
03 - Cold Heaven
04 - Strong As A Rock


[youtube]watch?v=mr4gqkRNbVA&start_radio=1&list=RDmr4gqkRNbVA#t=0[/youtube]

[youtube]watch?v=EqG1nIWfvzY&list=RDEqG1nIWfvzY&start_radio=1#t=1[/youtube]
(1) smes,
Jun 15 2018, 15:37:15 Obsidian Shrine - Anno Domini Satanas (2018)
Register
(5) 1968_janeart, Ostinato, SilentNidhogg, SyncestrA, vasiljev_sergej,
Jun 15 2018, 14:50:55 Burkhartsvinter - Hohenkrähen (2018)
Register
(3) avather, SilentNidhogg, SyncestrA,
Jun 15 2018, 14:43:05 Erebos - Pesta Kommer (2018)
Register
(5) Doooomed, infiltrator, kimkayoung, Shadechaser, vasiljev_sergej,
Jun 14 2018, 20:59:39 Down Among The Dead Men - ...And You Will Obey Me (2018)
ЦИТАТА(vosmidesijatye @ Jun 14 2018, 15:05:23) *
9-ый релиз за 2018 от Роггатого друга пошёл!

Стахановец, трудяга, пчела! Ептиль, когда же он отдыхает то??? fear.gif
А сабж хорош, да!
(6) AHBAnep, aserius, defamer666, Samaritianin, smes, vosmidesijatye,
Jun 14 2018, 20:48:31 Killing - Toxic Asylum [ep] (2018)
Register
(6) ExeThrash, gwar, metalboll, pichileon, SymbyoticEntity, wgs73,
Jun 13 2018, 21:28:43 Belinda Carlisle - Runaway Horses (1989)


*Artist: Belinda Carlisle
*Album: Runaway Horses
*Year: 1989
*Genre: Pop/Rock
*Country: United States
*Format: mp3@CBR320kbps
*Size: 119MB

Tracklist:
01. Leave A Light On 04:37
02. Runaway Horses 04:47
03. Vision of You 04:41
04. Summer Rain 05:32
05. La Luna 04:45
06. (We Want) The Same Thing 03:53
07. Deep Deep Ocean 04:05
08. Valentine 05:04
09. Whatever It Takes 04:49
10. Shades of Michaelangelo 05:49
11. Leave A Light On (Single Version) 04:15
******************************
Total playing time: 52:17

[more=Extended info]Также как и альбом 1987 года - этот наполнен прекрасными хитами!

[youtube]watch?v=pmZYE8j2ZNs&start_radio=1&list=RDpmZYE8j2ZNs#t=102[/youtube]

[youtube]watch?v=Q9pw_cY8uyk&list=RDQ9pw_cY8uyk&t=17[/youtube]

[youtube]hwatch?v=DpbCvgZuRnE&list=RDDpbCvgZuRnE&start_radio=1#t=3[/youtube][/more]

[more=Technical info]
Input File: 02_belinda_carlisle_runaway_horses.mp3
Channels : 2
Sample Rate : 44100
Precision : 16-bit
Duration : 00:04:43.14 = 12486606 samples = 21235.7 CDDA sectors
File Size : 11.3M
Bit Rate : 320k
Sample Encoding: MPEG audio (layer I, II or III)
Comments :
Title=Runaway Horses
Artist=Belinda Carlisle
Album=Runaway Horses (Remastered Deluxe)
Tracknumber=2/17
Year=2013

[/more]

Register
(5) avkruchinin, Evjenne, gwar, Unkle Jonny, zaqxsw,
Jun 13 2018, 21:04:03 Yuzukingdom - Genesis (2018)
Register
(2) csgmnk, kimkayoung,
Jun 13 2018, 20:58:30 Funeral Mist - Hekatomb (2018)
Register
(16) 6666666, 666days, Golodomor, hellbibber, infiltrator, kimkayoung, Korpse, mardak666, Maximvs, Metalass, Mortuusinfernus, Sjelekval, stub888, Thiarnan, undeadlich, vasiljev_sergej,
Jun 11 2018, 06:56:15 Misticismo - Terraria (2018)
Register
(1) nsk2008,
Jun 11 2018, 06:54:26 Cor Scorpii - Ruin (2018)
Register
(11) avather, BERZERK, Fess, Firefrost, Golodomor, kimkayoung, nsk2008, Ostinato, RUDACHUR, sperminator, westwall,
Jun 8 2018, 21:29:21 Velvet Darkness - Nothing But Glory (2018)
Register
(1) ace73pq,
Jun 8 2018, 21:28:36 Trillium - Tectonic (2018)
Register
(1) kimkayoung,
Jun 8 2018, 21:24:32 TNT - XIII (2018)
Register
(1) ace73pq,
Jun 8 2018, 18:08:00 Onmyo-Za - 覇道明王 (2018)
[youtube]watch?v=fcVSDmJmJfU&list=RDfcVSDmJmJfU&t=10[/youtube]
(3) DMIYUR, infiltrator, Луч,
Jun 8 2018, 08:45:59 Belinda Carlisle - Heaven On Earth (1987)


*Artist: Belinda Carlisle
*Album: Heaven On Earth
*Year: 1987
*Genre: Pop/Rock
*Country: United States
*Format: mp3@CBR320kbps
*Size: 128MB

Tracklist:
01. Heaven Is A Place On Earth 4:06
02. Circle In The Sand 4:27
03. I Feel Free 4:50
04. Should I Let You In? 4:19
05. World Without You 4:43
06. I Get Weak 4:53
07. We Can Change 3:47
08. Fool For Love 3:56
09. Nobody Owns Me 3:13
10. Love Never Dies 5:17
11. Heaven Is A Place On Earth (2017) (Bonus Track) 4:02
12. Why (Bonus Track) 4:15
13. Superstar (Bonus Track) 3:57
******************************
Total playing time: 55:45

[more=Extended info]Belinda Carlisle - Heaven On Earth (30Th Anniversary Edition) (2017)[/more]

[more=Technical info]
Input File: 01_belinda_carlisle_heaven_is_a_place_on_earth.mp3
Channels : 2
Sample Rate : 44100
Precision : 16-bit
Duration : 00:04:05.81 = 10840309 samples = 18435.9 CDDA sectors
File Size : 9.90M
Bit Rate : 322k
Sample Encoding: MPEG audio (layer I, II or III)
Comments :
Title=Heaven Is a Place on Earth
Artist=Belinda Carlisle
Album=Heaven on Earth (30th Anniversary Edition)
Tracknumber=1/13
Year=2017
Genre=13

[/more]

Register
(4) avkruchinin, garmonbozia, gwar, zaqxsw,
Jun 8 2018, 08:06:34 Sunstorm - The Road To Hell (2018)


*Artist: Sunstorm
*Album: The Road To Hell
*Year: 2018
*Genre: Melodic Hard Rock/AOR
*Country: United States
*Format: mp3@CBR320kbps
*Size: 108MB

Tracklist:
01. Only the Good Will Survive 4:14
02. The Road to Hell 4:23
03. On the Edge 3:54
04. Blind the Sky 4:33
05. My Eyes on You 4:26
06. Future to Come 3:34
07. Everywhere 4:24
08. Resurrection 3:57
09. Calling 4:20
10. State of the Heart 3:27
11. Still Fighting 4:16
******************************
Total playing time: 45:28




[more=Extended info]Отличный, мелодичный и просто добротный альбус, отдающий нафффталином на все 100! Ну и вокал, конечно, выше всяких похвал.[/more]

[more=Technical info]
Input File: 01. Only the Good Will Survive.mp3
Channels : 2
Sample Rate : 44100
Precision : 16-bit
Duration : 00:00:00.25 = 11201 samples = 19.0493 CDDA sectors
File Size : 10.5M
Bit Rate : 332M
Sample Encoding: MPEG audio (layer I, II or III)
Comments :
Title=Only the Good Will Survive
Artist=Sunstorm
Album=The Road to Hell
Tracknumber=1/11
Year=2018
Genre=Rock
Discnumber=1/1

[/more]

Register
(5) avkruchinin, Fatalv, MetalW, MеtalHead, smes,
Jun 8 2018, 07:17:07 Donnergroll - Papaver Somniferum (2018)
Register
(6) Geisteswaffe, infiltrator, METALHUNTER, Oldskulthrasher, Ostinato, SymbyoticEntity,

114 Pages V  < 1 2 3 4 5 > » 
- Lo-Fi Version Support form
Copyrights and abuse reports form
Time is now: 17th August 2018 - 00:13:55