Welcome Guest ( Log In | Register )

История благодарностей участнику KVRT ::: Спасибо сказали: 1955 раз(а)
Дата поста: В теме: За сообщение: Спасибо сказали:
Jun 19 2020, 09:08:14 Jupiterian - Terraforming (2017)
Register
bye.gif
(1) SatanicPanzer,
Jun 15 2020, 08:42:29 Лучшая песня в истории HELLOWEEN!
Forever and One (Neverland) 19.gif
(1) Deze,
Apr 22 2020, 11:30:37 Чудодейственные свойства гомеопатии, или Голосовалка за лучший альбом 2019 года, Тур 2, Плэй-офф
ЦИТАТА(Фо @ Apr 22 2020, 10:25:36) *
Я вот, к примеру, тоже совсем перестал употреблять, и как то веселее, право слово.

ибо меру знать надо 1488.gif
дык, ежели на баллансе можно всю жисть жыть припиваючи.. а коли усугублять, дак и облегчение после полной отмены потребления будет не искренним..
(1) BleedingSun,
Apr 22 2020, 11:27:26 Чудодейственные свойства гомеопатии, или Голосовалка за лучший альбом 2019 года, Тур 2, Плэй-офф
ЦИТАТА(hammer @ Apr 22 2020, 10:24:39) *
Вы в оба - в сад!

в детсад 1488.gif
(1) BleedingSun,
Apr 15 2020, 07:35:47 Kitchen Knife Conspiracy - Seven Deadly Sins (2015)
Register
(3) Golfzilla, hammer, Strangler,
Dec 29 2019, 22:12:33 Daeth/Doom/Gothic Metal
ЦИТАТА(Tarelka @ Dec 29 2019, 21:08:52) *
Darkseed чей-то проект вроде? Не крематори?

нет.. но немцы
Участники: Штефан Хертрих, Харальд Винклер, Томас Херманн, Андреас Веккер, Маурицио Гуоло, Армин Дорфлер, Вилли Вурм
(1) Tarelka,
Dec 29 2019, 22:06:12 Daeth/Doom/Gothic Metal
[youtube]02nMzcGeMi0[/youtube]

Darkseed - Romantic Tales (1994)
(1) Tarelka,
Dec 29 2019, 21:48:57 Daeth/Doom/Gothic Metal
Thorr's Hammer is a female fronted Doom Metal band from Seattle, Washington that unfortunately only released one 4 song EP called "Dommedagsnatt" in 1994-1995 before the band disbanded and singer Runhild Gammels?ter went back to Oslo, Norway.
[youtube]iYWGiNLbmhs[/youtube]
и.м.х.о.-нетленочка headcrab.png
(1) Tarelka,
Dec 29 2019, 14:31:11 Голос Омерики - Хардкор (2017)


*Artist: Голос Омерики
*Album: Хардкор
*Year: 2017
*Genre: Punk Rock/Ska
*Country: Russian Federation
*Format: mp3@CBR320kbps
*Size: 128MB

Tracklist:
01. Мамбо итальяно
02. Депрессия
03. Долбо*бизм
04. 8 Марта
05. У*бан
06. Гаджет
07. Импотент
08. Х*йня
09. Клубника - облепиха
10. Fuck vegan! (Go cannibal!)
11. Don't stop DJ (feat. Чача Иванов)
12. Дезоморфин
13. На г*вно
14. Паранойя
15. Хардкор
******************************
Total playing time: 55:36

[more=Extended info]Состав Родион Лубенский — вокал, аккордеон, клавиши, слова, музыка
Александр Воробьёв — гитара, банджо, балалайка, бэк-вокал
Сергей Шмельков — бас-гитара, бэк-вокал
Алексей Боев — барабаны
Михаил "Карней" Карнейчик — перкуссия, танцы
Георгий Янковский — скрипка, бэк-вокал
[youtube]HgR02fslRhI[/youtube][/more]

[more=Technical info]
Input File: 10. Fuck vegan.mp3
Channels : 2
Sample Rate : 44100
Precision : 16-bit
Duration : 00:03:41.86 = 9784202 samples = 16639.8 CDDA sectors
File Size : 8.95M
Bit Rate : 323k
Sample Encoding: MPEG audio (layer I, II or III)
Comments :
Title=Fuck vegan
Artist=Голос Омерики
Album=Хардкор
Tracknumber=10/15
Year=2017
Genre=121
Discnumber=1/1

[/more]

Register
(2) gwar, VALERY,
Dec 26 2019, 21:47:14 Spiral Skies - Blues For A Dying Planet (2018)
ЦИТАТА(helvetestoner @ Dec 19 2019, 20:07:38) *
reupload it please!

Register
(1) Jurmagund,
Dec 24 2019, 08:37:11 Ландыши - Борисоглебские Пруды (2008)
Register
(2) hammer, infiltrator,
Dec 13 2019, 21:33:09 Trvth - Inordinate And Surpassing (2019)
ЦИТАТА(necroscum @ Dec 13 2019, 13:52:42) *
*Genre: Atmospheric/Depressive Black Metal

false 23.gif
(1) Nemez,
Nov 24 2019, 11:18:21 Admiral Sir Cloudesley Shovell - Very Uncertain Times (2019)
[youtube]GiA9po4SP58[/youtube] [youtube]8t3i0gtLwb4[/youtube]
(1) avkruchinin,
Nov 9 2019, 22:00:58 Голос Омерики - Спорт (2019)


*Artist: Голос Омерики
*Album: Спорт
*Year: 2019
*Genre: Punk Rock/Ska
*Country: Russian Federation
*Format: mp3@CBR320kbps
*Size: 109MB

Tracklist:
01 Бибоп и Рокстеди - 4:22
02 Труп невесты - 4:00
03 АНТИЗОЖ - 3:41
04 Весёлая ферма - 3:30
05 Днище - 4:37
06 ОМОН - 3:13
07 Наука - 3:46
08 Ирина - 4:32
09 РЕН ТВ - 4:00
10 Последний герой - 4:03
11 Игра - 3:45
12 Собака-гипнотизёр (bonus) - 2:20
******************************
Total playing time: 45:49

preview 1
preview 2
preview 3

[more=Extended info]Состав Родион Лубенский — вокал, аккордеон, клавиши, слова, музыка
Александр Воробьёв — гитара, банджо, балалайка, бэк-вокал
Сергей Шмельков — бас-гитара, бэк-вокал
Алексей Боев — барабаны
Михаил "Карней" Карнейчик — перкуссия, танцы
Георгий Янковский — скрипка, бэк-вокал

golosomeriki.ru



[youtube]XvGI_JJUZqk[/youtube][/more]

[more=Technical info]
Input File: 07. Наука.mp3
Channels : 2
Sample Rate : 44100
Precision : 16-bit
Duration : 00:03:46.39 = 9983799 samples = 16979.2 CDDA sectors
File Size : 9.13M
Bit Rate : 323k
Sample Encoding: MPEG audio (layer I, II or III)
Comments :
Title=Наука
Artist=Голос Омерики
Album=Спорт
Tracknumber=7/12
Year=2019
Genre=121
Discnumber=1/1

[/more]

Register
(8) A.L.Rapsod, Aresson, Diflock, gwar, Necroalex, rabindranad, tushkan1, VALERY,
Oct 26 2019, 19:49:51 Production Grey - Channel Your Aggressions (1995)
[youtube]m1b9fA_P0Zc[/youtube]
(1) artscald,
Oct 12 2019, 21:14:45 No:Code - Reversible (2007)
Register
(4) METALHUNTER, RotAnus, stumpheavyrock, SyncestrA,
Jul 18 2019, 22:59:15 Nightfucker - Nightfucker (2019)
ЦИТАТА(vosmidesijatye @ Jul 18 2019, 20:37:03) *
Да тут можно оба варика смело использовать bye.gif

имхо это вашпе - некая анаграмма на "ЩелкунчикЪ" (nut cracker)
(1) vosmidesijatye,
Jul 18 2019, 21:42:34 Crucificator - Sunrise In The Suicide Front (2016)
южноомереканцкая сцена не перестаёт одаривать годнотой.. banana.gif
(1) Samaritianin,
Jan 21 2019, 20:25:46 Malevolent Creation - The 13Th Beast (2019)
ЦИТАТА(vosmidesijatye @ Jan 21 2019, 18:46:23) *
Благодарствую. Ну ващет это даже не картины, а просто синяя мазня широкими штрихами.

Это на самом деле как покакать и допустим кал смыть - а полоска толстая остается.

Так и здесь. Ни сюжета, ни прорисовки, ни гаммы цветов, ничего.

ну всё!! расходимся.. гуру забраковалис
(3) Faust_Vulkan_16, infiltrator, neoatheist,
Dec 15 2018, 19:23:06 Fleshless - Doomed (2018)
фкусинятинко!! banana.gif banana.gif banana.gif
(1) DarkHorde,
Dec 9 2018, 14:38:18 Zebulon - Volume One (2001)
Register
(1) hammer,
Dec 6 2018, 16:32:24 Forest Of Shadows - Among The Dormant Watchers (2018)
неплохо, да.. в аккурат по нонешней погоде атмосфэррка
(1) vosmidesijatye,
Dec 6 2018, 16:26:25 Torturous Inception - Arcane Dominion (2018)
Сумбурное, неуверенное... С уклоном в технику, да без подобающих навыков...
(2) metala, vosmidesijatye,
Dec 6 2018, 16:21:13 Cóndor - El Valle Del Cóndor (2018)
подача портит и без того мутноватую картину.. poke_g.gif
(1) Foneg,
Nov 15 2018, 17:07:28 Січгарт - Честь Та Кров (2018)
ЦИТАТА(vosmidesijatye @ Nov 15 2018, 12:14:45) *
Как правильно на русский перевести название банды?

Сечевой Закал.. типо
воны ж козацького роду.. лыцари у Н-ном поколинни
(3) judaz, Shadowman, vosmidesijatye,

38 Pages V   1 2 3 > » 
- Lo-Fi Version Support form
Copyrights and abuse reports form
Time is now: 7th July 2020 - 09:10:53