Welcome Guest ( Log In | Register )

История благодарностей участнику zargonath ::: Спасибо сказали: 1092 раз(а)
Дата поста: В теме: За сообщение: Спасибо сказали:
Feb 9 2018, 17:41:06 Goatblood - Hate Division (2017) (2) DarkHorde, rickzammuto,
Feb 4 2018, 20:21:01 Mystagos - Ho Anthropos Tes Anomias (2017) (1) RUSP73,
Feb 3 2018, 18:42:01 Deform - Praestigiis Daemonum [demo] (2011) (2) rickzammuto, RUSP73,
Feb 3 2018, 18:40:25 Paleas Comburet Igni Inextinguibili - Quam Angusta Porta Et Arta Via Qua Quae Ducit Ad Vitam Et Pauci Sunt Qui Inveniunt Eam [demo] (2017) (1) Paatddal,
Feb 3 2018, 12:14:34 Bulturnos - O Vuedo Dentre As Enruenas [demo] (2015) (1) Winterhordes,
Feb 3 2018, 11:55:02 Myrddraal - Black Construction [demo] (1999)
thks winterhordes for all these rare contributions smile3.gif
(1) Winterhordes,
Feb 3 2018, 11:35:27 Black Candle - Winter Of Wrath [demo] (1997) (1) Winterhordes,
Jan 27 2018, 12:37:00 Baudus - Gone And Forgotten [demo] (2017) (1) rickzammuto,
Jan 24 2018, 18:17:37 River Of Souls - The Nihilist [ep] (2018) (2) libertine, Old Vyaine,
Nov 28 2017, 12:49:25 Yetna Apmaskema - Where Death Is... [demo] (2011) (1) rickzammuto,
Nov 28 2017, 12:46:43 Inner Missing - The Innefable (2017) (1) Old Vyaine,
Oct 29 2017, 17:33:29 Unshrouded Bitterness - The Dawn Of A New Aeon [demo] (1997) (2) Penetralia, vader9,
Oct 24 2017, 18:18:43 Casket Of Dreams - Dragons Of Autumn Twilight (1998)
Ey Borderline you made my day (or month) 20.gif 20.gif 20.gif 20.gif 20.gif
(1) Borderline1991,
Oct 24 2017, 18:09:46 Black Mass Of Absu - Looting The Tomb Of The Aramathean [ep] (2000) (1) libertine,
Sep 20 2017, 16:56:39 Orion - Сквозь сумерки веков (2017) (1) Sanc,
Sep 14 2017, 17:17:23 Shrine Of Orpheus - Λυκόφως [ep] (2017) (1) vader9,
Sep 14 2017, 17:10:54 Velvet Thorns - In The Name Of Reason (2017) (1) rickzammuto,
Sep 11 2017, 19:08:57 Cripta Oculta - Inabalável Orgulho Pagão [demo] (2010)
[youtube]41jvLHFFILw[/youtube]
(1) serg1349,
Aug 27 2017, 19:43:14 Bezmir - Void (2017)
finally, many thanks

Severoth All instruments (2017-present)
See also: Endless Battle, Severoth, Морок, Galdur
(1) RENыч,
Aug 3 2017, 19:03:10 Circle Of Shadows - Of Mercury Blood [demo] (2016)
[youtube]BQVmALxH52U[/youtube]
(2) rickzammuto, valafar,
Jun 29 2017, 17:42:11 Sorrowful - Grief Of The Dying (2017) (2) infiltrator, KVRT,
Jun 10 2017, 11:57:09 Solbrud - Vemod (2017)
(1) serg1349,
May 28 2017, 12:41:44 Atropos - Amorte [demo] (1995)
Many thanks for this smile3.gif
(1) Borderline1991,
Apr 29 2017, 13:15:52 Mesarthim - Presence [ep] (2017)


*Artist: Mesarthim
*Album: Presence [ep]
*Year: 2017
*Genre: Atmospheric Black Metal
*Country: Australia
*Format: mp3@CBR320kbps
*Size: 47MB

Tracklist:
1. Eschaton Part I 07:45
2. Eschaton Part II 05:27
3. Presence 07:32
******************************
Total playing time: 20:44



[more=Technical info]
Input File: 02. Eschaton Part II.mp3
Channels : 2
Sample Rate : 44100
Precision : 16-bit
Duration : 00:05:27.71 = 14451923 samples = 24578.1 CDDA sectors
File Size : 13.3M
Bit Rate : 324k
Sample Encoding: MPEG audio (layer I, II or III)
Comments :
Title=Eschaton Part II
Artist=Mesarthim
Album=Presence
Tracknumber=2

[/more]

Register
(12) Anhra Mainyu, BERZERK, Chorus, ENDSMOUTH, MeinWombat, Rosen, simonalacacarisa, Spunkynut, TAKATAEL, Torop, vasiljev_sergej, Zenial,
Apr 8 2017, 10:34:43 Moonlight Asylum - Death Is Coming (2017) (1) v.v.m,

14 Pages V   1 2 3 > » 
- Lo-Fi Version Support form
Copyrights and abuse reports form
Time is now: 18th February 2018 - 09:58:44