Welcome Guest ( Log In | Register )

История благодарностей участнику zargonath ::: Спасибо сказали: 1228 раз(а)
Дата поста: В теме: За сообщение: Спасибо сказали:
Dec 9 2019, 20:26:04 Great Horn - У Вихорі Всесвіту (2000)
Register
(1) Aresson,
Dec 9 2019, 20:03:35 Torture Chain - The Ascent Of Deimos (2019)
Register
(1) Occultas,
Nov 21 2019, 20:41:55 Vampyric Blood - Watching The Nights Rot In Eternal Melancholy [ep] (2019)
Register
(1) Occultas,
Nov 9 2019, 19:07:09 Temple Nightside - Damnation [demo] (2019)
Register
(1) Occultas,
Oct 28 2019, 17:51:50 Imperial Crystalline Entombment - Imperial Crystalline Entombment [demo] (2003)
Register
(1) Occultas,
Aug 14 2019, 19:06:11 Egyptian Ropes - Burning Death Impulse [demo] (2018)
[youtube]5Wn0Zw-osic[/youtube]
(1) rickzammuto,
Jul 21 2019, 20:13:15 Verikaski - Surmankoi [ep] (2019)
Register
(1) dagger666,
Jul 21 2019, 20:12:30 Qassam - Shaythan Akhbar! (حرب أكبر) (2013)
[youtube]XWxKW4rcgUw[/youtube]
(1) Волос,
Jul 4 2019, 17:36:10 Sinthgunt - The Infernal Wounds Of Man (2019)
[youtube]XSscmtKymuw[/youtube]
(1) artscald,
Jun 29 2019, 18:47:18 Infants Of The Arcane - War And Peace [ep] (2019)
[youtube]4CHhNemaMo4[/youtube]
(1) rickzammuto,
Jun 29 2019, 11:36:35 Horre - The Cycle (2019)
Register
(1) artscald,
May 26 2019, 10:56:35 Tanun - Scales Of The Dragon [ep] (2019)
Register
(1) rickzammuto,
May 1 2019, 10:40:21 Bloodstorm - Endure [ep] (2019)


*Artist: Bloodstorm
*Album: Endure [ep]
*Year: 2019
*Genre: Atmospheric/Ambient Black Metal
*Country: United States
*Format: mp3@CBR320kbps
*Size: 49MB

Tracklist:
1. Against the Waning Light 14:07
2. Endure 06:19
******************************
Total playing time: 20:26





[more=Extended info]Enjoy![/more]

[more=Technical info]
Input File: 02 Endure.mp3
Channels : 2
Sample Rate : 44100
Precision : 16-bit
Duration : 00:06:19.08 = 16717560 samples = 28431.2 CDDA sectors
File Size : 15.3M
Bit Rate : 323k
Sample Encoding: MPEG audio (layer I, II or III)
Comments :
Title=Endure
Artist=Bloodstorm
Album=Endure
Tracknumber=2
Year=2019

[/more]

Register
(15) 1968_janeart, Emhyr var Emreis, Hefir, Ildjarn, kim666, lucifix, oldvarg, Olethros, robertho777, Rosen, Shadechaser, SilentNidhogg, vasiljev_sergej, Woosad, ZambuL,
Apr 21 2019, 19:39:52 Kradmar - 1000 Cuts Lifeless Dust (2019)
Register
(2) libertine, Old Vyaine,
Apr 21 2019, 19:10:48 Skydancer - Necklace Of Sorrow [demo] (1994)
Register
(1) celestial_keeper,
Apr 13 2019, 17:57:38 Winterleyd - Winterleyd [demo] (2011)
Register
(1) rickzammuto,
Mar 24 2019, 14:44:15 Todesmarsch - We're Planning Your Fall (2018)
[youtube]IsysUx0sx6A[/youtube]
(1) Precaria,
Mar 17 2019, 20:41:48 Black Omen - Darkness Is My Essence [ep] (2019) (1) rickzammuto,
Dec 28 2018, 23:15:10 Maleficarum - Trans Mysterium (2014)
Register
(1) rickzammuto,
Dec 23 2018, 20:28:03 Boira - Demo I [demo] (2014) (1) rickzammuto,
Nov 6 2018, 20:32:41 Trollheims Grott - Aligned With The True Death (2018)
other host please?
(1) neoatheist,
Nov 1 2018, 21:25:43 Γνόφος - Κατάνυξη (2018)
Register
(1) Occultas,
Nov 1 2018, 21:02:59 Severoth - When The Night Falls (2018)
Great album, Severoth never dissapoints
(1) nunim,
Oct 31 2018, 23:52:39 Evenfall - The Lunar Eclipse [demo] (1999)
Register
(1) libertine,
Jul 21 2018, 19:14:26 Najwyższy - An Orchestration In Shadows [demo] (2018) (2) Occultas, rickzammuto,

17 Pages V   1 2 3 > » 
- Lo-Fi Version Support form
Copyrights and abuse reports form
Time is now: 13th December 2019 - 03:23:58