Welcome Guest ( Log In | Register )

История благодарностей участнику zargonath ::: Спасибо сказали: 1317 раз(а)
Дата поста: В теме: За сообщение: Спасибо сказали:
Jun 3 2020, 20:28:20 Mely - There Are Days... (1999)
Register
(1) Synthaeon,
Jun 3 2020, 20:20:19 Axis Of Light - Axis Of Light [ep] (2020)
ALL BANDCAMP DONATIONS WILL BE DONATED TO ENGLISH ANIMAL/ENVIRONMENTAL CAUSES.
(1) Orkkh,
May 23 2020, 19:06:30 Cauldron Black Ram - Slaver (2020)
Register
(2) boby9052, Occultas,
May 9 2020, 11:54:16 Autumn Lethargy - Monochrome Sun (2017)
Register
(2) infiltrator, krotovich,
May 9 2020, 11:47:32 Rising Shadow - Tears Of The Sunset (1996)
Register
(1) Sanctus,
Apr 16 2020, 13:31:26 Midnight Odyssey - Ruins Of A Celestial Fire (2020)


*Artist: Midnight Odyssey
*Album: Ruins Of A Celestial Fire
*Year: 2020
*Genre: Ambient
*Country: Australia
*Format: mp3@CBR320kbps
*Size: 139MB

Tracklist:
1.Celestial Fires on the Path to Antares 15:23
2.Ruins of a Crystal Sky 15:24
3.A Symphony in Stardust 15:26
4.Tundras Hidden from the Sibling Suns 14:57
******************************
Total playing time: 1:01:10



[more=Extended info]Ambient only album, inspired by 70's Kosmische music and pulp science fiction.[/more]

[more=Technical info]
Input File: 01 Celestial Fires on the Path to Antares.mp3
Channels : 2
Sample Rate : 44100
Precision : 16-bit
Duration : 00:15:23.38 = 40720970 samples = 69253.4 CDDA sectors
File Size : 37.1M
Bit Rate : 322k
Sample Encoding: MPEG audio (layer I, II or III)
Comments :
Title=Celestial Fires on the Path to Antares
Artist=Midnight Odyssey
Album=Ruins of a Celestial Fire
Tracknumber=1
Year=2020
Genre=Ambient

[/more]

Register
(30) Amadeus, Brann, Cyrci, Der_Hexer, doomTemplar, dulak, Evilded, Evjenne, Faust2016, Forest, garml2, gena, Geralder, Hell_Is_Here, infiltrator, Kazoth, nemx, obituarydark, Occultas, Olethros, pahail, princeshr, Raw1488, recber, SAPOGi, smysl, tOmV, wtk.412, Авел, некрософ,
Apr 15 2020, 20:41:42 Midnight Odyssey - Ambient (2020)


*Artist: Midnight Odyssey
*Album: Ambient
*Year: 2020
*Genre: Ruins Of A Celestial Fire
*Country: Australia
*Format: mp3@CBR320kbps
*Size: 139MB

Tracklist:
1.Celestial Fires on the Path to Antares 15:23
2.Ruins of a Crystal Sky 15:24
3.A Symphony in Stardust 15:26
4.Tundras Hidden from the Sibling Suns 14:57
******************************
Total playing time: 1:01:10



[more=Extended info]Ambient only album, inspired by 70's Kosmische music and pulp science fiction.[/more]

[more=Technical info]
Input File: 01 Celestial Fires on the Path to Antares.mp3
Channels : 2
Sample Rate : 44100
Precision : 16-bit
Duration : 00:15:23.38 = 40720838 samples = 69253.1 CDDA sectors
File Size : 37.1M
Bit Rate : 322k
Sample Encoding: MPEG audio (layer I, II or III)
Comments :
Title=Celestial Fires on the Path to Antares
Artist=Midnight Odyssey
Album=Ruins of a Celestial Fire
Tracknumber=1
Year=2020

[/more]

Register
(2) infiltrator, Tarkron,
Apr 15 2020, 20:27:46 Firienholt - The Crownless [ep] (2020)


*Artist: Firienholt
*Album: The Crownless [ep]
*Year: 2020
*Genre: Epic Black Metal
*Country: United Kingdom
*Format: mp3@CBR320kbps
*Size: 45MB

Tracklist:
1.A Broken Blade 11:14
2.The Sundering Seas 06:47
******************************
Total playing time: 18:01



[more=Extended info]Epic Black Metal and Dungeon Synth from the realm of Arda. Each offering shall be a duology of the two styles.[/more]

[more=Technical info]
Input File: 02 The Sundering Seas.mp3
Channels : 2
Sample Rate : 44100
Precision : 16-bit
Duration : 00:06:47.27 = 17960651 samples = 30545.3 CDDA sectors
File Size : 16.4M
Bit Rate : 322k
Sample Encoding: MPEG audio (layer I, II or III)
Comments :
Title=The Sundering Seas
Artist=Firienholt
Album=The Crownless
Tracknumber=2
Year=2020

[/more]

Register
(24) ahp, DowntownGsus, Druidir, Ildjarn, infiltrator, kim666, kimkayoung, Krosis, obituarydark, oldvarg, Olethros, Olrak, randumbum, robertho777, satanist666, senecazm, sergsazan, Shadechaser, SilentNidhogg, stub888, VALERY, vasiljev_sergej, zhol, Луч,
Apr 11 2020, 19:27:55 Bloodhammer - The Passion Of The Devil [ep] (2005)
Register
(1) Ildjarn,
Mar 15 2020, 20:50:07 Truckerfucker - Doedens Daf (2020) (1) Occultas,
Mar 15 2020, 19:57:23 Within Thy Wounds - Forest Of Iniquity (2020)
Christian Metal
(2) randumbum, xarmendarizx,
Jan 31 2020, 18:53:47 Огнеколо - Шлях Воїна (2020)
Register
(1) squall8fr,
Jan 28 2020, 19:51:43 Greve - Nordarikets strid (LP) / Nidingsdåd utav det uråldriga (EP) (1) Borderline1991,
Jan 28 2020, 19:47:57 Sad & Domos - Guided By The Chants From The Other Side [split] (2017)
Register
(1) BrutalMan,
Jan 15 2020, 20:39:12 Horns & Hooves - Morbid Lust [ep] (2017)
Register
(1) rickzammuto,
Dec 29 2019, 12:40:19 Shadow's Mortuary - Kuoleman Portit (2019)
Register
(1) squall8fr,
Dec 9 2019, 20:26:04 Great Horn - У Вихорі Всесвіту (2000)
Register
(1) Aresson,
Dec 9 2019, 20:03:35 Torture Chain - The Ascent Of Deimos (2019)
Register
(1) Occultas,
Nov 21 2019, 20:56:21 Night To Die - All Evil Crying [ep] (1999)
Register
(1) TodesGott,
Nov 21 2019, 20:41:55 Vampyric Blood - Watching The Nights Rot In Eternal Melancholy [ep] (2019)
Register
(1) Occultas,
Nov 9 2019, 19:07:09 Temple Nightside - Damnation [demo] (2019)
Register
(1) Occultas,
Oct 28 2019, 17:51:50 Imperial Crystalline Entombment - Imperial Crystalline Entombment [demo] (2003)
Register
(1) Occultas,
Aug 14 2019, 19:06:11 Egyptian Ropes - Burning Death Impulse [demo] (2018)
[youtube]5Wn0Zw-osic[/youtube]
(1) rickzammuto,
Jul 21 2019, 20:13:15 Verikaski - Surmankoi [ep] (2019)
Register
(1) dagger666,
Jul 21 2019, 20:12:30 Qassam - Shaythan Akhbar! (حرب أكبر) (2013)
[youtube]XWxKW4rcgUw[/youtube]
(1) Волос,

18 Pages V   1 2 3 > » 
- Lo-Fi Version Support form
Copyrights and abuse reports form
Time is now: 6th August 2020 - 07:54:54