Welcome Guest ( Log In | Register )

История благодарностей участнику eyehategod ::: Спасибо сказали: 57557 раз(а)
Дата поста: В теме: За сообщение: Спасибо сказали:
Feb 15 2018, 21:10:34 Necrophobic - Mark Of The Necrogram (2018)


*Artist: Necrophobic
*Album: Mark Of The Necrogram
*Year: 2018
*Genre: Black/Death Metal
*Country: Sweden
*Format: mp3@CBR192kbps
*Size: 68MB

Tracklist:
1. Mark of the Necrogram 04:53
2. Odium Caecum 04:25
3. Tsar Bomba 05:40
4. Lamashtu 05:20
5. Sacrosanct 04:38
6. Pesta 05:59
7. Requiem for a Dying Sun 04:39
8. Crown of Horns 03:59
9. From the Great Above to the Great Below 05:53
10. Undergången 02:48
******************************
Total playing time: 48:14



[more=Technical info]
Input File: 01__Necrophobic__-_Mark_Of_The_Necrogram.mp3
Channels : 2
Sample Rate : 44100
Precision : 16-bit
Duration : 00:04:54.05 = 12967693 samples = 22053.9 CDDA sectors
File Size : 7.06M
Bit Rate : 192k
Sample Encoding: MPEG audio (layer I, II or III)
Comments :
Title=Mark Of The Necrogram
Artist=Necrophobic
Album=Mark of the Necrogram
Tracknumber=1/10
Year=2018
Genre=Black/Death Metal
Discnumber=1/1

[/more]

Register
(107) 6666666, Anhra Mainyu, Aphotic, asphyx5, bacl, Beazth, berserkr, Black Cat, Buregon, cesar, clublen, cynik, djsema4, dma-09, DMIYUR, Doooomed, Dr.Grind Oim, dromord, Dunkelgrafen, eternald, fabeldyr, fabriziomagno, Femto, Fess, Filosofem91, Firefrost, ForzaMinardi1977, gena, Golodomor, Guns, gwar, hammer, Helgiblack, Indamage, Infidel, infiltrator, infozahist, insufferable, judaz, Kehl05, killingod, kim666, kimkayoung, kolar666, Korpse, Kwaad, LEGION69, LUCASDEATH, marilin, MaXL, metala, METALHUNTER, Mirddin, MMMMM, morbidangelo, Narasimha, natrogrii, neoatheist, oldvarg, Ostinato, Paradayz, pensiata, Pentium.Disel, Phlebotomized, Pinhead666, pongsifu, princeshr, rabindranad, Razorbladeswaltz, ripper33, Rosen, Rover, RUSP73, Samaritianin, Samogon, Sanc, sandr666, SAPOGi, satanist666, SilentNidhogg, Spunkynut, SS2998, sta1081, stone88, StoneTemple, Strygaldwir, SymbyoticEntity, symphonicadiction, TeamatSE, terron, thenecromancer, THROWER666, Thunderbird, toly1917, VALERY, varg-38ru, vo140182fav, vov7609, vyacheslav, wrath082, wreak, wtk.412, xska, yuratroll, Zenial, Герб, Смусмумбрик,
Jan 2 2018, 23:11:54 Druid Lord - Grotesque Offerings (2018)
Register
(9) Amsterdam, babanguida, Dogman, fishish, kauyumari, Saalingurth, thenecromancer, vyacheslav, zotyo1975,
Jan 1 2018, 17:15:00 Druid Lord - Grotesque Offerings (2018)


*Artist: Druid Lord
*Album: Grotesque Offerings
*Year: 2018
*Genre: Death/Doom Metal
*Country: United States
*Format: mp3@CBR320kbps
*Size: 131MB

Tracklist:
1. House of Dripping Gore 08:03
2. Night Gallery 07:41
3. Spells of the Necromancer 01:35
4. Evil That Haunts This Ground 07:02
5. Black Candle Seance 05:11
6. Creature Feature 07:17
7. Into the Crypts 01:17
8. Murderous Mr. Hyde 06:43
9. Last Drop of Blood 07:13
10. Final Resting Place 02:06
******************************
Total playing time: 54:08




[more=Technical info]
Input File: 04 Evil That Haunts This Ground.mp3
Channels : 2
Sample Rate : 44100
Precision : 16-bit
Duration : 00:07:01.89 = 18605349 samples = 31641.8 CDDA sectors
File Size : 17.3M
Bit Rate : 328k
Sample Encoding: MPEG audio (layer I, II or III)
Comments :
Title=Evil That Haunts This Ground
Artist=Druid Lord
Album=Grotesque Offerings
Tracknumber=4
Year=2018
Genre=Death/Doom Metal

[/more]

Register
(41) AHBAnep, andreikun, babanguida, bc_, BERZERK, Black Cat, CelticSPB, desekrator, doomTemplar, Doooomed, Hell_Is_Here, Hell_Knight, marilin, megorra, metala, MetallWarriorRus, Mogozoz, Moonshtook, morbidangelo, necromasochist, Ostinato, raattent, Rosen, RUDACHUR, Saalingurth, SaintVitus, Samaritianin, Sanc, Scorpi, Scuns, suseka, THROWER666, Tino, tOmV, Unkle Jonny, vader69, VALERY, varlam4, WOLAND, Zaephar, zotyo1975,
Oct 29 2017, 14:26:48 Midnight - Sweet Death And Ecstasy (2017)


*Artist: Midnight
*Album: Sweet Death And Ecstasy
*Year: 2017
*Genre: Black/Speed Metal
*Country: United States
*Format: mp3@CBR320kbps
*Size: 79MB

Tracklist:
1. Crushed by Demons 06:26
2. Penetratal Ecstasy 03:43
3. Here Comes Sweet Death 03:41
4. Melting Brain 01:57
5. Rabid! 03:25
6. Bitch Mongrel 03:05
7. Poison Trash 03:17
8. Before My Time in Hell 06:28
******************************
Total playing time: 32:02



[more=Technical info]
Input File: midnight - sweet death and ecstasy (cd, lp, tape) - 02 - 02 penetratal ecstasy.mp3
Channels : 2
Sample Rate : 44100
Precision : 16-bit
Duration : 00:03:43.01 = 9834521 samples = 16725.4 CDDA sectors
File Size : 9.75M
Bit Rate : 350k
Sample Encoding: MPEG audio (layer I, II or III)
Comments :
Title=02 Penetratal Ecstasy
Artist=Midnight
Album=Sweet Death and Ecstasy (CD, LP, TAPE)
Tracknumber=2
Year=2017
Genre=Speed Metal

[/more]

Register
(60) abob, An225, Asketto, asob238, BladeOvDarkness, boby9052, Boozer, Buregon, cist, cryptal, Dark Sage, DarkHorde, dermarsoran, Disgorge666, DMIYUR, dvlz, ENDSMOUTH, ExeThrash, Exxie, gongshow, helvetestoner, Immortality, Incantatore, infiltrator, jpvalentim, juand, Kehl05, khestanow3001, Legacy100, Leolomb, marilin, metala, Mogozoz, multizwilling, Necromayhem, neoatheist, oldvarg, Ostinato, potap03020100, princeshr, Rakkot, Razorbladeswaltz, Rosen, Rover, SameMan, samezzz, scorn33, Spunkynut, Styx, Tino, titorrante, VALERY, varlam4, VTX, wgs73, wn129aa, wreak, WX419, xska, Абигор,
Sep 30 2017, 00:33:26 The Chasm - A Conscious Creation From The Isolated Domain - Phase I (2017)


*Artist: The Chasm
*Album: A Conscious Creation From The Isolated Domain - Phase I
*Year: 2017
*Genre: Death Metal
*Country: Mexico
*Format: mp3@CBR320kbps
*Size: 143MB

Tracklist:
1. CC I 6:11
2. CC II 5:24
3. CC III 4:45
4. CC IV 6:32
5. CC V 5:56
6. CC VI 5:47
7. CC VII 6:54
8. CC VIII 1:18
9. CC IX 6:51
10. CC X 5:45
11. CC XI 10:00
******************************
Total playing time: 1:05:23

[more=Technical info]
Input File: 01 cc1.mp3
Channels : 2
Sample Rate : 44100
Precision : 16-bit
Duration : 00:06:10.65 = 16345665 samples = 27798.7 CDDA sectors
File Size : 14.9M
Bit Rate : 323k
Sample Encoding: MPEG audio (layer I, II or III)
Comments :
Title=CC I
Artist=The Chasm
Album=A Conscious Creation from the Isolated Domain - Phase I
Tracknumber=1/11
Year=2017
Genre=Progressive/Melodic Death Metal
Discnumber=1/1

[/more]

Register
(53) Alfredoelruso, Amsterdam, analbleeding, andreikun, apo1, BigFallos, Boozer, Buregon, Dmitry1977, ENDSMOUTH, eternald, Exxie, fishish, ForzaMinardi1977, Glop, Hell_Is_Here, helvetestoner, insufferable, joaoccbento, jollo, kauyumari, maochen, metal73, metala, metalfanatic666, METALHUNTER, milosdjor, Mist13Signifier, MMMMM, neurogrim, Ostinato, princeshr, Reverend, Rosen, SAPOGi, Spork, SymbyoticEntity, SyncestrA, TeamatSE, THROWER666, Tino, troll_swamp, Tular, VALERY, varlam4, vyacheslav, Wolfera, wreak, WX419, xiuhcoatl075, xska, yuratroll, Zenial,
Aug 18 2017, 23:53:37 Pagan Altar - The Room Of Shadows (2017)


*Artist: Pagan Altar
*Album: The Room Of Shadows
*Year: 2017
*Genre: Heavy/Doom Metal
*Country: United Kingdom
*Format: mp3@CBR320kbps
*Size: 112MB

Tracklist:
1. Rising of the Dead 08:52
2. The Portrait of Dorian Gray 05:06
3. Danse Macabre 07:49
4. Dance of the Vampires 06:33
5. The Room of Shadows 06:30
6. The Ripper 10:36
7. After Forever 01:33
******************************
Total playing time: 46:59



[more=Technical info]
Input File: 02 The Portrait of Dorian Gray.mp3
Channels : 2
Sample Rate : 44100
Precision : 16-bit
Duration : 00:05:05.74 = 13483222 samples = 22930.6 CDDA sectors
File Size : 13.7M
Bit Rate : 357k
Sample Encoding: MPEG audio (layer I, II or III)
Comments :
Title=02 The Portrait of Dorian Gray
Artist=Pagan Altar
Album=The Room of Shadows
Tracknumber=2/7
Year=2017
Genre=Heavy/Doom
Discnumber=1/1

[/more]

Register
(55) abob, acerbus, AHBAnep, Amsterdam, Asle, avkruchinin, Azureknight, Beazth, BlaspherionFLUL, Boozer, Buregon, cryptal, Daale, DarkFlame, desekrator, Kalnasra, kauyumari, killingod, lordbathor, Lux, maochen, marilin, metala, Mogozoz, Moonshtook, NappyRob, Narasimha, nospeedlimit, Old Vyaine, Olrak, Oskulum, princeshr, Protey, rebornflms95, Rosen, Rover, s810ic1, Sabbathian, Samaritianin, SAPOGi, snot, Spork, Synthaeon, thenecromancer, timepower, Un4given, vader69, vosmidesijatye, Wise.man, Wolfera, wreak, WX419, Yarri, ZA670, Zaephar,
Jun 25 2017, 14:19:04 Heresiarch - Death Ordinance (2017)


*Artist: Heresiarch
*Album: Death Ordinance
*Year: 2017
*Genre: Black/Death Metal
*Country: New Zealand
*Format: mp3@CBR192kbps
*Size: 58MB

Tracklist:
1. Consecrating Fire 03:58
2. Storming upon Knaves 03:11
3. Harbinger 04:07
4. Ruination 05:27
5. The Yoke 02:53
6. Iron Harvest 07:00
7. Lupine Epoch 02:00
8. Righteous Upsurgence 04:32
9. Desert of Ash 07:42
******************************
Total playing time: 40:50




Register
(16) Boozer, Exxie, Goatrex, infiltrator, Kehl05, kim666, metala, murian, neoatheist, neurogrim, Ostinato, Rosen, RUSP73, Sanc, varg-38ru, Zaephar,
Jun 13 2017, 14:47:32 Katavasia - Daemonic Offering [ep] (2017)


*Artist: Katavasia
*Album: Daemonic Offering [ep]
*Year: 2017
*Genre: Black Metal
*Country: Greece
*Format: mp3@CBR320kbps
*Size: 21MB

Tracklist:
1. Requiem for the Nocturnal Lover 05:09
2. Diabolical Spirit 05:09
******************************
Total playing time: 10:18



[more=Extended info]line-up:
Foivos - Drums (Agnes Vein, Freefall, Hail Spirit Noir (live), Sicks Daze, ex-Circle of Mushrooms)
Astrous - Guitars (Aenaon, Agos, ex-Majeste Simphonia, ex-Black Winter, ex-Disolvo Animus)
Achilleas C. - Guitars, Bass (Aenaon, Varathron, ex-Incorporeal, ex-Tortured, ex-Chaotic Symmetry)
Haris - Keyboards (Hail Spirit Noir, Transcending Bizarre?)
Necroabyssious - Vocals (Funeral Storm, Varathron, ex-Kawir, ex-Sickness Mind, ex-Terra Vivante, ex-Wolf)
[/more]

[more=Technical info]
Input File: 01. Requiem For The Nocturnal Lover.mp3
Channels : 2
Sample Rate : 44100
Precision : 16-bit
Duration : 00:05:10.05 = 13673205 samples = 23253.8 CDDA sectors
File Size : 12.4M
Bit Rate : 320k
Sample Encoding: MPEG audio (layer I, II or III)
Comments :
Title=Requiem For The Nocturnal Lover
Artist=Katavasia
Album=Daemonic Offering [ep]
Tracknumber=1
Year=2017
Genre=Black Metal

[/more]

Register
(27) 1968_janeart, acerbus, artscald, Boozer, ddarkthrone, Emhyr var Emreis, Hell_Is_Here, Ildjarn, Immortality, kim666, Mist13Signifier, mizantrophist, Ostinato, rammmirez, rom666, Rosen, RUSP73, skeletron215, templ, Tular, VALERY, varlam4, vasiljev_sergej, Velkaarn, Wolfera, Wolftribes, wtk.412,
Apr 8 2017, 01:40:39 Craven Idol - The Shackles Of Mammon (2017)


*Artist: Craven Idol
*Album: The Shackles Of Mammon
*Year: 2017
*Genre: Black/Thrash Metal
*Country: United Kingdom
*Format: mp3@CBR256kbps
*Size: 84MB

Tracklist:
1. Pyromancer 02:33
2. A Ripping Strike 05:23
3. Black Flame Divination 03:41
4. The Trudge 07:45
5. Dashed to Death 05:54
6. Mammon Est 05:16
7. Hunger 05:56
8. Tottering Cities of Men 08:37
******************************
Total playing time: 45:05




Register
(35) artscald, Ash_1980, avkruchinin, BladeOvDarkness, Boozer, Buregon, Evilded, ExeThrash, FLUGgER, Immortality, isvili, Kehl05, METALHUNTER, Narasimha, obituarydark, oldvarg, Ostinato, rom666, Rosen, Samaritianin, samezzz, satanist666, shurapindos666, Storky, SymbyoticEntity, SyncestrA, TeamatSE, Tino, toly1917, VALERY, varlam4, VTX, Wolftribes, xeper86, YDV.SVARTVIND,
Mar 15 2017, 16:22:57 Pallbearer - Heartless (2017)


*Artist: Pallbearer
*Album: Heartless
*Year: 2017
*Genre: Doom Metal
*Country: United States
*Format: mp3@CBR320kbps
*Size: 140MB

Tracklist:
1. I Saw the End 06:21
2. Thorns 05:24
3. Lie of Survival 08:25
4. Dancing in Madness 11:47
5. Cruel Road 07:13
6. Heartless 08:09
7. A Plea for Understanding 12:40
******************************
Total playing time: 59:59




[more=Technical info]
Input File: 02_Thorns.mp3
Channels : 2
Sample Rate : 44100
Precision : 16-bit
Duration : 00:05:24.92 = 14328884 samples = 24368.9 CDDA sectors
File Size : 13.0M
Bit Rate : 320k
Sample Encoding: MPEG audio (layer I, II or III)
Comments :
Title=Thorns
Artist=Pallbearer
Album=Heartless
Tracknumber=2/7
Year=2017
Genre=Metal
Discnumber=1/1

[/more]

Register
(62) acerbus, amor, AndreFrancis, avather, Black Cat, Boozer, BRUTAL06, Buregon, cesar, Daale, DarkHorde, ENDSMOUTH, EpicDoomLord, fishish, ForzaMinardi1977, garml2, Gatherforattack, Hammaren, Hell_Is_Here, HMHamster, Hroedmar, igorzz, Indamage, J0k3r, jpvalentim, judaz, Jurmagund, Lord_Djaspam, Lord_Krest, macumbista, Metalass, Mogozoz, Narasimha, Old Vyaine, oldvarg, paganheart, princeshr, qpMM, Radek, repulssion, rewa, Rosen, RUDACHUR, s810ic1, SAPOGi, SatanicPanzer, SeeNoEvil, stone88, Strangler, thenecromancer, Tino, Torlof, Ufasas, Un4given, VALERY, varlam4, Wolfera, WX419, xska, yuratroll, ZambuL, Zenial,
Mar 5 2017, 19:14:09 Anomalie - Visions (2017)


*Artist: Anomalie
*Album: Visions
*Year: 2017
*Genre: Post-Black Metal
*Country: Austria
*Format: mp3@CBR320kbps
*Size: 116MB

Tracklist:
1. Vision I: Towards the Sun 08:12
2. Vision II: The Wanderer 06:02
3. Vision III: A Monument 11:26
4. Vision IV: Illumination 06:21
5. Vision V: Starless Nights 05:15
6. Vision VI: White Forest 06:11
7. Vision VII: One with the Soil 08:01
******************************
Total playing time: 51:28



[more=Extended info]line-up:
Marrok - Everything (Harakiri for the Sky (live), ex-Selbstentleibung, ex-Tulsadoom, ex-Agrypnie (live), ex-Heretoir (live), ex-Noctiferum (live), ex-The Vision Bleak (live), ex-Panzerhass)
Thomas Dornig - Bass (session) (Harakiri for the Sky (live), ex-Dismal Lumentis)
Lukas S. - Drums (session) (Bifröst, ex-Selbstentleibung, ex-Nebelfront (live))
[/more]

[more=Technical info]
Input File: 02 - vision ii_ the wanderer.mp3
Channels : 2
Sample Rate : 44100
Precision : 16-bit
Duration : 00:06:02.64 = 15992512 samples = 27198.1 CDDA sectors
File Size : 14.6M
Bit Rate : 321k
Sample Encoding: MPEG audio (layer I, II or III)
Comments :
Title=Vision II: The Wanderer
Artist=Anomalie
Album=Visions
Tracknumber=2
Year=2017
Genre=Post-Black Metal

[/more]

Register
(40) 1968_janeart, Black Cat, BlackArrow, blackenedsun, Buregon, Dark_Viking, Doooomed, Fess, fylopaloma, Groundzerocorpse1990, igorzz, Immortality, Indamage, judaz, kim666, kolar666, Konst, krotovich, Lamby90, Lord_Krest, Maximvs, MeatWolf, MMMMM, NachtWulf, Ostinato, PlagueSerpent, popen13, respect, Rosen, satanist666, stone88, Storky, stub888, Torlof, varg-38ru, varlam4, Velemysl, vov7609, Zenial, Спектр,
Feb 4 2017, 17:20:53 Sinister - Syncretism (2017)


*Artist: Sinister
*Album: Syncretism
*Year: 2017
*Genre: Death Metal
*Country: Netherlands
*Format: mp3@CBR192kbps
*Size: 68MB

Tracklist:
1. Neurophobic 5:44
2. Convulsion of Christ 5:38
3. Blood Soaked Domain 6:29
4. Dominance by Acquisition 5:18
5. Syncretism 5:24
6. Black Slithering Mass 3:42
7. Rite of the Blood Eagle 5:58
8. The Canonical Rights 3:57
9. Confession Before Slaughter 6:07
******************************
Total playing time: 48:17



Register
(44) Aresson, avkruchinin, Black Cat, boby9052, dorn1, DrkKnight, fabriziomagno, Fess, hofelia, Indamage, iRonIC, jollo, judaz, killingod, KVRT, lucifix, MMMMM, oldthrashman, Orgasmik, Ostinato, Penetralia, Pinhead666, RENыч, ripper33, Rosen, Ruben, RUSP73, SadistikSlayer, Samogon, samokot, satanist666, Sergei78, ShmiT, StanleyClarke, Strangler, SymbyoticEntity, TeamatSE, thenecromancer, VALERY, victorinox, vov7609, wgs73, xiuhcoatl075, Zahrim,
Jan 29 2017, 17:42:31 Infamovs - Under The Seals Of Death (2017)


*Artist: Infamovs
*Album: Under The Seals Of Death
*Year: 2017
*Genre: Death Metal
*Country: Chile
*Format: mp3@CBR320kbps
*Size: 79MB

Tracklist:
1. Into the Death 1:16
2. Dawn of the Black Dance 5:11
3. Call upon Blasphemovs 3:02
4. Impure Plaguiarisms 3:04
5. God of Pestilence 3:38
6. Of Force and Plague 5:20
7. Interlude 3:54
8. Serpent of Sin 4:54
9. Chaos-Madness 3:51
******************************
Total playing time: 34:10



[more=Technical info]
Input File: 03 Call Upon Blasphemovs.mp3
Channels : 2
Sample Rate : 44100
Precision : 16-bit
Duration : 00:03:01.88 = 8021084 samples = 13641.3 CDDA sectors
File Size : 7.75M
Bit Rate : 341k
Sample Encoding: MPEG audio (layer I, II or III)
Comments :
Title=03 Call Upon Blasphemovs
Artist=Infamovs
Album=Under the Seals of Death
Tracknumber=3
Year=2017
Genre=Death Metal

[/more]

Register
(27) An225, andreikun, Buregon, cuimit1349, Hell_Is_Here, jollo, Mist13Signifier, MMMMM, morbidangelo, Ostinato, piscuce, potap03020100, rom666, Rosen, RUSP73, Samaritianin, Spork, SymbyoticEntity, TeamatSE, THROWER666, Tino, VALERY, varlam4, Velmi, vyacheslav, WX419, Абигор,
Jan 15 2017, 16:33:43 Árstíðir Lífsins - Heljarkviða [ep] (2016)


*Artist: Árstíðir Lífsins
*Album: Heljarkviða [ep]
*Year: 2016
*Genre: Folk Black Metal
*Country: Iceland
*Format: mp3@CBR320kbps
*Size: 103MB

Tracklist:
1. Heljarkviða I: Á helvegi 19:59
2. Heljarkviða II: Helgrindr brotnar 20:53
******************************
Total playing time: 40:52



[more=Technical info]
Input File: 01 Heljarkvi?a I- ? helvegi.mp3
Channels : 2
Sample Rate : 44100
Precision : 16-bit
Duration : 00:19:60.00 = 52919912 samples = 89999.9 CDDA sectors
File Size : 48.0M
Bit Rate : 320k
Sample Encoding: MPEG audio (layer I, II or III)
Comments :
Title=HeljarkviГ°a I: ГЃ helvegi
Artist=ГЃrstГ­Г°ir lГ­fsins
Album=Heljarkvi?a
Tracknumber=1/2
Year=2016
Genre=Folk Black Metal
Discnumber=1/1

[/more]

Register
(70) 1968_janeart, AHBAnep, ALBIGON, Amadeus, An225, andeimon, andivi, Aresson, avather, BlaspherionFLUL, Blut aus Nord, Boozer, BrutalAsFuck, Buregon, cancer1974, Cartman223, CultMetalSerge, Darkthronefoad, dromord, Druidir, fabriziomagno, Farung, Fess, gav-gafi, Hell_Is_Here, Immortality, IzverGOD, Kazoth, kefka, kim666, lestllk, LordOvDarkness, lucifix, Lux, Maximvs, milosdjor, Moonshtook, morbidangelo, murian, NachtWulf, neoatheist, Ostinato, QuadenThyrane, razor7, Razorbladeswaltz, rom666, Rosen, Ruben, RUDACHUR, RUSP73, satanist666, ShmiT, smes, snorr, squall8fr, stone88, Surt, tont, Ulfgrimm, varlam4, vasiljev_sergej, Velmi, Victim of fate, vobiscum, Winterkalte, Wolfera, yuratroll, ZA670, ZambuL, Zenial,
Jan 13 2017, 14:12:24 Beheaded - Beast Incarnate (2017)


*Artist: Beheaded
*Album: Beast Incarnate
*Year: 2017
*Genre: Death Metal
*Country: Malta
*Format: mp3@CBR256kbps
*Size: 74MB

Tracklist:
1. Beast Incarnate 04:25
2. The Horror Breathes 04:01
3. Crossing the House of Knives 03:30
4. Reign of the Headless King 04:37
5. The Black Death 08:03
6. Cursed Mediterranean 03:58
7. Fid-dlam ta' dejjem 04:38
8. Punishment of the Grave 06:53
******************************
Total playing time: 40:05



Register
(69) 6666666, aa144aa, ad73, AHBAnep, andreikun, artscald, avkruchinin, Boozer, Buregon, CartonCorrugado, CRUNCH, cuimit1349, Darkthronefoad, dead4, djsema4, Fess, Golfzilla, gusto24191, Hammaren, Indamage, infiltrator, JAWA, jollo, jpvalentim, judaz, Kazoth, killingod, Kisser, Korpse, KVRT, lucifix, maochen, MeathookSeed, metal73, metala, METALHUNTER, MetallWarriorRus, Mithras_spb, MMMMM, morbidangelo, nadin85, neoatheist, Ostinato, Paradayz, Pentium.Disel, Precaria, princeshr, rammstein888, Razorbladeswaltz, Rosen, Ruben, Saalingurth, SAPOGi, satanist666, StabWound, Storky, SymbyoticEntity, TeamatSE, Tino, toly1917, Typhoid, VALERY, varlam4, vobiscum, wgs73, wrath082, xiuhcoatl075, yuratroll, Варонъ,
Dec 30 2016, 23:50:18 Fides Inversa - Rite Of Inverse Incarnation [ep] (2017)


*Artist: Fides Inversa
*Album: Rite Of Inverse Incarnation [ep]
*Year: 2017
*Genre: Black Metal
*Country: Italy
*Format: mp3@CBR224kbps
*Size: 31MB

Tracklist:
1. First Congress 10:06
2. Rite of Inverse Incarnation 9:30
******************************
Total playing time: 19:36

[more=Extended info]line-up:

Omega A.D. - Drums, Vocals (Blut aus Nord, Darvaza, Deathrow, Frostmoon Eclipse, Kult, Liber Null, Manetheren, Martröð, Moloch, Tumulus Anmatus, Tundra (live), ex-In Extremo Spiritu, ex-Nocratai, ex-11 as in Adversaries, ex-Acherontas, ex-Glorior Belli, ex-Handful of Hate, ex-Macabre Omen, ex-Satanic Supplicia, ex-Svlfvr, ex-Enthroned (live), ex-Hobbs' Angel of Death (live), ex-Pure (live), ex-The One (live), ex-Violentor (live), ex-Entropic Degrade Behind Phylogeny)

Void A.D. - Guitars, Bass
[/more]

Register
(27) 1968_janeart, Bestial_Summoning, Buregon, El_Chibo, Hell_Is_Here, Immortality, milosdjor, morbidangelo, murian, NachtWulf, Ostinato, Premature_Devotion, rom666, Rosen, RUSP73, senecazm, SilentNidhogg, soulskinner681, Srinelli, stub888, Torlof, VALERY, varg-38ru, vasiljev_sergej, vov7609, yuratroll, Спектр,
Dec 23 2016, 23:25:46 Insulters - Metal Still Means Danger (2017)


*Artist: Insulters
*Album: Metal Still Means Danger
*Year: 2017
*Genre: Black/Thrash Metal
*Country: Spain
*Format: mp3@CBR192kbps
*Size: 52MB

Tracklist:
1. Age of Terror 3:29
2. Highway of Death 3:19
3. Icons & Symbols 3:18
4. Bang Your Fucking Skull 3:08
5. Forged in Hell's Fire 4:58
6. Bastard Soldiers 4:24
7. Burn with the Witch 5:30
8. Here Falls the Hammer 3:50
9. Metal Still Means Danger 6:17
******************************
Total playing time: 38:13



Register
(27) avkruchinin, Boozer, Buregon, cancer1974, DarkHorde, Diflock, Eugenio, ExeThrash, Exxie, je5uck, metala, morbidangelo, neoatheist, oldvarg, Ostinato, rebornflms95, Rosen, RUSP73, Samaritianin, satanist666, scorn33, SymbyoticEntity, toly1917, varg-38ru, wgs73, xiuhcoatl075, Zaephar,
Dec 19 2016, 12:45:35 Isengard - Traditional Doom Cult [ep] (2016)


*Artist: Isengard
*Album: Traditional Doom Cult [ep]
*Year: 2016
*Genre: Traditional Doom Metal
*Country: Norway
*Format: mp3@CBR320kbps
*Size: 24MB

Tracklist:
1. The Light 05:36
2. The Fright 05:18
******************************
Total playing time: 10:54

[more=Extended info]A collector's dream come true, Traditional Doom Cult contains two rare and unreleased tracks from Darkthrone's Fenriz under the Isengard banner, the iconic solo project of Darkthrone's Fenriz, which was active from the late 1980s to the mid-1990s.

Tracks include The Light - an early song recorded in 1989 - and The Fright from the early 1990s. Both tracks bring to mind the doom-laden grooves (draped in darkness!) present on Isengard's debut release, Vinterskugge.

The recordings were made at the legendary Necrohell studios with Fenriz responsible for all instruments and vocals.

Traditional Doom Cult contains liner notes from Fenriz explaining the background to the tracks.
[/more]

[more=Technical info]
Input File: Isengard - Traditional Doom Cult - A - The Light.mp3
Channels : 2
Sample Rate : 48000
Precision : 16-bit
Duration : 00:05:29.11 = 15797376 samples ~ 24683.4 CDDA sectors
File Size : 13.2M
Bit Rate : 320k
Sample Encoding: MPEG audio (layer I, II or III)
Comments :
Title=The Light
Artist=Isengard
Album=Traditional Doom Cult
Tracknumber=A/2
Genre=Doom Metal

[/more]

Register
(64) Alexis The Best, AndreFrancis, Ariox, Asle, bka, Boozer, Borderline1991, BRUTAL06, cancer1974, ddarkthrone, djsema4, dma-09, DMIYUR, fabriziomagno, Femto, Fryz, gena, Goatrex, heinz88, Hell_Is_Here, homelike, Hroedmar, Infidel, Jurmagund, kauyumari, Kazoth, kostja, krmu2, lafuma, Lanceatum, Leiche, Lord Noctua, lucifix, marilin, martintrue, Mogozoz, Moonshtook, morbidangelo, Namnlos, Necroeire, Occultas, oldvarg, phillipjorge, rammmirez, recber, rockwell666, Rosen, rpa, RUDACHUR, RUSP73, s810ic1, Semargl2010, soulskinner681, Storky, stub888, svartrest, svndvst, templ, thenecromancer, VALERY, varlam4, Wolfera, wtk.412, xska,
Dec 19 2016, 00:05:26 Disharmonic Orchestra - Fear Of Angst (2016)


*Artist: Disharmonic Orchestra
*Album: Fear Of Angst
*Year: 2016
*Genre: Progressive Death/Avant-garde Metal
*Country: Austria
*Format: mp3@CBR320kbps
*Size: 95MB

Tracklist:
1. Fear of Angst 3:38
2. Flushing the Primary 5:13
3. Innamorato 3:15
4. Aura 2:13
5. Protone Radius 5:23
6. The Venus Between Us 3:15
7. Rascal in Me 6:04
8. Flambition 5:52
9. Down to Earth 4:46
******************************
Total playing time: 39:39



[more=Technical info]
Input File: 1-01 - fear of angst.mp3
Channels : 2
Sample Rate : 44100
Precision : 16-bit
Duration : 00:03:37.88 = 9608684 samples = 16341.3 CDDA sectors
File Size : 8.95M
Bit Rate : 329k
Sample Encoding: MPEG audio (layer I, II or III)
Comments :
Title=Fear of Angst
Artist=Disharmonic Orchestra
Album=Fear of Angst
Tracknumber=1
Year=2016
Genre=Death Metal
Discnumber=1

[/more]

Register
(85) 6666666, acerbus, aesteticvice, andreikun, as71, avkruchinin, blackbox13, BRUTAL06, Buregon, cancer1974, chill, ChrisK, Coroner, cryptal, ddarkthrone, dma-09, DMIYUR, DowntownGsus, Emhyr var Emreis, fabriziomagno, frwd, garml2, gusto24191, gwar, hammer, Hell_Is_Here, igorzz, Illogicist, insufferable, jollo, judaz, Kehl05, killingod, Kuzya, lanius, lucifix, Lux, mardak666, martintrue, metal73, metala, METALHUNTER, Mist13Signifier, MMMMM, Moonshtook, morbidangelo, Necromayhem, Old Vyaine, oldvarg, Orgasmik, Ostinato, Paradayz, popen13, recber, Requiescat, ripper33, roaroma, Rosen, RotAnus, RunningWild_AT, Sanc, satanath, Scuns, senecazm, snake, sperminator, StabWound, SymbyoticEntity, SyncestrA, Tino, Typhoid, VALERY, vam1972, varlam4, Vital157, vov7609, vyacheslav, wtk.412, xiuhcoatl075, Xor, Xutun, yuratroll, Варонъ, Луч, Язва,
Dec 15 2016, 00:15:08 Echelon - The Brimstone Aggrandizement (2016)


*Artist: Echelon
*Album: The Brimstone Aggrandizement
*Year: 2016
*Genre: Death Metal
*Country: United Kingdom
*Format: mp3@CBR192kbps
*Size: 53MB

Tracklist:
1. Plague of the Altruistic 04:58
2. The Forbidden Industry 04:16
3. Lex Talionis 04:28
4. Of Warlocks and Wolves 03:37
5. The Brimstone Aggrandizement 03:27
6. Vital Existence 03:44
7. The Feared Religion 04:03
8. Monsters in the Gene Pool/Sonic Vortex 06:08
******************************
Total playing time: 34:41




[more=Extended info]line-up:
Johan Berglund - Bass (Demiurg, The Grotesquery, ex-The Skeletal, ex-This Haven, ex-Ribspreader)
Travis Ruvo - Drums (Among the Decayed, Cropsy Maniac, Goatsoldiers, Wormfood, Akatharta, ex-Blood Freak)
Kjetil Lynghaug - Guitars (Mordenial, Paganizer)
Rogga Johansson - Guitars (Demiurg, Down Among the Dead Men, Humanity Delete, Johansson & Speckmann, Megascavenger, Minotaur Head, Necrogod, Paganizer, Putrevore, Revolting, Ribspreader, Severed Limbs, The Grotesquery, ex-Bloodgut, ex-Carve, ex-Dead Sun, ex-Foreboding, ex-Swarming, ex-Terminal Grip, ex-Those Who Bring the Torture, Eaten (Swe), Lobotomy Dept, ex-Banished from Inferno, ex-Fondlecorpse, ex-Graveyard After Graveyard, ex-Sinners Burn, ex-Soulburn, ex-The 11th Hour, ex-Deranged (live), ex-Bone Gnawer, ex-To the Gallows)
Dave Ingram - Vocals (Down Among the Dead Men, Hail of Bullets, ex-Downlord, ex-Strangler, ex-Benediction, ex-Eyegouger, ex-Bolt Thrower)
[/more]

Register
(31) andreikun, as71, Boozer, Buregon, cesar, Daale, DarkHorde, Darkthronefoad, Hell_Is_Here, jollo, Kehl05, Mist13Signifier, MMMMM, morbidangelo, neoatheist, Ostinato, Razorbladeswaltz, Rosen, RUSP73, russ777, samokot, suseka, TeamatSE, THROWER666, Tino, VALERY, varlam4, vosmidesijatye, vyacheslav, wgs73, wrath082,
Nov 21 2016, 23:53:23 Decrepit Soul - The Coming Of War!! (2016)


*Artist: Decrepit Soul
*Album: The Coming Of War!!
*Year: 2016
*Genre: Black/Death Metal
*Country: Australia
*Format: mp3@CBR320kbps
*Size: 66MB

Tracklist:
1. Awaken 05:08
2. Feral Howling Winds 03:48
3. The Coming of War 04:09
4. Perished in Flames 04:11
5. Piscatorial Death 04:05
6. Black Goats Breath 02:51
7. Storm of Steel 05:43
******************************
Total playing time: 29:55



[more=Extended info]line-up:
Kakorot - Vocals, Guitars (See also: ex-Altars of Sin, Violent Bloodshed)
Marcus Hellcunt - Drums (Anatomy, Vomitor, ex-Bestial Warlust, ex-Entasis, ex-Demonreich, ex-Gospel of the Horns)
[/more]

[more=Technical info]
Input File: 02 Feral Holwing Winds.mp3
Channels : 2
Sample Rate : 44100
Precision : 16-bit
Duration : 00:03:47.71 = 10042099 samples = 17078.4 CDDA sectors
File Size : 9.28M
Bit Rate : 326k
Sample Encoding: MPEG audio (layer I, II or III)
Comments :
Title=Feral Howling Winds
Artist=Decrepit Soul
Album=The Coming of War!!
Tracknumber=2
Year=2016
Genre=War Black Metal

[/more]

Register
(25) Buregon, cuimit1349, DarkHorde, Darkthronefoad, ddarkthrone, Dmitry1977, Hell_Is_Here, kefka, Kehl05, kolar666, marilin, MMMMM, morbidangelo, Ostinato, rom666, Rosen, RUSP73, SS2998, SymbyoticEntity, THROWER666, Tino, VALERY, varlam4, vyacheslav, Wolftribes,
Nov 20 2016, 13:39:47 Hoath - Codex III: Crown Of The Mind (2016)


*Artist: Hoath
*Album: Codex III: Crown Of The Mind
*Year: 2016
*Genre: Black/Death Metal
*Country: Finland
*Format: mp3@VBR270kbps
*Size: 74MB

Tracklist:
1. Embodiment of Ultimate Existence 02:47
2. With the Lightning of Eye 02:22
3. Crown of the Mind 02:31
4. Behold the Soul (Profane Research) 03:14
5. By Spell and Hoofs of Steel 03:44
6. Upon the Sixth Theorem 04:21
7. Of Virgin Moon and Serpent 01:47
8. Anael 02:54
9. Proclamation of the Crowned and Conquering Child 04:35
10. Courage, Pride and Triumph 02:25
11. To the Mother of Abominations 02:58
12. Exultant upon the Ruined Earth 03:30
******************************
Total playing time: 37:08



[more=Extended info]line-up:
Shatraug - Guitars, Bass (Black Stench, Finnentum, Gandr, Horna, Mortualia, My Torments, Necroslut, Nightbringer, Sargeist, Sinisterite, Striges, Uhraus, Vordr, Vritra, Demonic Christ (live), ex-Foudre Noire, ex-Mirkhall, ex-Skullcrusher, ex-Tyrannium, ex-Morbid Savouring, ex-Battle, ex-Blutschrei, ex-Behexen, ex-Drowning the Light (live), ex-Vornat (live), ex-Ravening, ex-Seer of Curses)

vHolm - Vocals, Drums (Mental Terror, Vordr, Satanic Warmaster (live), ex-Khert-Neter, ex-Ravening, ex-Laconian)
[/more]

Register
(34) Anhra Mainyu, Apollyonthrone, Asle, Buregon, cuimit1349, d0zer, DarkHorde, Exxie, gena, Hell_Is_Here, Immortality, judaz, kim666, lestllk, maochen, marilin, metala, mondblut, morbidangelo, Narasimha, Ostinato, Razorbladeswaltz, Rosen, Sanc, snake, SSWolf88, Storky, SyncestrA, Tino, toly1917, VALERY, Velmi, vyacheslav, Абигор,
Nov 7 2016, 20:47:34 Spiritus Mortis - The Year Is One (2016)


*Artist: Spiritus Mortis
*Album: The Year Is One
*Year: 2016
*Genre: Doom Metal
*Country: Finland
*Format: mp3@CBR192kbps
*Size: 79MB

Tracklist:
1. Robe of Ectoplasm 03:58
2. I Am a Name on Your Funeral Wreath 06:13
3. Babalon Working 07:01
4. Jesus Christ, Son of Satan 04:12
5. Holiday in the Cemetery 09:56
6. She Died a Virgin 05:21
7. Black Magic, White Powder 07:36
8. World of No Light 08:59
******************************
Total playing time: 53:16



Register
(25) An226, Anatol, Buregon, DenisKov, djsema4, EpicDoomLord, KVRT, marilin, metala, Mogozoz, muskatnuss, Ostinato, princeshr, Rosen, RUDACHUR, s810ic1, SatanicPanzer, Spork, Spunkynut, thenecromancer, TitiNotDead, Un4given, VALERY, Veggr, vosmidesijatye,
Oct 30 2016, 12:36:59 Necroven - Primordial Subjugation (2016)


*Artist: Necroven
*Album: Primordial Subjugation
*Year: 2016
*Genre: Death Metal
*Country: Spain
*Format: mp3@CBR256kbps
*Size: 73MB

Tracklist:
1. Sacrificial Deliverance 6:00
2. The Pyre Cycle (Burn in Solitude) 3:10
3. Primordial Subjugation 5:12
4. The Ethereal 5:11
5. Esoteric Entropy (Gateway to the End) 7:17
6. Martyrs of Repentance 5:16
7. Serpents Crawl Stealthy 3:40
******************************
Total playing time: 35:46



Register
(36) ALEXSATHANAS, andreikun, Beazth, boba, Boozer, Brann, Buregon, cuimit1349, Darkthronefoad, desekrator, El_Chibo, Evilded, Exxie, Hell_Is_Here, jollo, judaz, metala, MetallWarriorRus, Mist13Signifier, MMMMM, neoatheist, Ostinato, Rosen, Samaritianin, satanist666, snake, Spork, Storky, SymbyoticEntity, THROWER666, Tino, toly1917, VALERY, varlam4, vyacheslav, wtk.412,
Jun 10 2016, 16:57:36 Shed The Skin - Harrowing Faith (2016)


*Artist: Shed The Skin
*Album: Harrowing Faith
*Year: 2016
*Genre: Death Metal
*Country: United States
*Format: mp3@CBR320kbps
*Size: 103MB

Tracklist:
1. Plasmic Flames 02:06
2. Daimonic Adytum 01:55
3. Harrowing Faith 03:10
4. Putrid and Pious 03:39
5. Unbound Revenant 04:05
6. Warband Under the Baphomet 02:01
7. CSUM 03:28
8. Alpha and Omega 04:44
9. Cambion 04:21
10. Inhuman Accretion 02:42
11. Innermost Sanctuary 04:04
12. Execration Divine 02:38
******************************
Total playing time: 38:53




[more=Extended info]line-up:
Ed Stephens - Bass (Ringworm, Shok Paris, Vindicator, Sixx (live), ex-Sinister, ex-Byron Nemeth, ex-Destructor, ex-Charred Walls of the Damned (live), ex-Abdullah, ex-Civil Disobedience, ex-Pete)
Kyle Severn - Drums (Incantation, Wolfen Society, ex-Acheron, ex-Funerus, ex-Divine Eve (live), ex-Vital Remains (live), ex-Escalation Anger)
Matt Sorg - Guitars (Beyond Fear, Ringworm, Soulless, Charred Walls of the Damned (live), ex-Alterrik, ex-Blood of Christ, ex-Dead of Night, ex-From the Depths, ex-Decrepit, ex-Holy Ghost)
Brian Boston - Keyboards (ex-Alterrik, ex-From the Depths)
Ash Thomas - Vocals, Guitars (Crucified Mortals, Estuary, FaithXtractor, Machinations of Fate, Surgikill, ex-Estuary of Calamity, ex-Necrolatry, Vladimirs, ex-Acheron, ex-Elusive Travel (live), ex-Thorns of the Carrion)
[/more]

[more=Technical info]
Input File: 02 Daimonic Adytum.mp3
Channels : 2
Sample Rate : 44100
Precision : 16-bit
Duration : 00:01:55.32 = 5085524 samples = 8648.85 CDDA sectors
File Size : 5.88M
Bit Rate : 408k
Sample Encoding: MPEG audio (layer I, II or III)
Comments :
Title=Daimonic Adytum
Artist=Shed the Skin
Album=Harrowing Faith
Tracknumber=2
Year=2016
Genre=Death Metal
Discnumber=1/1

[/more]

Register
(33) 0x13, AHBAnep, alexskev, Amsterdam, andreikun, Buregon, CaptianGoreGrind, cryptal, cuimit1349, desekrator, Hammaren, Mist13Signifier, MMMMM, morbidangelo, neoatheist, Ostinato, Razorbladeswaltz, realexxx75, Rosen, Samaritianin, snake, SS2998, Storky, SymbyoticEntity, Tino, VALERY, varlam4, vosmidesijatye, vyacheslav, WOLAND, wrath082, wreak, Герб,

72 Pages V   1 2 3 > » 
- Lo-Fi Version Support form
Copyrights and abuse reports form
Time is now: 14th December 2019 - 16:25:54