Welcome Guest ( Log In | Register )

История благодарностей участнику AHBAnep ::: Спасибо сказали: 7527 раз(а)
Дата поста: В теме: За сообщение: Спасибо сказали:
Yesterday, 10:43:36 The Agonist - Orphans (2019)
(1) Andrew,
Yesterday, 10:40:27 Tungsten - We Will Rise (2019)
https://music.yandex.ru/album/7695325
http://www.tungstenofficial.com
ЦИТАТА
Swedish metallers TUNGSTEN, formed by Anders Johansson (ex Hammerfall), was recently unveiled to the world and signed with Arising Empire.
(1) aviacademy,
Sep 19 2019, 12:59:31 Borknagar - True North (2019)
Да тут собрался народ, что ничего не понимает в колбасных обрезках.
Последний альбом этой банды был шикарен, а этот должен быть не хуже.
Жду 27 числа.
(2) BleedingSun, infiltrator,
Sep 15 2019, 07:06:05 Envious Despair - Envious Mothafukin Despair (2019)
https://www.youtube.com/watch?v=ENyPdDrqz7w...lK8&index=3
ЦИТАТА
A progressive EXTREME Metal band residing in the West Rand of Krugersdorp South Africa
(2) infiltrator, wendigo,
Sep 14 2019, 08:24:13 Pathogenic - Pathogenic (2019)
(1) Old Vyaine,
Sep 13 2019, 10:40:55 Eschaton - Death Obsession (2019) (1) Metalass,
Sep 13 2019, 10:21:26 Jonas Hörnqvist - L.I.A. (2019)
Jonas Hörnqvist - Treasure Land, Bleed the Hunger, DeathRiders
https://music.yandex.ru/album/8666017
Кстати, хорошо, что тут не поёт.
(1) Abrob,
Sep 13 2019, 09:31:46 Workshed - Workshed (2019)
ЦИТАТА
Experimental Doom band featuring ex Cathedral musicians Mark Wharton and Adam Lehan.

[youtube]c2nhFedHLWY[/youtube]
[youtube]DG7n5PCQSYA[/youtube]
27.gif
(3) adeptus_custodes, Baudolino, infiltrator,
Sep 13 2019, 09:28:11 Wash Of Sounds - Heaven's Crying (2019)
[youtube]0x7TE3qpDBc[/youtube]
[youtube]WM5AApuej4w[/youtube]
Никакой симфоничности нет. Melodic Heavy/AOR/Hard rock.
(2) Andrew, Old Vyaine,
Sep 13 2019, 09:22:24 Br00Tal Beefcake - Based On True Events (2019)
(1) Andrew,
Sep 12 2019, 14:28:59 Hammerschmitt - Dr.Evil (2019)
ЦИТАТА(isvili @ Sep 12 2019, 14:28:34) *
Не уж то это те легендарные из 80-ых? 13.gif

Нет, это бывший Pierrot - https://www.metal-archives.com/bands/Pierrot/128518
Такие же "легендарные" из 80-х 1488.gif. В конце 90-х косили под Раммштайн, в 2016 вернулись ближе к корням.
Но клипец в шапке неплохой, и подписаны с Massacre Records. Яркий попсоватый хэви/хард.
+
[youtube]-YiB2n32e0E[/youtube]
(1) Eisbar,
Sep 11 2019, 06:43:57 Centenary - Into The Graveless Beyond (2019)
Garage Records
(1) RUSP73,
Sep 1 2019, 19:42:07 Threshold - Two - Zero - One - Seven [live] (2018)
Среди мрака и холода Threshold всегда греет. За то им и спасибо!
Побольше бы таких "утренников".
(2) mirotvorets, Yarri,
Sep 1 2019, 16:14:10 Garden Of Eden - Mondd Tovább - Vampires Of Eden (2007)


*Artist: Garden Of Eden
*Album: Mondd Tovább - Vampires Of Eden
*Year: 2007
*Genre: Gothic Metal
*Country: Hungary
*Format: mp3@VBR225kbps
*Size: 101MB

Tracklist:
1. Az út 5:03
2. Vad álom 4:50
3. Fényhozó 4:32
4. Holdtánc 5:11
5. Valaki vár 4:57
6. Vérkirály 5:40
7. Mondd tovább 4:16
8. My time 6:12
9. Vampires of eden 3:48
10. Find a way (Bonus) 4:10
11. The crosses cry (Bonus) 6:39
12. Under stars (Bonus) 4:56
13. Outro (Bonus) 0:56
******************************
Total playing time: 1:01:10



[more=Extended info][youtube]PyBNfIAVScI[/youtube][/more]

[more=Technical info]
Input File: 13 - Outro (Bonus).mp3
Channels : 2
Sample Rate : 44100
Precision : 16-bit
Duration : 00:00:56.66 = 2498662 samples = 4249.43 CDDA sectors
File Size : 1.10M
Bit Rate : 156k
Sample Encoding: MPEG audio (layer I, II or III)
Comments :
Title=Outro (Bonus)
Artist=Garden of Eden [Hungary] !
Album=Mondd tovabb (Vampires of Eden)
Tracknumber=13
Year=2007
Genre=Dark Gothic Metal

[/more]

Register
(9) artscald, Cartman223, chipsgott, gwar, gwynnbleid, metalwoman, Olethros, Rosen, wreak,
Aug 30 2019, 09:16:20 The Curse Of Millhaven - Thresholds (2019)

Металкор не чувствую. Послушать, что ли?
(3) DenisKov, krotovich, Ostinato,
Aug 30 2019, 09:08:42 Pyogenic - Engulfed In Motherslug Muculence (2019)
Австралия, лэйбл французский.
(3) infiltrator, older68, Shadechaser,
Aug 29 2019, 15:48:32 Orm - Ir (2019)
[youtube]HTNZtXf91WI[/youtube]
(1) chromeskull88,
Aug 28 2019, 09:11:09 Рекорды очереди премодерации релизов
Предлагаю ввести "сухой закон": не более одного бутлега / сингла / демо в день от одного релизёра.
(3) infiltrator, NecroButcher, Tular,
Aug 26 2019, 08:11:12 Alkhimya - Emergence (2019)
(1) Old Vyaine,
Aug 24 2019, 11:24:26 Hellthorne - Crimson Frost And Bloodstained Oak (2019)

Банда считает, что играет блэк, и что это EP.
Склонен согласиться, что это какая-то долбёжная блэкуха.
(2) FlammenTod666, krotovich,
Aug 23 2019, 11:03:05 Sacred Reich - Awakening (2019)
У этих всё хорошее осталось в 80-х.
Вот и тут какой-то беззубый старческий трэшачок. Лучше бы не пробуждались.
(3) infiltrator, neoatheist, RUSP73,
Aug 23 2019, 10:58:22 Cemican - In Ohtli Teoyohtica In Miquiztli (2019)
Не на том языке их "ацтекский метал", ох не на том..
(1) avather,
Aug 23 2019, 09:56:12 Stone Brigade - Madman's Paradise (2019)
ЦИТАТА(Samaritianin @ Aug 22 2019, 23:12:07) *
Так и хочется ответить тебе в рифму..но это ж тебя не остановит от задавания тупых вопросов 1488.gif

Спасибо за хамство.
(1) Samaritianin,
Aug 22 2019, 13:19:32 Liquid Viscera - Dead Body Obsession (2019)
+Grindcore
Звучит неплохо..
(1) Metalass,
Aug 20 2019, 18:48:57 Utility Provider - All In Time (2019)

[youtube]O0o8EAkwidA[/youtube]
интересно
(3) Ogidni, Old Vyaine, Yarri,

105 Pages V   1 2 3 > » 
- Lo-Fi Version Support form
Copyrights and abuse reports form
Time is now: 21st September 2019 - 18:44:11