Welcome Guest ( Log In | Register )

История благодарностей участнику AHBAnep ::: Спасибо сказали: 7280 раз(а)
Дата поста: В теме: За сообщение: Спасибо сказали:
Yesterday, 00:01:38 Resuscitate - The Vault (2019)
[youtube]90ys_uuJ2pI[/youtube]
Экспериментально-электронная херь.
(1) Shadowman,
May 24 2019, 17:47:08 Gus G. - Guitar Master (2001)
Register

Nightwalker очень понравился
(1) Ingvar,
May 24 2019, 17:08:11 Rising Regime - Survive Or Die (2019)
ЦИТАТА(Andrew @ May 23 2019, 19:26:10) *
Ну сегодня и новинок подвезли.
Бля, когда это все слушать...

А вот это коренной вопрос современности.
Хорошего и впрямь свалилось вчера много.
(1) Andrew,
May 23 2019, 17:51:01 Sangreal - Sangreal (2019)
[youtube]Hr_Mi9VkQP4[/youtube]
нештяк
ЦИТАТА
The brainchild of the guitar player Jahn Carlini, (Great Master) the line-up is composed by Gabriele Grilli on vocals (ex-Doomsword), Alessandro Battini (Dark Horizon, Ghost City) on keyboards, Francesco Russo (ex-Shadows Of Steel) on the guitar, the Cypriot bass player Paris Lambrou (ex-Arrayan Path, Astronomikon) and the Finnish multi-instrumentalist Matti Auerkallio (Ultimatium, Katra) on drums.
(2) ace73pq, sok,
May 23 2019, 17:13:07 More Of Myself To Kill - Creation: A (2019)
Второй трек и прошлогодняя ипиха:

Маткористо малость и что-то раздражает. Вокал, видимо.
(1) Andrew,
May 23 2019, 16:33:40 Enchantya - On Light And Wrath (2019)
[youtube]_GqZEaviolc[/youtube]
Бодро, стараются.
(1) ace73pq,
May 23 2019, 16:08:59 Lee Luland - Zodiac (2019)
Сольник гитариста Prospekt. Надо бы послушать..
(3) ahp, Foneg, Yarri,
May 22 2019, 09:19:24 Cthuluminati - Reliqideus (2019)
[youtube]bQBQ3I4RzzE[/youtube]
Рассказки - https://www.cthuluminati.com/stories/
(1) Old Vyaine,
May 21 2019, 07:50:40 The Difference - When Light Uncovers Grey (2009)


*Artist: The Difference
*Album: When Light Uncovers Grey
*Year: 2009
*Genre: Progressive/Power Metal
*Country: Belgium
*Format: mp3@CBR320kbps
*Size: 117MB

Tracklist:
1. Confused 01:07
2. Into the Cold 04:08
3. The Attic 06:05
4. Dolor Aeternus 02:41
5. Caught in the Middle 04:02
6. The Awakening 05:59
7. Inner Turbulance 04:53
8. Delirious 05:04
9. No Man's Land 05:19
10. Contemplation 03:07
11. Buried in the Past 07:25
******************************
Total playing time: 49:50




[more=Extended info][youtube]lj13l4_kI-8[/youtube][/more]

[more=Technical info]
Input File: 01 - Confused.mp3
Channels : 2
Sample Rate : 44100
Precision : 16-bit
Duration : 00:01:06.61 = 2937633 samples = 4995.97 CDDA sectors
File Size : 2.67M
Bit Rate : 320k
Sample Encoding: MPEG audio (layer I, II or III)
Comments :
Title=Confused
Artist=The Difference [Belgium]
Album=When Light Uncovers Grey
Tracknumber=01
Year=2009
Genre=Progressive Power Metal

[/more]

Register
(14) ace73pq, andgrek28, aviacademy, dafya328, eyes0re, Foneg, Herrant, metala, Olethros, Rosen, Rover, vaiktor, Woosad, Yarri,
May 21 2019, 07:25:57 The Difference - Lost In Mass Confusion (2005)
Register
(1) doomsword11,
May 20 2019, 16:38:02 Circle Of Witches - Natural Born Sinners (2019)
Италия, 51-й штат 21.gif
[youtube]ZCcXOn9evMI[/youtube]
ничего интересного
(1) Foneg,
May 19 2019, 10:09:51 Nocrul - All Mortal Creatures Must Die (2018)
Мадьяры.. они и в Африке мадьяры.
(1) rickzammuto,
May 17 2019, 15:23:54 Sathamel - Horror Vacui (2019)
Ещё и примелодичено. Хорошо звучит.
(1) Andrew,
May 17 2019, 15:13:21 DisasterTheory - Dying Side Of Life (2019)
[youtube]ikM2-NWdB-o[/youtube]
Прогрессивная альтернатива вульгарис.
(3) ace73pq, Ogidni, Rover,
May 16 2019, 17:48:46 Gothic Prophet - A Deer In White (2019)
[youtube]8-gtxMyrC6w[/youtube]
Очередная тарья?
(3) ace73pq, Andrew, Rover,
May 16 2019, 08:35:55 Return Of The Soul - Interlacing Of Worlds (2019)
И тут треклист обкусанный sirt.gif
(1) krotovich,
May 14 2019, 08:23:04 Hellblade - The Equilibrium Of Chaos (2019)
The Equilibrium of Chaos

Вокалит баран какой-то.
(3) ahp, Foneg, krotovich,
May 11 2019, 08:46:17 The Monster - Dark City (2019)
https://store.cdbaby.com/cd/themonster3
Это второй альбом боливийцев, харда, в основном.
(1) Andrew,
May 10 2019, 07:48:33 Voldt - Voken (2019)

прогрессирующая модернятина
(1) Ogidni,
May 9 2019, 18:44:31 Eridu - Lugalbanda (2019)
[youtube]Tl8hLorm02c[/youtube]
симпатично
(3) boby9052, Old Vyaine, Woosad,
May 9 2019, 18:27:01 Embracing Soul - Mass Extinction (2019)
(1) BlackTroll,
May 3 2019, 15:01:28 Sons Of An Eastern Moon - L'anse Aux Metals (2019)
Уж больно их Тор писклявит... Мне не выдержать.
(4) Andrew, Indamage, Woosad, скептик,
May 3 2019, 09:14:02 Mortal Review - Mortal Review (2019)
https://music.yandex.ru/album/7416231
Эксперименты - в области металкора.
(2) Ogidni, Woosad,
May 3 2019, 09:04:22 Sarcasm Syndrome - Thy Darkness (2019)
[youtube]xGZPY6_dk00[/youtube]
(1) KVRT,
May 2 2019, 19:53:31 Sins Of The Damned - Striking The Bell Of Death (2019)
(3) Andrew, infiltrator, Old Vyaine,

101 Pages V   1 2 3 > » 
- Lo-Fi Version Support form
Copyrights and abuse reports form
Time is now: 26th May 2019 - 04:33:16