Welcome Guest ( Log In | Register )

История благодарностей участнику AHBAnep ::: Спасибо сказали: 9487 раз(а)
Дата поста: В теме: За сообщение: Спасибо сказали:
Sep 13 2020, 05:43:49 Norsegod - Aufbruch (2020)
Нет тут Death ни капли. Мелодичный викинг фолк. Вроде, неплохо.
(2) Andrew, infiltrator,
Sep 13 2020, 05:30:08 Matisury - Ideologi Penyesatan (2015)
https://music.yandex.ru/album/12077145
Техникал. Напрягает монотонность долбёжки.
(2) andreikun, infiltrator,
Sep 12 2020, 12:00:03 Winter's Verge - The Ballad Of James Tig (2020)
Register
(1) Olrak,
Sep 12 2020, 07:42:44 Bocc - A La Forca [ep] (2020)
Register
(1) Olethros,
Sep 12 2020, 07:36:16 Deadly Moussaka - ...And Moussaka For All (2020)
Смертоносная мусяка

(2) Metalass, serjred,
Sep 9 2020, 08:40:33 Theotoxin - Fragment : Erhabenheit (2020)
Register
(4) Amsterdam, Andr, Mares, ondrazevsi,
Sep 8 2020, 12:34:50 Requiem's Sathana - Requiem's Sathana [ep] (2020)
Register
(2) Doooomed, Olethros,
Sep 5 2020, 13:44:19 Lux Serpent - Requiem (2017)


*Artist: Lux Serpent
*Album: Requiem
*Year: 2017
*Genre: Doom Metal
*Country: Germany
*Format: mp3@CBR320kbps
*Size: 115MB

Tracklist:
1. Requiem 03:39
2. Kyrie 03:15
3. Dies Irae 04:02
4. Tuba Mirum 04:47
5. Rex Tremendae 03:22
6. Recordare 03:56
7. Confutatis 03:13
8. Lacrimosa 04:50
9. Domine Jesu 04:53
10. Hostias 04:30
11. Agnus Dei 03:30
12. Lux Aeterna 04:45
******************************
Total playing time: 48:42


Preview 2
Preview 3

[more=Extended info][youtube]Z3lI0Uj4lWg[/youtube][/more]

[more=Technical info]
Input File: 02 - Kyrie.mp3
Channels : 2
Sample Rate : 44100
Precision : 16-bit
Duration : 00:00:59.95 = 2643751 samples = 4496.18 CDDA sectors
File Size : 2.40M
Bit Rate : 320k
Sample Encoding: MPEG audio (layer I, II or III)
Comments :
Title=Kyrie
Artist=Lux Serpent
Album=Requiem
Tracknumber=02
Year=2017
Genre=Doom Metal

[/more]

Register
(14) after21allD, caro, EpicDoomLord, infiltrator, marilin, metala, multizwilling, Olethros, robertho777, Rosen, sergsazan, stumpheavyrock, VALERY, zhol,
Sep 5 2020, 10:00:40 Noumena - Anima (2020)
https://music.yandex.ru/album/11674609
что-то совсем не то..
Register
(4) Clitoriduss, Olethros, VLADISLAV_V_K, WillyWonka,
Sep 5 2020, 08:33:09 Sun Eater - Light Devoured [ep] (2020)
Неплохо.
01. The Advent (Feat. Kilian Savas Of Untethered)
02. The Usurpator (Feat. Clément Henry Of Deadwood)
03. Quandary: Becoming The Eclipse (Feat. Charles Pierron Of Ataraxis)
04. Light Devoured (Feat. Clément Henry Of Deadwood)
Register
(2) Metalass, Olethros,
Sep 5 2020, 08:15:18 Revenge - Trust In Metal (2020)
ЦИТАТА(Сварог Барг @ Sep 4 2020, 11:03:55) *
Неудачная попытка слабать псевдотрэш, на этот раз колумбийцы промахнулись.

Чушь собачья, спидняк тут, как и раньше.
(1) Samaritianin,
Sep 5 2020, 07:50:14 Black Sun - Silent Enemy [ep] (2020)
https://music.yandex.ru/album/11506072
Netta Laurenne Vocals (tracks 2, 6)
Tony Kakko Vocals (track 6)
Mr. Lordi Vocals (track 6)
Noora Louhimo Vocals (female) (track 6)
Pasi Rantanen Vocals (track 6)
Jukka Pelkonen Vocals (track 6)
Henning Basse Vocals (track 3)
2, 3, 6 треки можно послушать.
Прочее - инструменталы. А от их музыки не тащусь.
(1) Olrak,
Sep 5 2020, 07:21:43 Had - Debut Ep [ep] (2020)
Register
(2) Mares, Olethros,
Sep 2 2020, 03:22:11 Desolator - Sermon Of Apathy (2020)


*Artist: Desolator
*Album: Sermon Of Apathy
*Year: 2020
*Genre: Old School Death Metal
*Country: Sweden
*Format: mp3@CBR320kbps
*Size: 96MB

Tracklist:
. Portal Tomb 06:34
2. Adversarial Doctrine 04:44
3. Creatures of Habit 05:50
4. Methods of Self-Deception 06:05
5. The Human Condition 04:22
6. Vaticide 04:05
7. The Great Law of the Dead 08:48
******************************
Total playing time: 40:28




[more=Extended info][youtube]3ybvwuj8ZjE[/youtube][/more]

[more=Technical info]
Input File: 02 - Adversarial Doctrine.mp3
Channels : 2
Sample Rate : 44100
Precision : 16-bit
Duration : 00:01:00.03 = 2647411 samples = 4502.4 CDDA sectors
File Size : 2.40M
Bit Rate : 320k
Sample Encoding: MPEG audio (layer I, II or III)
Comments :
Title=Adversarial Doctrine
Artist=Desolator
Album=Sermon of Apathy
Tracknumber=02
Year=2020
Genre=Death Metal

[/more]

Register
(30) akym, andreikun, Andrew, BugEyes, caro, DarkHorde, El_Chibo, ForzaMinardi1977, Golodomor, grimoir, Hell_Is_Here, infiltrator, jollo, Jorn777, kranger, metala, Morgoth, multizwilling, Occultas, Olethros, Proteus_666, Rosen, samokot, Satyr, sergsazan, THROWER666, troll_swamp, VALERY, yuratroll, zhol,
Sep 2 2020, 02:53:27 Incremate - Mortal Domain (2020)
Register
(3) kranger, Oldskulthrasher, Olethros,
Sep 1 2020, 15:28:35 Incremate - Mortal Domain (2020)


*Artist: Incremate
*Album: Mortal Domain
*Year: 2020
*Genre: Old School Death Metal
*Country: Germany
*Format: mp3@CBR320kbps
*Size: 78MB

Tracklist:
1. Streaming With Blood 03:25
2. Complete Possession 03:31
3. The Murderous Doom 03:34
4. Potent Mortality 03:50
5. Retaliation 03:26
6. Violent Desecration 03:52
7. Force Of Hysteria 02:57
8. Formed For Decay 03:17
9. Death Is Stronger 04:17
******************************
Total playing time: 32:09



Preview 3

[more=Extended info][youtube]1Ilkw67fxog[/youtube][/more]

[more=Technical info]
Input File: 01 - Streaming with Blood.mp3
Channels : 2
Sample Rate : 44100
Precision : 16-bit
Duration : 00:00:59.93 = 2642825 samples = 4494.6 CDDA sectors
File Size : 2.40M
Bit Rate : 320k
Sample Encoding: MPEG audio (layer I, II or III)
Comments :
Title=Streaming with Blood
Artist=Incremate [Germany]
Album=Mortal Domain
Tracknumber=01
Year=2020
Genre=Death Metal

[/more]

Register
(32) akym, andreikun, Andrew, BugEyes, caro, cesar, chickenfucker, DarkHorde, FartNapalm, Hell_Is_Here, infiltrator, jollo, JPV, judaz, Mist13Signifier, Morgoth, multizwilling, Olethros, ripper33, Rosen, samokot, Satyr, scorpionmk, sergsazan, stumpheavyrock, THROWER666, tim47, Tino, VALERY, wanderer73, zhol, Язва,
Sep 1 2020, 12:20:37 Infestatio - Unleash The End (2020) (4) after21allD, atavist, Darkness, Samaritianin,
Sep 1 2020, 08:55:28 Thurisaz - Live & Acoustic [live] (2015)
еле наковырял..
Register
(2) Constantinus I, karpenka,
Sep 1 2020, 07:13:26 Defacing - The Beginning Of Human Cruelty/Destroying Your Dignity [compilation] (2020)


*Artist: Defacing
*Album: The Beginning Of Human Cruelty/Destroying Your Dignity [compilation]
*Year: 2020
*Genre: Brutal Deathgrind
*Country: Chile
*Format: mp3@CBR320kbps
*Size: 61MB

Tracklist:
1. Atrocities That Testify Dementia 03:22
2. Deliriums of Moribund Addiction 02:33
3. Remember the Infanticide 03:20
4. Resurrected in Excretive Substances 03:38
5. Genocidal Souls 03:18
6. Mutating Inside the Degeneracy 03:10
7. Impatience to Kill 03:09
8. Purified In Perpetual Degradation 02:52
******************************
Total playing time: 25:22




[more=Extended info]Demo 2003 "The beginning of Human Cruelty" fully remastered,along with "Destroying Your Dignity" which has its own album cover (4 new tracks).
[youtube]MQb71HS-EX0[/youtube][/more]

[more=Technical info]
Input File: 07 - Impatience to Kill.mp3
Channels : 2
Sample Rate : 44100
Precision : 16-bit
Duration : 00:00:59.98 = 2645118 samples = 4498.5 CDDA sectors
File Size : 2.40M
Bit Rate : 320k
Sample Encoding: MPEG audio (layer I, II or III)
Comments :
Title=Impatience to Kill
Artist=Defacing
Album=Destroying Your Dignity (EP)
Tracknumber=07
Year=2020
Genre=Brutal Deathgrind

[/more]

Register
(5) chickenfucker, Hell_Is_Here, infiltrator, Olethros, Rosen,
Sep 1 2020, 06:48:02 Traumatic Noise - Haunted [single] (2018)


*Artist: Traumatic Noise
*Album: Haunted [single]
*Year: 2018
*Genre: Death Metal
*Country: Chile
*Format: mp3@CBR320kbps
*Size: 13MB

Tracklist:
1. Haunted 02:45
2. Ethnic Cleansing 02:26
******************************
Total playing time: 5:11



Preview 3

[more=Extended info][youtube]qBta9cnaOcE[/youtube][/more]

[more=Technical info]
Input File: 01 - Haunted.mp3
Channels : 2
Sample Rate : 44100
Precision : 16-bit
Duration : 00:00:59.88 = 2640488 samples = 4490.63 CDDA sectors
File Size : 2.40M
Bit Rate : 320k
Sample Encoding: MPEG audio (layer I, II or III)
Comments :
Title=Haunted
Artist=Traumatic Noise
Album=Haunted (S)
Tracknumber=01
Year=2018
Genre=Death Metal

[/more]

Register
(6) chipsgott, infiltrator, Mares, Olethros, Rosen, wanderer73,
Sep 1 2020, 05:44:46 Dark Authority - The Worm Of Democrazy (2020)
https://music.yandex.ru/album/11237657
Даже не совсем бессмысленный брутал...
(1) atavist,
Sep 1 2020, 05:39:09 Nocturn - Like A Seed Of Dust (2020)
https://sliptrickrecords.com/nocturn/
[youtube]Io_mJAlUFLI[/youtube]
[youtube]tbp0nbWeLRs[/youtube]
(3) infiltrator, kiol1, krotovich,
Aug 30 2020, 09:02:17 Panzerfaust - The Suns Of Perdition - Chapter II: Render Unto Eden (2020)
Register
(3) Oldskulthrasher, rammstein888, Rudolfo_Metal,
Aug 30 2020, 09:01:13 Cranial Contamination - Into The Warp (2020)
Register
(3) Amsterdam, infiltrator, Olethros,
Aug 30 2020, 08:36:11 From The Depth - Moments (2020) (1) akym,

124 Pages V   1 2 3 > » 
- Lo-Fi Version Support form
Copyrights and abuse reports form
Time is now: 23rd September 2020 - 17:39:33