Welcome Guest ( Log In | Register )

История благодарностей участнику AHBAnep ::: Спасибо сказали: 8367 раз(а)
Дата поста: В теме: За сообщение: Спасибо сказали:
Apr 2 2020, 07:49:31 The Abyss Order - Infected Black Window (2020)
(3) Brann, infiltrator, randumbum,
Mar 27 2020, 12:12:16 Candlemass - The Pendulum [ep] (2020)
ЦИТАТА(vosmidesijatye @ Mar 27 2020, 13:33:15) *
dwarf-1.gif Интересно, хотя судя по продолжительности некоторых трэков, тут скорее, некие черновые наброски-наигровки.

ЦИТАТА
Demo tracks are from 'The Door to Doom' 2019 album sessions, that were left unused on the album.

Не пропадать же добру. Фанат всё схавает.
(2) infiltrator, vosmidesijatye,
Mar 26 2020, 11:12:01 Death & Legacy - Inf3Rno (2020)
Дебют - Death & Legacy - Burning Death (2014), если кому надо...
И продолжение - Death & Legacy - Silence (2016)
Превью: https://music.yandex.ru/album/10082862
(1) akym,
Mar 24 2020, 14:40:20 Locust Leaves - A Subtler Kind Of Light (2017)
Кому понравилось, полазайте по их дереву http://www.locustleaves.com/default.html.
Там много интересного.
(1) mirotvorets,
Mar 24 2020, 14:25:11 Today Needed (2) Dargaud, infiltrator,
Mar 24 2020, 14:14:43 Shadow - Shadow (2001)
Register
(2) Dargaud, infiltrator,
Mar 24 2020, 13:57:43 Shadow - Forever Chaos (2008)
Register
(2) Dargaud, infiltrator,
Mar 24 2020, 08:44:59 Encryption - Perishing Black Light (2000)


*Artist: Encryption
*Album: Perishing Black Light
*Year: 2000
*Genre: Progressive Power/Thrash Metal
*Country: Germany
*Format: mp3@CBR320kbps
*Size: 106MB

Tracklist:
1. Perishing Black Light 06:18
2. Lambda Core 06:56
3. All Philistines 05:16
4. The Inmost Dance 05:52
5. Conquering the Night 06:16
6. Autumn Harvest 13:15
******************************
Total playing time: 43:53

Preview 1

[more=Extended info][youtube]otXJo63CLLo[/youtube][/more]

[more=Technical info]
Input File: 02.mp3
Channels : 2
Sample Rate : 44100
Precision : 16-bit
Duration : 00:01:00.03 = 2647411 samples = 4502.4 CDDA sectors
File Size : 2.40M
Bit Rate : 320k
Sample Encoding: MPEG audio (layer I, II or III)
Comments :
Title=Lambda Core
Artist=Encryption [Germany]
Album=Perishing Black Light
Tracknumber=02
Year=2000
Genre=Progressive Power/Thrash Metal

[/more]

Register
(14) andgrek28, boby9052, Corpuscul, HMHamster, infiltrator, metala, minimums, multizwilling, Olethros, postal67, Rover, samokot, stumpheavyrock, zhol,
Mar 24 2020, 07:14:33 V-Trail - V-Trail (2020)
[youtube]9VMLeohc7n4[/youtube]
(3) Foneg, infiltrator, VLADISLAV_V_K,
Mar 23 2020, 06:42:52 Inner Strength - Shallow Reflections (1993)
Записи 1994-96 годов на
(1) Нигилист,
Mar 22 2020, 12:29:24 Today Needed (2) infiltrator, thenecromancer,
Mar 22 2020, 12:28:48 Psychotic Waltz - Live & Archives [best of/compilation] (1998)
Register
(3) infiltrator, kimkayoung, thenecromancer,
Mar 21 2020, 13:12:36 Roman Ring - The Halogen (2020)
"Deathcore" зря приписал. Всё в рамках технодеса, т.е. чуток математики.
(1) VLADISLAV_V_K,
Mar 20 2020, 20:04:52 Today Needed (2) infiltrator, thenecromancer,
Mar 20 2020, 20:03:58 Pyogenesis - Underneath... [ep] (1995)
Нашёл типа...
Register
(3) kostja, stumpheavyrock, thenecromancer,
Mar 20 2020, 07:47:44 Nite - Darkness Silence Mirror Flame (2020)
(2) judaz, Sanctus,
Mar 20 2020, 07:22:25 Neck Of The Woods - The Annex Of Ire (2020)
Металкор никуда не делся. Жаль.
(1) ingram,
Mar 20 2020, 06:48:00 Virocracy - Irradiation (2020)
"Extended info" скурвилась.


Jan Heidelberger (Guitar)
Florian Betz (Bass)
Anika ov Moseberg (Vocals)
Alexander Jelinek (Guitar)
Alejandro Serrano Martinez (Drums)
(1) Andrew,
Mar 18 2020, 16:23:34 Memories Of A Lost Soul - 7 Steps To Nothingness (2004)
Register
(1) stumpheavyrock,
Mar 18 2020, 07:37:30 Today Needed (1) wolverine,
Mar 18 2020, 07:32:52 Impure - Satan's Eclipse (2019)
Register
(1) wolverine,
Mar 16 2020, 07:21:05 Mighty D. - The Last Rise (2004)
Register
(1) stumpheavyrock,
Mar 14 2020, 12:38:04 Eternal Solstice & Mourning - At The Dawn Of... [split] (1992)
Register
(2) stumpheavyrock, thenecromancer,
Mar 12 2020, 16:29:02 Serpent Cobra - Anatomy Of Abuses (2020)
В каждом mp3 картинка на 8Mb. Вот спасибо!
(2) infiltrator, krotovich,
Mar 12 2020, 14:39:06 White Stones - Kuarahy (2020)
Позволю себе небольшую расшифровочку:

Martín Méndez - Bass (Opeth, ex-Eternal, ex-Fifth to Infinity, ex-Requiem Aeternam, ex-Vidres a la Sang (live), ex-Proxima, ex-Vinterkrig)

Jordi Farré - Drums (Apologoethia, Cruciamentum, Ered, Sheidim, Vidres a la Sang, Evnar (live), Foscor (live), Tchornobog (live), ex-Lux Divina (live), ex-The Zen, ex-Abrahel, ex-Karlahan)

Albert Martí - Rhythm guitar (Foscor, Vidres a la Sang, ex-Shemhamphorash (live), ex-Fire of Revenge)

Joao Sassetti - Lead guitar (ex-Nuckin' Futs)

Eloi Boucherie - Vocals (Vidres a la Sang)
(3) infiltrator, KKK1488, Samaritianin,

114 Pages V   1 2 3 > » 
- Lo-Fi Version Support form
Copyrights and abuse reports form
Time is now: 6th April 2020 - 00:00:50