Welcome Guest ( Log In | Register )

История благодарностей участнику AHBAnep ::: Спасибо сказали: 10209 раз(а)
Дата поста: В теме: За сообщение: Спасибо сказали:
Jan 12 2021, 10:25:03 Bestia Ater - Anno Bestia Chrysallis (2021)
Проект Гиперборейцев, технично-прогрессивный. Не проходим мимо!
(1) cesar,
Jan 10 2021, 14:39:58 Viral - Viral (2021)
Это здорово.
Register

Одно смущает: ужели теперь к любому приличному хэви надо прилепить "старая школа". Дожили..
(1) Olethros,
Jan 8 2021, 05:55:48 Mouth Of Sauron - Berserker I [ep] (2021)
Deathcore домашнего розлива.
(3) infiltrator, Marek, Metalass,
Jan 7 2021, 06:30:51 Gates Of Doom - Aquileia Mater Aeterna (2021)
Register
(4) Marek, Olethros, varg-38ru, VLADISLAV_V_K,
Jan 6 2021, 08:21:15 Holocausto - Diário De Guerra (2019)
(2) Diflock, infiltrator,
Jan 5 2021, 10:09:27 Ominous Glory - The Elven Dream (2021)
Register
(2) Herrant, Olethros,
Jan 3 2021, 10:36:48 Octavision - Coexist (2020)
Register
(1) Olethros,
Jan 3 2021, 10:00:27 Sawticide - The 11Th Plague [ep] (2020)
Register
(1) Olethros,
Jan 3 2021, 09:50:25 Transilvania - The Night Of Nights (2018)
ЦИТАТА(snecy @ Jun 19 2019, 19:53:13) *
Please, a download mirror!

Register
(2) Geo_log, Occultas,
Dec 30 2020, 08:08:08 Diffractions - Insurgence (2020) (1) Taakeferd,
Dec 29 2020, 05:26:28 Sky Crypt - Incipit Anarchia: Eternity (2020) (1) Taakeferd,
Dec 28 2020, 09:08:04 Another World - Am Anfang War Das Ende (1998)
[youtube]h7mNwJsXczk[/youtube]
Вообще-то транскодам тут не место.
А так - всё олдскульно никак.
(2) infiltrator, thenecromancer,
Dec 27 2020, 13:23:23 Vitalij Kuprij - Progression (2020)
Register
(1) Olethros,
Dec 27 2020, 05:25:20 Postnecrum - De Nocte Vento (2020)
[youtube]DIDQeg2I4jI[/youtube]
(1) Necromag,
Dec 26 2020, 08:01:02 Dira Mortis - Ancient Breath Of Forgotten Misanthropy (2020)
Register
(4) infiltrator, Marek, Olethros, wtk.412,
Dec 26 2020, 07:27:29 Dementors - Torment Of The Black Synod (2017)

https://music.yandex.ru/album/8495490
Быстрый техничный трэшачок..
(1) Occultas,
Dec 23 2020, 20:12:53 Garden Of Shadows - Heart Of The Corona (1998)
Register
(2) kimkayoung, Kitalter,
Dec 22 2020, 09:41:25 Samsara Blues Experiment - End Of Forever (2020)
Register
(3) infiltrator, Olethros, ripper33,
Dec 20 2020, 10:15:47 Walking Corpse - Walking Corpse [ep] (2019)


*Artist: Walking Corpse
*Album: Walking Corpse [ep]
*Year: 2019
*Genre: Deathgrind
*Country: Sweden
*Format: mp3@CBR320kbps
*Size: 20MB

Tracklist:
1. Trephine 02:10
2. No Love 02:16
3. Born to Eat Shit 00:47
4. Harvesting Time 02:38
******************************
Total playing time: 7:51




[more=Extended info][youtube]FhInPoU0sKI[/youtube][/more]

[more=Technical info]
Input File: 03 - Born to Eat Shit.mp3
Channels : 2
Sample Rate : 44100
Precision : 16-bit
Duration : 00:00:47.55 = 2096735 samples = 3565.88 CDDA sectors
File Size : 2.09M
Bit Rate : 353k
Sample Encoding: MPEG audio (layer I, II or III)
Comments :
Title=Born to Eat Shit
Artist=Walking Corpse
Album=Walking Corpse
Tracknumber=03
Year=2019
Genre=Deathgrind

[/more]

Register
(7) chipsgott, infiltrator, Marek, Olethros, Rosen, sludge666, vyacheslav,
Dec 19 2020, 11:58:13 Oracle Sun - Machine Man (2020)
Register
(1) Olethros,
Dec 19 2020, 07:10:03 Helestios - Your Pain Tastes Good (2020) (3) aviacademy, Marek, Olethros,
Dec 19 2020, 06:38:10 I Legion - Overcome The Tides (2020) (4) infiltrator, Mplast, TodesGott, Woosad,
Dec 18 2020, 20:58:50 Return To Void - Infinite Silence (2020)
Register
(1) Olethros,
Dec 18 2020, 20:57:56 A Sound Of Thunder - Parallel Eternity (2020)
Register
(1) Olethros,
Dec 18 2020, 07:50:43 Royal Hunt - Dystopia (2020)
Register
(4) isvili, Marek, mirotvorets, Olethros,

132 Pages V   1 2 3 > » 
- Lo-Fi Version Support form
Copyrights and abuse reports form
Time is now: 18th January 2021 - 02:17:43