Welcome Guest ( Log In | Register )

История благодарностей участнику AHBAnep ::: Спасибо сказали: 7681 раз(а)
Дата поста: В теме: За сообщение: Спасибо сказали:
Nov 6 2019, 14:16:45 The Drowning - The Radiant Dark (2019)
ЦИТАТА(vosmidesijatye @ Nov 6 2019, 15:40:40) *
Неужели, это первый пост от юзера выше именно о музыке, а не о "Не тот тип релиза,не та страна, дата не та, перекод, транскод и говнорип" 15.gif

(1) Veggr,
Nov 3 2019, 08:12:22 Ignited - Steelbound (2019) (1) isvili,
Nov 3 2019, 07:52:25 Horizon's End - Skeleton Keys (2019)
[youtube]vsgrmqceMjk[/youtube]
вкусно
(1) Нигилист,
Nov 2 2019, 20:07:42 Nova Darkness - Of Doom And Grief (2019) (1) Old Vyaine,
Nov 2 2019, 09:29:21 October 31 - Metal Massacre 31 (2016)


*Artist: October 31
*Album: Metal Massacre 31
*Year: 2016
*Genre: Heavy Metal
*Country: United States
*Format: mp3@VBR248kbps
*Size: 66MB

Tracklist:
1. Cross My Way (Death Dealer cover) 03:32
2. Forbidden Evil (War Cry cover) 04:28
3. Torture Me (Omen cover) 03:12
4. The Awakening (Titanic cover) 03:16
5. Dead of the Night (Demon Flight cover) 02:29
6. Heavy Metal Virgin (Aloha cover) 02:59
7. The Alien (Sacred Blade cover) 03:20
8. Metal Merchants (Hallow's Eve cover) 04:11
9. The Warrior (Final Warning cover) 03:30
10. The Battle of Armageddon (Tyrant cover) 05:04
******************************
Total playing time: 36:01




[more=Extended info]A tribute album, where the band covers selected tracks from the eight volume Metal Massacre compilation series released by Metal Blade Records in the 1980s.[/more]

[more=Technical info]
Input File: 05 - Dead of the Night (Demon Flight cover).mp3
Channels : 2
Sample Rate : 44100
Precision : 16-bit
Duration : 00:02:29.11 = 6575575 samples = 11183 CDDA sectors
File Size : 4.59M
Bit Rate : 246k
Sample Encoding: MPEG audio (layer I, II or III)
Comments :
Title=Dead of the Night (Demon Flight cover)
Artist=October 31 [USA]
Album=Metal Massacre 31 (Covers)
Tracknumber=05
Year=2016
Genre=Heavy Metal

[/more]

Register
(7) gwar, metalwoman, Olethros, postal67, Rosen, Rover, Wail,
Nov 1 2019, 10:09:28 Dagor Sorhdeam - Fog Of War (2019)

[youtube]KZcDlipPzT4[/youtube]
Как вам кусочек из Александра Невского?
[youtube]9ThbYV7P9pw[/youtube]
https://music.yandex.ru/album/8261058
(1) ace73pq,
Nov 1 2019, 10:02:40 Kaamos Warriors - Shadows Of Northern Chaos (2019)
[youtube]1dhrWNVmXsI[/youtube]
(1) Old Vyaine,
Nov 1 2019, 09:26:09 The Dead And Living - The Authors Curse (2019)

gothic punk rock Sweden
неформат
(1) Shadechaser,
Nov 1 2019, 08:34:02 Silvertomb - Edge Of Existence (2019)
ЦИТАТА
The concept of “Edge of Existence” explores Kenny Hickey’s personal struggles with addiction, love, and suicide, and the death of his singer and frontman Peter Steele in 2010 and subsequent disbandment of Type O Negative.

В группе:
Kenny Hickey - гитарист Type O Negative.
Johnny Kelly - ударные Type O Negative.
(1) Shadechaser,
Oct 31 2019, 09:05:03 Fil Di Ferro - Wolfblood (2019)
[youtube]dg_vRUXQv5c[/youtube]
Привет из 80-х
(1) Brann,
Oct 25 2019, 08:42:34 Бездна Анального Угнетения - Пир Во Время Чумы (2019)
[youtube]EFaN_KtVXno[/youtube]
люто
(3) mardak666, Paatddal, Сатаник,
Oct 25 2019, 08:39:07 Uriel - Multiverse (2019)
[youtube]q_cEZOJFEro[/youtube]
(2) DenisKov, Old Vyaine,
Oct 24 2019, 12:22:38 Pripyat Escape - Antimateria (2019)
ЦИТАТА(necroscum @ Oct 24 2019, 13:02:19) *
*Genre: Modern Death Metal

(5) babanguida, FlammenTod666, Foneg, northerking, silentstorm,
Oct 24 2019, 09:43:08 Edicius' Dream - Vanescent (2019)
DenisKovа им в спину. Отстой, серия 2.
(1) plfan93,
Oct 22 2019, 15:41:35 Blood Rainbow - Lethal Message (2004)
Register
(1) wanderer73,
Oct 22 2019, 12:08:31 Ad Nemori - Pyre [ep] (2016)


*Artist: Ad Nemori
*Album: Pyre [ep]
*Year: 2016
*Genre: Atmospheric Death Metal
*Country: Germany
*Format: mp3@CBR320kbps
*Size: 66MB

Tracklist:
1. Stone's Creek 04:25
2. The Last Day's Dawn 08:25
3. Beside The Oak 06:39
4. Into The Elder Grove 08:18
******************************
Total playing time: 27:47




[more=Extended info][youtube]ycNwbnX_DUo[/youtube][/more]

[more=Technical info]
Input File: 01 - Stone's Creek.mp3
Channels : 2
Sample Rate : 44100
Precision : 16-bit
Duration : 00:04:25.08 = 11689984 samples = 19880.9 CDDA sectors
File Size : 10.6M
Bit Rate : 320k
Sample Encoding: MPEG audio (layer I, II or III)
Comments :
Title=Stone's Creek
Artist=Ad Nemori
Album=Pyre (EP)
Tracknumber=01
Year=2018
Genre=Atmospheric Death Metal

[/more]

Register
(12) Andrew, artscald, Druidir, fallen, Hell_Is_Here, kimkayoung, krotovich, Olethros, Rosen, sergsazan, VALERY, Герб,
Oct 21 2019, 15:08:23 Ketha - Magnaminus [ep] (2018)


*Artist: Ketha
*Album: Magnaminus [ep]
*Year: 2018
*Genre: Instrumental Experimental Progressive Metal/Fusion
*Country: Poland
*Format: mp3@CBR192kbps
*Size: 35MB

Tracklist:
1. No Body 06:20
2. No Heart 05:40
3. No Mind 07:00
4. No Soul 06:00
******************************
Total playing time: 25:00


Preview 2

[more=Extended info][youtube]xamlFdfMMNM[/youtube][/more]

[more=Technical info]
Input File: 02 - No Heart.mp3
Channels : 2
Sample Rate : 44100
Precision : 16-bit
Duration : 00:05:39.99 = 14993515 samples = 25499.2 CDDA sectors
File Size : 8.16M
Bit Rate : 192k
Sample Encoding: MPEG audio (layer I, II or III)
Comments :
Title=No Heart
Artist=Ketha [Poland] Split-up
Album=Magnaminus (EP)
Tracknumber=02
Year=2018
Genre=Instr. Experimental Metal, Jazz Fusion

[/more]

Register
(10) artscald, BlackTroll, infiltrator, kimkayoung, metala, mirotvorets, Ogidni, Olethros, Rosen, yuratroll,
Oct 20 2019, 11:15:32 First Time In Hell - First Time In Hell (2019)
(2) Andrew, infiltrator,
Oct 18 2019, 09:57:07 Persecutor - Rebirth (2019)
[youtube]c2N2w_5lMPk[/youtube]
А недурно! Далеко ушли от доморощенной ипихи 13-го года.
(2) Andrew, kessler,
Oct 18 2019, 07:50:38 Secret Chapter - Chapter One (2019)
[youtube]521AmZvQ6J4[/youtube]
Голос Withem, клавиши Hex A.D./ex-MirrorFall.
Банальнейший музончик, но приятный.
(2) DenisKov, Old Vyaine,
Oct 17 2019, 08:01:08 Your Own Decay - Recollection (2004)
Register
(1) wendigo,
Oct 17 2019, 06:24:25 Twelve Eighteen - Ascendit Apparatus (2019)
Расфантазировались.

ЦИТАТА
Like the steam locomotive after which it's named, 1218 hits you with powerful, old-school heavy metal.


[youtube]eBJjmJgMEEc[/youtube]
(2) infiltrator, vosmidesijatye,
Oct 16 2019, 15:04:00 Prosanctus Inferi - Noctambulous Jaws Within Sempiternal Night (2013)
Register
(1) canadaspaceman,
Oct 14 2019, 09:02:16 Fearless - Chronicles Of Ancient Wisdom (2019)
Поёт парнишка, что пел на последних альбомах греков Orion's Reign.
(1) aviacademy,
Oct 13 2019, 11:20:53 Oxbow - The Balls In The Great Meat Grinder Collection [best of/compilation] (1992)
Register

(2) wendigo, wolverine,

107 Pages V   1 2 3 > » 
- Lo-Fi Version Support form
Copyrights and abuse reports form
Time is now: 12th November 2019 - 02:04:25