Welcome Guest ( Log In | Register )

История благодарностей участнику AHBAnep ::: Спасибо сказали: 8972 раз(а)
Дата поста: В теме: За сообщение: Спасибо сказали:
Yesterday, 07:53:49 Voivod - The End Of Dormancy [ep] (2020)
Register
(2) Mares, Olethros,
Yesterday, 07:53:09 Kiko Loureiro - Open Source (2020)
Register
(1) Olethros,
Yesterday, 06:12:20 Shining Black - Shining Black (2020)
Line-up:
Mark Boals – Vocals
Olaf Thorsen - Guitars
Oleg Smirnoff – Keyboards
Nik Mazzucconi – Bass
Matt Peruzzi – Drums
Register
(2) Mares, Olethros,
Jul 3 2020, 19:28:15 Convocation - Ashes Coalesce (2020)
Register
(4) Amsterdam, infiltrator, Lucju, Olethros,
Jul 3 2020, 19:27:52 Myridian - Light In The Abyss (2020)
Register
(4) Ellaya, infiltrator, Olethros, senecazm,
Jul 3 2020, 19:27:29 Poltergeist - Feather Of Truth (2020)
Register
(5) Alexis The Best, boby9052, infiltrator, insufferable, Olethros,
Jul 3 2020, 19:25:52 Soul Grinder - Chronicles Of Decay (2020)
Register
(4) infiltrator, insufferable, isvili, Olethros,
Jul 1 2020, 08:07:46 Savage Blood - Savage Blood [ep] (2016)


*Artist: Savage Blood
*Album: Savage Blood [ep]
*Year: 2016
*Genre: Heavy Metal
*Country: Germany
*Format: mp3@CBR320kbps
*Size: 48MB

Tracklist:
1. The Fight 04:32
2. Kingborn 03:48
3. Killing the Disease 04:09
4. Soul Saviour 04:15
5. Dead Water 03:25
******************************
Total playing time: 20:09




[more=Extended info][youtube]sMKkKk5HGIo[/youtube]
[youtube]4mBhhZmilA8[/youtube][/more]

[more=Technical info]
Input File: 01 - The Fight.mp3
Channels : 2
Sample Rate : 44100
Precision : 16-bit
Duration : 00:00:59.98 = 2645118 samples = 4498.5 CDDA sectors
File Size : 2.40M
Bit Rate : 320k
Sample Encoding: MPEG audio (layer I, II or III)
Comments :
Title=The Fight
Artist=Savage Blood
Album=Savage Blood (EP)
Tracknumber=01
Year=2016
Genre=Heavy Thrash Metal

[/more]

Register
(8) infiltrator, Mares, Olethros, Rover, senecazm, sergsazan, stumpheavyrock, varlam4,
Jul 1 2020, 07:43:07 Pessimist - Holdout (2020)
Register
(1) Oldskulthrasher,
Jun 27 2020, 06:32:10 Ergus - Insomnium (2020) (2) infiltrator, VLADISLAV_V_K,
Jun 26 2020, 20:49:15 Kenziner - Phoenix (2020)
Register
(2) Bruce, Olethros,
Jun 26 2020, 06:51:17 Romuvos - The Baltic Crusade (2020)
Register
(5) BladeOvDarkness, infiltrator, isvili, Olethros, WillyWonka,
Jun 26 2020, 06:50:46 Fordomth - Is, Qui Mortem Audit (2020)
Register
(5) Doooomed, infiltrator, isvili, Olethros, Sanctus,
Jun 26 2020, 06:50:09 Descend - The Deviant (2020)
Register
(2) isvili, Metalass,
Jun 26 2020, 06:49:35 Shed The Skin - The Forbidden Arts (2020)
Register
(3) isvili, Mares, Olethros,
Jun 23 2020, 09:35:14 Enslavery - Placitis Infectas (2020)
[youtube]MPTXscM02FE[/youtube]
Это какая-то тяжелая разновидность металкора.
(3) atavist, cesar, Occultas,
Jun 19 2020, 22:11:19 Enemy Within - Fallen (2020)
Всё дрянь - и вокалы, и музоны, судя по превью.
(1) Andrew,
Jun 19 2020, 21:37:41 Victor Quezada - Macrocosmos (2020)
Register
(2) infiltrator, Olethros,
Jun 19 2020, 11:31:59 Victor Quezada - Macrocosmos (2020)


*Artist: Victor Quezada
*Album: Macrocosmos
*Year: 2020
*Genre: Instrumental Progressive Metal
*Country: Chile
*Format: mp3@CBR320kbps
*Size: 101MB

Tracklist:
01. Fractal (04:06)
02. Dark Matter (06:04)
03. Mountains of Sand (06:02)
04. The Great Pyramid (09:10)
05. Street Lights (05:24)
06. Macrocosmos (12:11)
******************************
Total playing time: 42:57




[more=Extended info]Это не гитарист Ancestral, как я сначала подумал... Но потенциал у парнишки есть...
[youtube]5fP8tOgRg1A[/youtube][/more]

[more=Technical info]
Input File: 01 - Fractal.mp3
Channels : 2
Sample Rate : 44100
Precision : 16-bit
Duration : 00:00:59.85 = 2639341 samples = 4488.68 CDDA sectors
File Size : 2.40M
Bit Rate : 320k
Sample Encoding: MPEG audio (layer I, II or III)
Comments :
Title=Fractal
Artist=Victor Quezada
Album=Macrocosmos
Tracknumber=01
Year=2020

[/more]

Register
(5) csgmnk, infiltrator, metala, Olethros, terron,
Jun 19 2020, 11:09:54 Veio - Vitruvian (2020)


*Artist: Veio
*Album: Vitruvian
*Year: 2020
*Genre: Melodic Progressive/Alternative Metal
*Country: United States
*Format: mp3@CBR320kbps
*Size: 104MB

Tracklist:
1, Flare of Defiance 4:21
2, Ascendancy 4:17
3, Crux 4:33
4. Miseria 5:54
5. Penumbra 3:43
6. The Scavenger 1:55
7. Dolos 4:15
8. Pariahs 6:14
9. Centauri 8:49
******************************
Total playing time: 44:01


Preview 2

[more=Extended info][youtube]R7BitCrQ85k[/youtube]
[youtube]6F4Kq6TKGT8[/youtube][/more]

[more=Technical info]
Input File: 03 - Crux.mp3
Channels : 2
Sample Rate : 44100
Precision : 16-bit
Duration : 00:01:00.01 = 2646265 samples = 4500.45 CDDA sectors
File Size : 2.40M
Bit Rate : 320k
Sample Encoding: MPEG audio (layer I, II or III)
Comments :
Title=Crux
Artist=Veio
Album=Vitruvian
Tracknumber=03
Year=2020
Genre=Progressive Metal

[/more]

Register
(16) ace73pq, andgrek28, Buregon, Cartman223, csgmnk, DenisKov, infiltrator, Lukittaz, Mares, metala, multizwilling, Olethros, Rover, sadmannn, senecazm, Strid,
Jun 19 2020, 09:21:01 Alarum - Circle's End (2020)
Register
(6) Farung, insufferable, Mares, Metalass, Olethros, SAPOGi,
Jun 19 2020, 09:05:51 Stygian Crown - Stygian Crown (2020)
Register
(3) armagedeon, Dark Sage, Olethros,
Jun 19 2020, 09:02:57 The Bishop Of Hexen - The Death Masquerade (2020)
Register
(7) Clitoriduss, Dark Sage, helvetesrike, Lucju, Metalass, Olethros, VLADISLAV_V_K,
Jun 19 2020, 09:01:49 Dearth - To Crown All Befoulment (2020)
Register
(4) isvili, Metalass, Olethros, voracioussouls,
Jun 19 2020, 08:59:44 Eisregen - Leblos (2020)
Register
(1) Olethros,

120 Pages V   1 2 3 > » 
- Lo-Fi Version Support form
Copyrights and abuse reports form
Time is now: 11th July 2020 - 09:19:28