Welcome Guest ( Log In | Register )

История благодарностей участнику AHBAnep ::: Спасибо сказали: 7882 раз(а)
Дата поста: В теме: За сообщение: Спасибо сказали:
Today, 09:45:35 Omega Anima - Matices De Realidad (2020)
[youtube]iXS-JTO3zTw[/youtube]
(1) lldma,
Jan 17 2020, 08:32:15 Briselas - Tierra De Poetas (2019)
[youtube]5zxvE_1h2_k[/youtube]
(1) дивин,
Jan 15 2020, 19:12:52 Adrian Tabacaru - Lucifer: A Rock Opera (2020)
ЦИТАТА(paganheart @ Jan 15 2020, 18:58:45) *
Честно говоря, неожиданно кайфанул с данной пластинки - не одними Hteththemeth красна земля мадьярская в прогрессиве. headcrab.png headcrab.png headcrab.png

Мадьяры - это венгры bye.gif

https://music.yandex.ru/album/9554396
Проект клавише-барабанера Taine. Интересно..
(1) paganheart,
Jan 15 2020, 15:38:09 Torturer - Torturer (2013)
Register

Темы плодить лениво.
(1) kimkayoung,
Jan 8 2020, 15:57:54 Stigmatized - Campos Carmesí (2019) (1) Нигилист,
Jan 4 2020, 13:48:17 Scenery - Scenary [demo] (1996)
Классная банда, жаль, что разбежались.
Есть такая думка, что это не рип с кассетки (никому особо не нужный), а кусок их дебютного альбома.
Кстати, продолжительность песен, как на альбоме, это раз.
Название демо переврато, это два.
Сонограмма CD-рипа, это три.
Надо скачать, чтобы услышать подтверждение этой думки?
(1) Proteus_666,
Jan 3 2020, 09:11:36 Deliver The Galaxy - Project Earth (2014)


*Artist: Deliver The Galaxy
*Album: Project Earth
*Year: 2014
*Genre: Melodic Death Metal
*Country: Germany
*Format: mp3@CBR192kbps
*Size: 55MB

Tracklist:
1. Project Earth 04:52
2. Rearrange 04:30
3. I Am 03:32
4. Last Breath 04:44
5. Unknown Faith 04:20
6. Convicted 02:58
7. Interrupdead 03:12
8. Surrounded 04:38
9. End of Beginning 03:30
10. Outro 02:40
******************************
Total playing time: 38:56


Preview 2



[more=Extended info][youtube]93G8I2EUTnY[/youtube][/more]

[more=Technical info]
Input File: 06 - Convicted.mp3
Channels : 2
Sample Rate : 44100
Precision : 16-bit
Duration : 00:02:44.21 = 7241661 samples = 12315.8 CDDA sectors
File Size : 3.94M
Bit Rate : 192k
Sample Encoding: MPEG audio (layer I, II or III)
Comments :
Title=Convicted
Artist=Deliver the Galaxy
Album=Project Earth
Tracknumber=06
Year=2014
Genre=Melodic Death Metal

[/more]

Register
(18) Andrew, Antkh, ASkyThatBurns, BugEyes, chipsgott, infiltrator, lldma, metalwoman, multizwilling, Olethros, Rosen, sergsazan, TeamatSE, terron, VALERY, wn129aa, zhol, Сварог Барг,
Dec 31 2019, 09:52:32 Unholy Outlaw - Dark Wings [ep] (2016)


*Artist: Unholy Outlaw
*Album: Dark Wings [ep]
*Year: 2016
*Genre: Heavy/Doom Metal
*Country: Brazil
*Format: mp3@VBR276kbps
*Size: 59MB

Tracklist:
1. Torture Circus 04:00
2. Truck 03:45
3. Eternal Garden of Pleasure 04:06
4. Death on the Road 05:32
5. Dark Wings 06:28
6. Dragonfly (Sasquatch cover) 03:22
7. Killer Kane (Las Cruces cover) 02:13
******************************
Total playing time: 29:26


Preview 2


[more=Extended info][youtube]xPcvMEA4ARU[/youtube][/more]

[more=Technical info]
Input File: 07 - Killer Kane (Las Cruces cover).mp3
Channels : 2
Sample Rate : 44100
Precision : 16-bit
Duration : 00:02:11.74 = 5809514 samples = 9880.13 CDDA sectors
File Size : 4.39M
Bit Rate : 266k
Sample Encoding: MPEG audio (layer I, II or III)
Comments :
Title=Killer Kane (Las Cruces cover)
Artist=Unholy Outlaw
Album=Dark Wings (EP)
Tracknumber=07
Year=2016
Genre=Heavy Doom Metal

[/more]

Register
(7) ASkyThatBurns, infiltrator, metala, Olethros, Rosen, sergsazan, stumpheavyrock,
Dec 30 2019, 18:08:42 Section 16 - Identity Crisis (2002)
Отличный повод переслушать неплохой альбом!
Надо сказать, тут не VBR: #1 - 192, пара треков - 320, прочее - 256. Но всё - нормальные рипы.
(1) minimums,
Dec 29 2019, 11:02:14 Grave With A View - Godless And Wild (2019) (1) atavist,
Dec 26 2019, 05:49:59 Cancerbero - At The Portal Of The Evoked Blasphemies (2012)
(1) Rodin,
Dec 24 2019, 11:42:12 Grave Circles - Tome Ii (2019)

С такой сонограммой - только в low.
Материал крепкий.
(1) AlexSmith,
Dec 21 2019, 13:05:52 Retribution - No Peace On Earth [ep] (1994)
[youtube]f84Q6sTsnfI[/youtube]
(1) Proteus_666,
Dec 20 2019, 19:04:17 Spiteborn - Bone Trails (2019)


[youtube]NZlLFm7TBao[/youtube]
(3) infiltrator, lldma, Morgoth,
Dec 19 2019, 20:50:17 Dynamite Abortion - Cathexis (2019)
Zürich пока ещё на Кипр не сполз!
Правда, хрюканье швейцарское не впечатлило..
(1) Metalass,
Dec 16 2019, 08:52:46 Corpsessed - Beyond Abysmal Thresholds (2019)
ЦИТАТА(Kehl05 @ Dec 16 2019, 01:32:29) *
И снова.Один лупень в инете указал 2019,другие лупни дружно перелили

А ещё один луПень, не разобравшись, опять лепит горбатого.
(1) Ghostb,
Dec 15 2019, 19:56:19 Corpsessed - Beyond Abysmal Thresholds (2019)
Occultas, теги в mp3-файлах придумали дураки?
Новое звучание на первый слух мне нравится больше, почище как-бы, помягче потеплее.
(1) Occultas,
Dec 15 2019, 09:09:34 Goatpenis & Defecrator - Bloodpact In Cataclysmic Warfare [split] (2019)
ЦИТАТА(atom72 @ Dec 14 2019, 15:41:54) *
Всем любителям Goatpenis рекомендую ещё Goat Vulva, тот проект ещё забористей.

а также Goat Anus, Goat Felch, Goat Phallus, Goat Sperm 1488.gif
(1) atom72,
Dec 14 2019, 11:40:22 Xenopredator - Research & Development (2019)

звук потрясный 22.gif
(3) Andrew, infiltrator, lldma,
Dec 13 2019, 15:31:43 Carbon Colossal - Celestial Eels (2019)
Мне тоже не нравится.
Но зачем это в Low? Сонограмма хилая, но явно 320.
(1) Samaritianin,
Dec 13 2019, 15:00:14 Moshquito - Far Beneath The Tombs (2019)
Если кодек FhG, то сразу в Low?
Забавно crazy.gif
(1) Samaritianin,
Dec 12 2019, 08:11:11 Blasphematory - Depths Of The Obscurity (2019)
Сборник, где они поучаствовали (non-album track) - - NYP
(3) Evilded, Occultas, sacrut,
Nov 30 2019, 11:47:52 Catch 22 - Angellüst (2017)


*Artist: Catch 22
*Album: Angellüst
*Year: 2017
*Genre: Heavy/Thrash/Power Metal
*Country: United States
*Format: mp3@CBR192kbps
*Size: 73MB

Tracklist:
1. Monkeyshyne 03:23
2. AngelLüst 02:48
3. Sweet Soul Shaker 03:29
4. Guilty as Sin 03:05
5. War Machine 02:47
6. Ring My Bell 03:37
7. Unholy Love 03:38
8. Deal with the Devil 04:26
9. Widow's Watch 03:19
10. Hammer 'n' Anvil 02:47
11. Lady Killer 03:32
12. Rainmaker 03:44
13. Heavier Than Hell 03:59
14. Power and Pain 03:08
15. Lay Ya Down 04:33
******************************
Total playing time: 52:15



Preview 3

[more=Technical info]
Input File: 05 - War Machine.mp3
Channels : 2
Sample Rate : 44100
Precision : 16-bit
Duration : 00:02:45.40 = 7293964 samples = 12404.7 CDDA sectors
File Size : 3.97M
Bit Rate : 192k
Sample Encoding: MPEG audio (layer I, II or III)
Comments :
Title=War Machine
Artist=Catch 22 [USA]
Album=AngelLust
Tracknumber=05
Year=2017
Genre=Power Thrash Metal

[/more]

Register
(12) aviacademy, gwar, infiltrator, metala, Mogozoz, Olethros, Rosen, Rover, sergsazan, stumpheavyrock, wgs73, wreak,
Nov 30 2019, 11:36:29 Catch 22 - Soulreaper: Evilution/Devilution (2008)
Register
(2) help, stumpheavyrock,
Nov 27 2019, 19:04:02 Andvaka - Andvana (2019)
"Death" - единственное, что банда забыла пришпандорить к своему BC smile3.gif
(1) krotovich,

110 Pages V   1 2 3 > » 
- Lo-Fi Version Support form
Copyrights and abuse reports form
Time is now: 20th January 2020 - 16:12:19