Welcome Guest ( Log In | Register )

История благодарностей участнику AHBAnep ::: Спасибо сказали: 6691 раз(а)
Дата поста: В теме: За сообщение: Спасибо сказали:
Yesterday, 10:38:20 Nostra Turma - Bloodart (2004)


*Artist: Nostra Turma
*Album: Bloodart
*Year: 2004
*Genre: Progressive Death Metal/Jazz
*Country: Argentina
*Format: mp3@CBR320kbps
*Size: 85MB

Tracklist:
1. A Truculent Shadows 02:18
2. Without Emotions 05:15
3. Unpredictable Variations 05:07
4. Bloodart 04:28
5. Enter into Decay 00:18
6. Slowly Decadence 04:19
7. Void of Compassion 05:58
8. No Dreming's Night 00:54
9. Spirit Crusher (Death cover) 06:46
******************************
Total playing time: 35:23



[more=Extended info]Released by Venus Records, 2002. Re-released in 2005
На архивах значится 2004. Шерлокхолмсы могут заняться.
[youtube]MX5EnqjcdxQ[/youtube][/more]

[more=Technical info]
Input File: 05 - Enter into Decay.mp3
Channels : 2
Sample Rate : 44100
Precision : 16-bit
Duration : 00:00:18.37 = 809897 samples = 1377.38 CDDA sectors
File Size : 739k
Bit Rate : 322k
Sample Encoding: MPEG audio (layer I, II or III)
Comments :
Title=Enter into Decay
Artist=Nostra Turma [Argentina]
Album=Bloodart
Tracknumber=05
Year=2004
Genre=Progressive Death Metal/Jazz

[/more]

Register
(6) Evilded, Foneg, gwar, metala, Rosen, Луч,
Yesterday, 09:44:30 D.A.M. - Inside Out (1991)
Register
(1) Angry_Chair,
Oct 15 2018, 17:55:50 Killing Spree - Motive [ep] (2003)
Register
(1) pichileon,
Oct 15 2018, 15:33:06 Here On Earth - Thallium (2018)
Облогу надо продавать отдельно в рамке (с встроенным шреддером)
(3) aesteticvice, krotovich, Shadowman,
Oct 15 2018, 11:24:39 House Of Atreus - From The Madness Of Ixion (2018)
Да что тут приблэковано? Дес/павер какой-то. "Худосочный" (С) cesar
(1) Andrew,
Oct 15 2018, 07:49:54 Eighty One Hundred - Heaven In Flames (2018)
https://www.youtube.com/watch?v=QnNKVRtFueE...ozlcObRM_4-Av48
[youtube]6DnzDnpTAXc[/youtube]
не скажу, что нравится вокал..
(1) ace73pq,
Oct 12 2018, 14:44:55 Gammacide - Victims Of Science (1989)
(1) thenecromancer,
Oct 12 2018, 08:36:58 Era Zero - Era Zero (2018)
[youtube]gmrPO10RWbo[/youtube]
а всё равно, какого оно года
(1) Foneg,
Oct 10 2018, 09:31:45 Embargo - Children Of A Lesser God (1994)


*Artist: Embargo
*Album: Children Of A Lesser God
*Year: 1994
*Genre: Melodic Power Metal
*Country: Germany
*Format: mp3@CBR320kbps
*Size: 110MB

Tracklist:
1. Revolution 03:40
2. Twin Paradoxon 04:59
3. Spring 05:06
4. Children of a Lesser God 05:07
5. Time Is of Vital Importance 05:31
6. The Habit in Our Daily Life 05:19
7. Calamities 01:00
8. Paternal Love 03:58
9. Cage of Glass 06:15
10. Flatline 05:53
******************************
Total playing time: 46:48

[more=Extended info]Европейский мелодичный павер достойного уровня.
[youtube]Sj7QeE5ca2k[/youtube]
[youtube]I7BN2l9sCPo[/youtube]
[youtube]IJPK9VXytMA[/youtube][/more]

[more=Technical info]
Input File: 07 - Calamities.mp3
Channels : 2
Sample Rate : 44100
Precision : 16-bit
Duration : 00:00:57.63 = 2541439 samples = 4322.18 CDDA sectors
File Size : 2.31M
Bit Rate : 320k
Sample Encoding: MPEG audio (layer I, II or III)
Comments :
Title=Calamities
Artist=Embargo [Germany]
Album=Children of a Lesser God
Tracknumber=07
Year=1994
Genre=Melodic Power Metal

[/more]

Register
(6) avkruchinin, DTGB, Foneg, metala, Rosen, wn129aa,
Oct 10 2018, 08:52:37 Saber Tiger - Obscure Diversity (2018)
[youtube]-b3anig_QhE[/youtube]
[youtube]ywcpGfXWZrI[/youtube]
(2) Andrew, Jahmephisto,
Oct 8 2018, 08:47:10 Dissection - Final Genocide (1988)
Register
(1) avkruchinin,
Oct 7 2018, 15:32:20 Darkphase - Darphane (2007)
[youtube]PrlrUvXMdoM[/youtube]
Наверное, хотели трэш записать. Но получилось нытьё на турецком. Типа, прог.
(1) Genuine Thrashiac,
Oct 6 2018, 11:35:45 Creeper - Creeper (1992)
[youtube]iZ4FUt_WbbY[/youtube]
real underground)
(1) avkruchinin,
Oct 6 2018, 08:47:34 Acolytes Of Moros - The Wellspring (2018)
(1) LazarShadow,
Oct 6 2018, 08:04:04 Silent Tales - Endless Way (2018)
Ранее было просто фолком
Silent Tales - Lost In The Dreamland (2003)
Silent Tales - From The Hiding [promo] (2006)
Судя по превью, дума нема. Но красиво, клядь.
(1) uk82,
Oct 6 2018, 07:53:08 Tarot - Tarot Beyond [compilation] (2017) (1) avkruchinin,
Oct 5 2018, 05:42:40 Immension - Worth Dying For (2018)
В превью с трэшем совсем туго - один металкор.
(1) Storky,
Oct 4 2018, 20:03:15 Graveheart - Return Of The Curse Of The Creature's Ghost (2007)

Register

Видимо, с BC, Remixed & Remastered.

Тьфу, перепутал. Там транскод какой-то. Нормальный брал с рутрекера. Вот он:
Register

Прошу прощения у скачавших.
(4) Genuine Thrashiac, Ostinato, pichileon, wgs73,
Oct 3 2018, 14:07:55 Axe Minister - Comatose (2000)


*Artist: Axe Minister
*Album: Comatose
*Year: 2000
*Genre: Thrash Metal
*Country: United States
*Format: mp3@VBR262kbps
*Size: 88MB

Tracklist:
01. Morbid End
02. Endless Fate
03. Comatose
04. Stalker
05. Good Side of Evil
06. Going Down
07. Confined
08. Force of Fire
09. Wreckless
10. Victim of War
11. Rabid
******************************
Total playing time: 45:42

[more=Extended info]классика
[youtube]8wSGL6MCJFQ[/youtube][/more]

[more=Technical info]
Input File: 01 - Morbid End.mp3
Channels : 2
Sample Rate : 44100
Precision : 16-bit
Duration : 00:02:33.31 = 6761059 samples = 11498.4 CDDA sectors
File Size : 4.71M
Bit Rate : 246k
Sample Encoding: MPEG audio (layer I, II or III)
Comments :
Title=Morbid End
Artist=Axe Minister [USA]
Album=Comatose
Tracknumber=01
Year=2000
Genre=Thrash Metal

[/more]

Register
(7) andreikun, avkruchinin, boby9052, Diflock, METALHUNTER, Proteus_666, Rosen,
Oct 2 2018, 22:05:50 Aragon - Aragon (1987)
ЦИТАТА(slack @ Oct 2 2018, 23:26:16) *
AHBAnep, наговариваешь ты на меня, грех это 15.gif

Ох. Звук то жуть какая-то. Сонограмма тоже.
Ну да ладно. Радуемся тому, что есть.
(1) pichileon,
Oct 2 2018, 15:56:40 Red Front - Reborn In Hate (2018)
[youtube]JssSQCx6cYw[/youtube]
Сползли с трэш/деса на трэш/грув...
(1) boby9052,
Oct 2 2018, 08:44:29 Binah - Phobiate (2018)
Распугал всех оккультизмом, ни одного комментария нет.
А группа хорошая. Дес их теперь несколько приблэкован. Приятный альбом.
(1) DarkHorde,
Oct 1 2018, 20:33:45 Am I Blood - Existence Of Trauma (2011)
Register
(2) aparato, wgs73,
Oct 1 2018, 12:34:01 Graveflower - Deferred Retribution (2018)
ЦИТАТА(Un4given @ Sep 30 2018, 10:01:24) *
да, но не эти

Эти, эти. Альбом роскошный. bye.gif
(1) ripper33,
Sep 28 2018, 08:46:05 Lords Of The Cemetery - Citipati (2016)
Register
(3) samokot, satanist666, THROWER666,

91 Pages V   1 2 3 > » 
- Lo-Fi Version Support form
Copyrights and abuse reports form
Time is now: 18th October 2018 - 10:44:30