Welcome Guest ( Log In | Register )

История благодарностей участнику BioMax ::: Спасибо сказали: 1079 раз(а)
Дата поста: В теме: За сообщение: Спасибо сказали:
Sep 11 2019, 21:11:53 Disillusion - The Liberation (2019)
Долгое время альбом 2004го был самым любимым среди всего вообще, поэтому глупо было ожидать такой же монументальной работы с учётом 15ти пройденных лет с того момента. Тем не менее, результат вышел очень хорошим, уровень держится на протяжении всего альбома, песни приятные, поэтому камбэк однозначно порадовал. Мне зашло гораздо лучше Глории - чего-то подобного я бы хотел вместо неё, а не после. В общем, полез на bandcamp и купил.
(2) infiltrator, Samaritianin,
Oct 29 2018, 19:47:12 Daron Malakian And Scars On Broadway - Dictator (2018)
После видео с никакущей новой песней ничего не ждал, ну и не зря, как оказалось - полнейший проходняк: ни проигрышей, ни драйва, ни мелодий - ничего. "Давайте сыграем по-быстрому что-нибудь в нашем стиле". Честно говоря, даже не ожидал, что он окажется настолько хреновым.
(1) Ghostb,
Jul 6 2018, 18:19:00 Mourning Lenore - Loosely Bounded Infinities (2010)
Если правила залива изменились, сорри - и так получается сюда заходить раз в 100 лет.
Register
(2) cuimit1349, THROWER666,
Jan 13 2015, 21:16:39 Lord Mantis - Death Mask (2014)
3й трек - это какой-то утяжелённый Diagnose: Lebensgefahr headcrab.png Такие же вокальные ходы, маршал-ритмы и нойзовый психодел, только всё это заправлено сладжем. Прям вау. На него и клип есть http://vimeo.com/115567954
(1) brth,
Jan 1 2015, 21:45:50 Mourning Dawn - Les Sacrifiés (2014)
Пока из темы с топ-релизами года вставил только этот и Даркспейс.
(1) добрыйКот,
May 23 2014, 18:55:23 Korseld - Jordevandring (2014) (1) aesteticvice,
Dec 24 2013, 21:30:37 Ben Woods - An Attempt To Fly (2013)


*Artist: Ben Woods
*Album: An Attempt To Fly
*Year: 2013
*Genre: Ambient/Modern Classical
*Country: United Kingdom
*Format: mp3@CBR320kbps
*Size: 108MB

Tracklist:
01. An Attempt To Fly 02:29
02. With Open Arms 04:04
03. Another Dream 04:15
04. This Light of Ours 06:04
05. Lines in the Sky 02:24
06. Stars Above You 03:14
07. A Leap of Faith 05:57
08. Fond of You 07:19
09. Disappear 05:23
10. Goodbye My Friend 05:32
******************************
Total playing time: 46:41



[more=Extended info]Эмбиент, пианина, слой под скрипочку. Летаем в облаках.[/more]

[more=Technical info]
Input File: 05 - Lines in the Sky.mp3
Channels : 2
Sample Rate : 44100
Precision : 16-bit
Duration : 00:02:24.39 = 6367687 samples = 10829.4 CDDA sectors
File Size : 5.95M
Bit Rate : 330k
Sample Encoding: MPEG audio (layer I, II or III)
Comments :
Title=Lines in the Sky
Artist=Ben Woods
Album=An Attempt To Fly
Tracknumber=5
Year=2013

[/more]

Register
(3) randumbum, Sephiroth 666, veselchak_u,
Dec 21 2013, 18:45:23 Four-O-Five Code - Four-O-Five Code (2013)
[youtube]r4ZtDibIpTU[/youtube]
(1) Elk,
Dec 15 2013, 10:56:58 Thunder Tribe - War Chant (2013)
Красивый альбом, забейте на посредственную обложку).
(1) metadeat,
Nov 30 2013, 12:27:08 Lethe - Come Look At The Darkness With Me [ep] (2013)


*Artist: Lethe
*Album: Come Look At The Darkness With Me [ep]
*Year: 2013
*Genre: Experimental Rock/Trip-Hop
*Country: European Union
*Format: mp3@CBR320kbps
*Size: 25MB

Tracklist:
01. Come Look At The Darkness With Me 06:11
02. You 05:41
******************************
Total playing time: 11:52



[more=Extended info]Очень близко к атмосфере и настроению Manes образца 2003-2007 годов. Страну точно не указал, т.к. Норвегия + Швейцария.

Melancholic, powerful and ethereal, the ambitious music of LETHE is a delicate sphere of Onirism, a deep sonic shockwave at the crossroad of different Artistic approaches, from Trip-Hop to Metal, from Electronic to Rock...

Formed by the genius Tor-Helge Skei (MANES) and the incredibly-talented Anna Murphy (ELUVEITIE), the magical duo have crafted a unique style between ULVER, THE GATHERING and THE THIRD AND THE MORTAL. LETHE is, without doubt, the dark and refreshing sensation of the year.

This digital single will give you a taste of what you'll find on their fantastic debut album entitled "When Dreams Become Nightmares", scheduled for release in a few weeks on Debemur Morti Productions.

Let yourself be tempted by this Sibylline invitation..."here, have a quick look into the world of LETHE… where dreams and nightmares have changed places, where the real horrors are (in) your own mind... come look at the darkness with us..." [LETHE][/more]

[more=Technical info]
Input File: LETHE - Come Look At The Darkness With Me - 01 Come Look At The Darkness With Me.mp3
Channels : 2
Sample Rate : 44100
Precision : 16-bit
Duration : 00:06:11.49 = 16382577 samples = 27861.5 CDDA sectors
File Size : 13.4M
Bit Rate : 289k
Sample Encoding: MPEG audio (layer I, II or III)
Comments :
Title=Come Look At The Darkness With Me
Artist=LETHE
Album=Come Look At The Darkness With Me
Tracknumber=1
Year=2013

[/more]

Register
(14) as71, BladeOvDarkness, CryptOn, Evilded, Forest, garretje, hastur, Kazoth, MeatKnife, Old Vyaine, popen13, RedSparrow, svartrest, xska,
Nov 29 2013, 20:47:16 Distilling Pain - Irrational Statements (2010)
[youtube]Rd8dAFJI6PI[/youtube]
(1) satanath,
Nov 29 2013, 20:30:25 Outrage - Brutal Human Bastard (2013)
[youtube]n76x_THOGc0[/youtube]
(1) neoatheist,
Nov 28 2013, 22:14:21 Catacumba - Animus Mortis [ep] (2013)
[youtube]Dd1fslW8CwM[/youtube]
(1) satanath,
Nov 28 2013, 21:31:33 Vidharr - Cryo (2013)
[youtube]Oo1xzefGsoE[/youtube]
(1) satanath,
Nov 28 2013, 21:29:53 Mind Asylum - Eodharius (2013)
[youtube]p6h1n1qldzg[/youtube]
(1) satanath,
Nov 28 2013, 20:29:10 Voidcraeft - Derision [ep] (2013)
[youtube]BMZRbP4scww[/youtube]
(1) bakunin,
Nov 20 2013, 19:57:31 Lucifer's Legion - Abominations (2012)
На превью какой-то дикий трэш

(2) RENыч, satanist666,
Oct 6 2013, 20:34:06 Waking The Cadaver - Real-Life Death (2013)
(1) Sethan,
Oct 6 2013, 19:19:58 Korn - The Paradigm Shift (2013)
ЦИТАТА(DarkHolocaust @ Oct 6 2013, 18:39:57) *
Вот выпустили бы ребята альбом в духе олдскула - таки и тогда закидали бы дурнопахнущей массой, мол исписались уже, нового ничего придумать не могут, всё на старых идеях вывозят. Выпустили бы экспериментальный, как говорится "Для Души ®", альбом - сгноили бы за слишком радикальную смену курса. А то что в обоих случаях музыканты сами решают в какую сторону им идти это дело десяяяятое, например-например. И это при том, что в начале карьеры наши парни фиты записывали с брутальными ниггерами, пардон, рэперами, и о популярности и востребованности речи не шло.

Хм, а почему кто-то думает, что за такую реакцию люди будут оправдываться, можно узнать? Под давлением чьего-то авторитета, что ли?)) Да, во всех случаях сказали бы, что УГ, и правильно сделали. Не во временах дело, и не в смене направления. Был у Static-X, например, альбом Cannibal, который в своё время резко выделился из дискографии, но хреновым не был. Ещё круче пример - Deftones. Не очень нравится мне их движение в последнее время, но пара последних альбомов-то всё же неплохие. Просто другие, пусть и не моё. А Корн новый что так, что эдак - хрень в музыкальном плане. Вот и вся мораль.
(1) Сатаник,
Oct 5 2013, 15:53:29 Oshiego - Woe To The Conquered (2011)
(1) artscald,
Oct 5 2013, 15:05:04 Haust - No (2013) (1) drbutcher,
Oct 3 2013, 19:18:35 Sound Of Contact - Dimensionaut (2013)
[youtube]0M_85dGIlos[/youtube]
Sep 26 2013, 19:14:20 Ramage Inc. - Feel The Waves (2013)
По превью показалось просто неплохо, а альбом оказался шикарен! Любителям Девина качать в приказном порядке - заимствования явно из Accelerated Evolution (гитары практически идентичные, и в данном случае это очень круто!). Второй AE уж никак не ожидал услышать, аж настроение поднялось)). As the Wind Blows просто выносит. Супер.
(1) MeatKnife,
Sep 7 2013, 17:49:54 Black Spiders - This Savage Land (2013)
Заводная музыка banana.gif Хард рок, который чуть-чуть посыпан стоунером.
(1) metadeat,
Sep 4 2013, 18:08:22 Psychic Ills - One Track Mind (2013)
[youtube]ElZA8nTcXK0[/youtube]
(1) MeatKnife,

19 Pages V   1 2 3 > » 
- Lo-Fi Version Support form
Copyrights and abuse reports form
Time is now: 18th February 2020 - 04:16:37