Welcome Guest ( Log In | Register )

История благодарностей участнику Hostis ::: Спасибо сказали: 499 раз(а)
Дата поста: В теме: За сообщение: Спасибо сказали:
Apr 13 2022, 10:19:24 Пламень - Магия Крови (2022)
ЦИТАТА(Qliphoth @ Apr 12 2022, 17:49:29) *
Мне местами и Варагиан померещился, что ни разу ни есть плохо.


Ну не, у Макса как-то совсем по другому. Разве что некоторая медитативность и ритмичность повествования. Ну или уровень Ох**нности 20.gif
(1) Qliphoth,
Apr 12 2022, 07:21:37 Пламень - Магия Крови (2022)
Надолго останется в плэйлисте, как и остальное творчество. Носитель приобретён, оформление, как и всегда, максимально круто.
В отличие от очень и очень многого, тут реально Музыка и крайне талантливо написанная.
(2) Qliphoth, Абигор,
Sep 27 2019, 11:11:26 Borknagar - True North (2019)
ЦИТАТА(Ghostb @ Sep 27 2019, 13:07:04) *
Гарма бы сюда


Вот тут неистово плюсую. Прошлый альбом с его участием в титульном треке очень порадовал.
(2) BleedingSun, infiltrator,
Sep 5 2019, 15:35:03 Бранимир - Три Сына (2018)


*Artist: Бранимир
*Album: Три Сына
*Year: 2018
*Genre: Dark Folk/Dark Chanson
*Country: Russian Federation
*Format: mp3@CBR320kbps
*Size: 87MB

Tracklist:
1. Рафинад 06:30
2. Колька 05:53
3. Отец 05:35
4. Ванька 02:57
5. Снег на голове 04:12
6. Пролог 00:47
7. Фома 05:29
8. Денди 05:48
******************************
Total playing time: 37:11



[more=Extended info]Cover – Луперкаль
Instruments – Бранимир
Music By – Бранимир
Recorded By, Mixed By – Дмитрий Хорунжий
Words By – Бранимир (tracks: 1, 2, 4 to 8), Евгений Головин (track 3).

Отдельная благодарность Василию Попову, Луперкалю, Олегу Крупнову, Виктории Бабкиной, Кириллу Юркову, Сергею Симбирцеву, Игорю Шишкину, Александру Ф.Скляру, Илье Девушкину, Сергею Петрову
Городу Котово - особый привет.[/more]

[more=Technical info]
Input File: 03 - Отец.mp3
Channels : 2
Sample Rate : 44100
Precision : 16-bit
Duration : 00:00:00.34 = 14774 samples = 25.1259 CDDA sectors
File Size : 13.6M
Bit Rate : 324M
Sample Encoding: MPEG audio (layer I, II or III)
Comments :
Title=Отец
Artist=Бранимир
Album=Три сына
Tracknumber=03
Year=2018
Genre=Rock | Dark Chanson

[/more]

Register
(6) A.L.Rapsod, Aresson, dk201x, infiltrator, spiritualdecay666, VALERY,
Sep 5 2019, 12:07:43 Mgła - Age Of Excuse (2019)
Блин, как теперь развидеть dab на обложке. Она сразу из прекрасной стала дико смешной.
(2) CryptOn, infiltrator,
Sep 4 2019, 13:52:16 Бранимир - Семь Чудес (2015)


*Artist: Бранимир
*Album: Семь Чудес
*Year: 2015
*Genre: Dark Folk/Dark Chanson
*Country: Russian Federation
*Format: mp3@CBR320kbps
*Size: 163MB

Tracklist:
1. Intro 1:22
2. Мрачные посёлки средней полосы 6:21
3. Леший 2:07
4. Пацан (Гришка Тишин - 2) 2:44
5. Кинешма 6:15
6. П***ю! 4:19
7. У нас будет сын 4:36
8. На побывку 7:12
9. Счастье 3:39
10. Проснись, и - в бой! 2:55
******************************
Total playing time: 41:30

Preview 1

[more=Extended info]Альбом записан в 2015 году на студии OneSide Records

Запись и сведение - Дмитрий Хорунжий
Все инструменты и песни - Бранимир
Дизайн - Лев Беляков
Рисунки - Елена Старик

Спасибо: Андрею Бледному, Ричу, Захару Прилепину, Юрию Смирнову, Анне Сеничевой, Степану Сиротину, Александру Власову, Леониду Габышеву, отцу Геннадию Ивановичу, Анатолию Тишину, городу Котово.

Цитата:
Бранимир
"Я всегда старался быть честным в своих творческих проявлениях - и писал, как чувствовал. Знаю, что от меня некоторые люди ждали очередного "левиафана". Да, так видеть мир сейчас модно. Но на эту тему уже спето достаточно. Тем более, от моего лица. Не хочу нагнетать...
"Семь чудес" тоже будут мрачноватыми для неподготовленного слушателя. В этом альбоме мне захотелось рассказать о поселковой жизни, о детстве. И увидеть в нем не только разруху родных пейзажей и диких синих аборигенов, но и великую сердечную силу, и веру в лучшее. Я исколесил почти всю страну с гастролями. И встретил очень много хороших людей. Поэтому обрел веру в наш великий народ. Об этом альбом. Про простых русских людей и их громадный потенциал, который волею исторических и социальных обстоятельств остался нереализованным.
Свято верю в то, что в жизни героев моего альбома начнут происходить чудеса. А это неизбежно. Главное - верить. И действовать."[/more]

[more=Technical info]
Input File: 01 - Intro.mp3
Channels : 2
Sample Rate : 44100
Precision : 16-bit
Duration : 00:01:22.08 = 3619772 samples = 6156.07 CDDA sectors
File Size : 3.28M
Bit Rate : 320k
Sample Encoding: MPEG audio (layer I, II or III)
Comments :
Title=Intro
Artist=Бранимир
Album=Семь чудес
Tracknumber=01/10
Year=2015

[/more]

Register
(4) A.L.Rapsod, dk201x, infiltrator, VALERY,
Sep 4 2019, 10:40:06 Mgła - Age Of Excuse (2019)
ЦИТАТА(vosmidesijatye @ Sep 4 2019, 12:36:41) *
О, ты никак снова потихоньку возвращаешься в блэк стан.


Базовые какие-то альбомы новые прослушиваю, в т.ч. Мглу.
(2) infiltrator, oLdBoy,
Sep 4 2019, 10:33:59 Mgła - Age Of Excuse (2019)
Обложка прекрасная, залип на некоторое время, альбом обычный, хотя моментами цепляет. Фоном на работе хорошо, хотя так со всеми альбомами данного ВИА, кроме "Groza" и пары треков с "WHTN".

И Дарксайд прекрасный барабанщик, слов нет. Вспоминается незабвенный телеграммный поэт Лейтенант Пидоренко Е.П.:

ЦИТАТА
БОРОБАНЩИКУ ДАРКСАЙДУ ИЗ МГВЫ

Средь мглы еб*шишь ураганом
Как шторм ты мощный посредь мглы
Тебя я очень увожаю
На красном - белые орлы

Сниму фуражку пред бластбитом
Рукой ко лбу я козыряю:
Дарксайд, в натуре, чорт отбитый!
Тебя я очень увожаю.
(2) Black Cat, infiltrator,
Aug 16 2019, 10:51:53 Łatanu - Eon Hora (2019)
ЦИТАТА(vosmidesijatye @ Aug 16 2019, 12:36:02) *
Че за инцидент то был?


Хотелось отправить в гугл, ибо оно даже гуглится, но океееей.

Сожгли пуканы веганам-крастерам-панкам на каком-то нетематическом мероприятии, ритуально отрезав голову петуху. Мероприятие было около-крастовым, а белорусы были "секретным гостем". Угарнейшй пруф и интересные комменты здесь.
(2) judaz, Orkkh,
May 5 2018, 11:03:59 Doomguard - Abyssvs Abyssvm Invocat (2017)


*Artist: Doomguard
*Album: Abyssvs Abyssvm Invocat
*Year: 2017
*Genre: Black Metal
*Country: Russian Federation
*Format: mp3@CBR320kbps
*Size: 106MB

Tracklist:
1. The Raid from Netherworld 06:39
2. Forgotten Way 05:04
3. Absolution 07:26
4. Cruelty Excellence of Inner Blaze 08:14
5. Fire Walk with Me 06:32
6. Abyssvs Abyssvm Invocat 09:34
******************************
Total playing time: 43:29

[more=Extended info]dedicated to Yury Mamleev
(passed away on 25.10.2015)
_____________________
Arranged in 2011
Recorded in 2016
_____________________
Songs:
1,4,6 by Harsh;
2,5 by Athanasius;
3 by Harsh & Athanasius
_____________________
Composition:

1. The Raid from Netherworld
Harsh: music, lyrics

2. Forgotten Way
Athanasius: music (rhythm guitars), lyrics
Harsh: music (solo and rhythm guitars)

3. Absolution
Harsh: music (solo guitars in part I, clean guitars, all part II)
Athanasius: music (rhythm guitars in part I), lyrics

4. Cruelty Excellence of Inner Blaze
Harsh: music, lyrics

5. Fire Walk With Me
Athanasius: music (rhythm guitars), lyrics
Harsh: music (solo guitars)

6. Abyssvs Abyssvm Invocat
Harsh: music, lyrics
_____________________
Performance:
Harsh: guitars, keyboards
Athanasius: vocals
Yog Sothoth: drums
_____________________

Logo by Alexander Held (Ubertragic Art)[/more]

[more=Technical info]
Input File: 01. The Raid from Netherworld.mp3
Channels : 2
Sample Rate : 44100
Precision : 16-bit
Duration : 00:06:38.96 = 17593960 samples = 29921.7 CDDA sectors
File Size : 16.0M
Bit Rate : 320k
Sample Encoding: MPEG audio (layer I, II or III)
Comments :
Title=The Raid from Netherworld
Artist=Doomguard
Album=Abyssvs Abyssvm Invocat
Tracknumber=1
Year=2017

[/more]

Register
(22) 1968_janeart, artscald, ASkyThatBurns, Boozer, Daale, Hell_Is_Here, Immortality, Kazoth, kim666, metaljinie, Moonshtook, Ostinato, Precaria, Premature_Devotion, Qliphoth, Rosen, satanist666, SilentNidhogg, thenecromancer, VALERY, varg-38ru, vasiljev_sergej,
Jun 1 2017, 15:20:30 Łatanu - Čorny Manalit (2017)
Лет 5 ничего из подобной музыки не пробирало, что называется, "до мурашек", а вот Łatanu смогли. Удивлён. Невероятно круто.
(1) Qliphoth,
Nov 30 2016, 08:27:28 Dimmu Borgir - Spiritual Black Dimensions (1999)
Блин, жалко нельзя сразу вам всем "спасибо" поставить, прям срач в духе 2005-2007 годов... Во были времена.

Касательно эталонного симфоБМ'a, то это сабж, тащемта.
(2) Faust_Vulkan_16, vosmidesijatye,
Nov 29 2016, 15:28:54 Dimmu Borgir - Spiritual Black Dimensions (1999)
Альбом то самая натуральная нетленка, до сих пор нет-нет слушаю, даж в машине на флэшке имеется. Полагаю, лет через 10 будет и вовсе считаться классикой. В 1999 это было почти новаторство.
(1) vosmidesijatye,
Nov 2 2016, 10:22:45 Deathspell Omega - The Synarchy Of Molten Bones (2016)
Обычный поздний DsO. Хватило на один трек. Не потому что плохо, а потому что не интересно такое. Хоть бы трэпчика модного добавили с трещётками, вот был бы огонь. 1488.gif
(6) aesteticvice, ent404, holyspirit, MetallWarriorRus, Paatddal, rimfrost,
Jan 20 2015, 10:33:26 Marduk - Frontschwein (2015)
Беспредельно крутой альбом. Из их работ времён Mortuus'a, он теперь второй после Rom 5:12, для меня. Действительно, ни одной проходной вещи. Уникальная группа.

И да, пожалуй, что теперь Marduk нереально представить и без Mortuus'a, так же как без Morgan'а, потому, надеюсь, он никуда не свалит никогда. Такого вокалиста заменить нереально. Лучший, чёрт возьми!
(2) Beazth, vosmidesijatye,
Sep 17 2014, 09:03:28 Новости Black-направления
ЦИТАТА(Oath19 @ Aug 22 2014, 00:28:10) *
Новости от Bèlkètre.


headcrab.png Видимо деньги на наркоту кончились.
(1) Evilded,
Aug 8 2014, 08:43:00 Beyond Ye Grave
А тем временем новости с побережья Нячанга.
На подходе четвёртый альбом, Йурий решает вопрос с записью ударных и вокала. Оказалось что был в группе и бассист, однако он остался в рашке.
(1) vosmidesijatye,
Jul 26 2014, 16:19:36 Beyond Ye Grave
vosmidesijatye, c женой и уехал.

Chasm, вьеты бухают ещё больше))
(1) vosmidesijatye,
Jul 24 2014, 07:10:28 Beyond Ye Grave
А группа, тем временем, перестала быть россиянской и успешно свалила полным составом, в лице одного Йурия, во Вьетнам, с чем я его и поздравляю.
Можно смело менять Origin на Nha Trang, Khanh Hoa Province, Vietnam.
(1) vosmidesijatye,
Mar 5 2014, 19:25:26 Doctor Livingstone - Contemptus Saeculi (2014)
Норм пока что. Работается под это, значит нормально:D Хотя визги конечно хз для чего тут в таком количестве.
(1) vosmidesijatye,
Mar 3 2014, 08:19:20 ARGH! pt.III - 25-26.04.2014, Таллин.
А ведь человеку создавшему тему за тридцатник уже. А понты, как всегда, на уровне средней школы. 1488.gif
Естественно на мероприятие глубоко плевать, но ниферское поведение великовозрастных оргов, хотя в данном случае, помоему не орг (?), а просто приближённый, весьма улыбает.
Sep 30 2013, 08:59:42 Inquisition - Obscure Verses For The Multiverse (2013)
Кстати, давно уже и не Colombia, не понимал никогда зачем их так позиционируют, прикольней что ли и экзотичней?
(2) Ainar, mardak666,
Sep 30 2013, 08:13:58 Inquisition - Obscure Verses For The Multiverse (2013)
ЦИТАТА(jugenetooms @ Sep 30 2013, 11:04:14) *
Почему все говорят, что похоже на иммортал?
Это же сатаник блэк по типу Watain 2007


facessspalm.png
Что-то я аж в голос засмеялся.

Не пойму зачем с чем-то сравнивать вообще, Inquisition это Inquisition.
(1) vosmidesijatye,
Aug 16 2013, 11:43:20 Watain - The Wild Hunt (2013)
Решил послушать! Пятница ж, на работе тоскливо.
Уже примерно половина. They Rode On забавненько, НО зачем слушать её, если есть десяки других роскошнейших баллад? Но хоть за что-то ухо да зацепилось:D
(1) Odium666,
Aug 16 2013, 07:15:20 Black Metal сегодня. Углубленное обсуждение
ЦИТАТА(vosmidesijatye @ Aug 16 2013, 02:49:42) *
Не, Юра - участник вот этого вот проекта http://www.metal-archives.com/bands/Beyond_Ye_Grave/127110 - ОЧЕНЬ котируемого некоторыми. Зверский и качественный БМ.

А вот каноничное видео - смотреть ЦЕЛИКОМ - АД!

[youtube]Y2h23NSs6ig[/youtube]


Дааа... Вот так мой диван, моя го*но-гитара и стали знамениты! Эх, молодость, когда я это снимал мне исполнилось 20.

ЦИТАТА(vosmidesijatye @ Aug 16 2013, 04:10:28) *
утонул в акустике и какой-то фигне


Влюбился человек, чего вы. Романтика, все дела. Йурий сейчас женится на моей бывшей жене. Искренне и от всей души желаю Йуре и Кате Счастья. Я серьёзно и без иронии.
(1) vosmidesijatye,

6 Pages V   1 2 3 > » 
- Lo-Fi Version Support form
Copyrights and abuse reports form
Time is now: 4th February 2023 - 16:50:37