Welcome Guest ( Log In | Register )

История благодарностей участнику metadeat ::: Спасибо сказали: 40179 раз(а)
Дата поста: В теме: За сообщение: Спасибо сказали:
Jun 27 2017, 19:53:23 One Desire - One Desire (2017)


*Artist: One Desire
*Album: One Desire
*Year: 2017
*Genre: Melodic Hard Rock
*Country: Finland
*Format: mp3@CBR320kbps
*Size: 110MB

Tracklist:
1. Hurt
2. Apologize
3. Love Injection
4. Turn Back Time
5. Falling Apart
6. Straight Through the Heart
7. Whenever I'm Dreaming
8. Do You Believe
9. Buried Alive
10. This Is Where the Heartbreak Begins
11. This Is Where the Heartbreak Begins (Acoustic Version) (Bonus Track)
******************************
Total playing time: 48:12

HomePage


[more=Extended info]Дебютный альбом...

[youtube]hxlJZtYk1Zk[/youtube]
[youtube]DMwLOHbVgTE[/youtube][/more]

[more=Technical info]
Input File: 02 Apologize.mp3
Channels : 2
Sample Rate : 44100
Precision : 16-bit
Duration : 00:03:19.94 = 8817530 samples = 14995.8 CDDA sectors
File Size : 8.01M
Bit Rate : 320k
Sample Encoding: MPEG audio (layer I, II or III)
Comments :
Title=Apologize
Artist=One Desire
Album=One Desire (Japan)
Tracknumber=02
Year=2017
Genre=Hard Rock

[/more]

Register
(5) avkruchinin, Diflock, Mplast, Rover, varlam4,
Jun 26 2017, 20:21:11 Rock Goddess - It's More Than Rock And Roll [ep] (2017)


*Artist: Rock Goddess
*Album: It's More Than Rock And Roll [ep]
*Year: 2017
*Genre: Heavy Metal
*Country: United Kingdom
*Format: mp3@CBR320kbps
*Size: 31MB

Tracklist:
1. It's More Than Rock And Roll 05:17
2. Back Off 04:20
3. We're All Metal 03:49
******************************
Total playing time: 13:26




[more=Extended info][youtube]KbE4H8_vyuU[/youtube]
[youtube]H1xYvXmkTn8[/youtube][/more]

[more=Technical info]
Input File: 03 - We\'re All Metal.mp3
Channels : 2
Sample Rate : 44100
Precision : 16-bit
Duration : 00:03:38.95 = 9655871 samples = 16421.5 CDDA sectors
File Size : 8.88M
Bit Rate : 324k
Sample Encoding: MPEG audio (layer I, II or III)
Comments :
Title=We're All Metal
Artist=Rock Goddess
Album=It's More Than Rock And Roll
Tracknumber=3/3
Year=2017
Genre=Heavy Metal

[/more]

Register
(12) Andrew, Aresson, avkruchinin, boby9052, cesar, csgmnk, Darkness, infiltrator, Rosen, roverinc, VALERY, wgs73,
Jun 26 2017, 20:05:18 Chrysalist - Twilight (2017)


*Artist: Chrysalist
*Album: Twilight
*Year: 2017
*Genre: Ambient/Atmospheric Black Metal
*Country: Russian Federation
*Format: mp3@CBR320kbps
*Size: 54MB

Tracklist:
1. Dawn 2:21
2. Weeping Willow 04:24
3. Gale 03:06
4. Twilight 01:46
5. Hidden Calm 01:42
6. Moon Radiance 02:40
7. Long Lost to Where No Pathway Goes (Summoning Cover) 07:10
******************************
Total playing time: 23:09




[more=Extended info]На Bandcamp можно скачать безвозмездно[/more]

[more=Technical info]
Input File: 01 - Dawn.mp3
Channels : 2
Sample Rate : 44100
Precision : 16-bit
Duration : 00:02:21.91 = 6258231 samples = 10643.2 CDDA sectors
File Size : 5.74M
Bit Rate : 323k
Sample Encoding: MPEG audio (layer I, II or III)
Comments :
Title=Dawn
Artist=Chrysalist
Album=Twilight
Tracknumber=1
Year=2017

[/more]

Register
(8) 1968_janeart, infiltrator, kim666, oldvarg, Rosen, stone88, VALERY, vasiljev_sergej,
Jun 26 2017, 19:23:19 Ten - Gothica (2017)


*Artist: Ten
*Album: Gothica
*Year: 2017
*Genre: Melodic Hard Rock
*Country: United Kingdom
*Format: mp3@CBR320kbps
*Size: 141MB

Tracklist:
1. The Grail
2. Jekyll and Hyde
3. Travellers
4. Man for All Seasons
5. In My Dreams
6. The Wild King of Winter
7. Paragon
8. Welcome to the Freak Show
9. La Luna Dra-cu-la
10. Into Darkness
11. Paragon (bonus mix)
******************************
Total playing time: 1:01:41

HomePage


[more=Extended info]Дискография (rutracker)

[youtube]TYTzwyY9BBw[/youtube]
[youtube]HqCgx08JAxs[/youtube][/more]

[more=Technical info]
Input File: 02 - Jekyll And Hyde.mp3
Channels : 2
Sample Rate : 44100
Precision : 16-bit
Duration : 00:04:41.34 = 12407006 samples = 21100.4 CDDA sectors
File Size : 11.3M
Bit Rate : 320k
Sample Encoding: MPEG audio (layer I, II or III)
Comments :
Title=Jekyll And Hyde
Artist=Ten
Album=Gothica
Tracknumber=2/11
Year=2017
Genre=Melodic Hard Rock

[/more]

Register
(8) avkruchinin, Diflock, katalin, Maniakk, Mplast, Rover, v.v.m, VALERY,
Jun 23 2017, 17:36:41 Blackout - The Horse (2017)


*Artist: Blackout
*Album: The Horse
*Year: 2017
*Genre: Stoner/Doom Metal
*Country: United States
*Format: mp3@CBR320kbps
*Size: 87MB

Tracklist:
1. Graves
2. Let Em Ride
3. Roach Bites
4. Rat Spirit
5. Amnesia
6. Holy Wood
7. Mean Pads
8. The Horse
******************************
Total playing time: 37:50




[more=Extended info][youtube]pRQOAnkG2aw[/youtube]
[youtube]1iQ-i4rWjQ8[/youtube][/more]

[more=Technical info]
Input File: 01. Graves.mp3
Channels : 2
Sample Rate : 44100
Precision : 16-bit
Duration : 00:05:32.12 = 14646360 samples = 24908.8 CDDA sectors
File Size : 13.3M
Bit Rate : 321k
Sample Encoding: MPEG audio (layer I, II or III)
Comments :
Title=Graves
Artist=Blackout
Album=The Horse
Tracknumber=1
Year=2017
Genre=Metal

[/more]

Register
(8) avkruchinin, Buregon, Rosen, SatanicPanzer, stub888, VALERY, varlam4, vosmidesijatye,
Jun 21 2017, 21:04:04 Nightpröwler - Unholy Rawness (2017)


*Artist: Nightpröwler
*Album: Unholy Rawness
*Year: 2017
*Genre: Speed/Heavy Metal/Rock'n'Roll
*Country: Ecuador
*Format: mp3@CBR320kbps
*Size: 66MB

Tracklist:
1. Intro (Devil's Ecstasy) 01:12 (instro)
2. Nothing But the Night 04:27
3. Drunk Whores and Destruction 03:53
4. Night of the Prowler 03:49
5. Midnight Sacrifice 03:44
6. Hammer of Horrors 03:57
7. My Boot over the Face of Christ 04:22
8. Witching Rock n' Roll 03:12
******************************
Total playing time: 28:36





[more=Extended info][youtube]K479fXxGkuI[/youtube][/more]

[more=Technical info]
Input File: 2.Nothing But the Night.mp3
Channels : 2
Sample Rate : 44100
Precision : 16-bit
Duration : 00:04:27.16 = 11781580 samples = 20036.7 CDDA sectors
File Size : 10.7M
Bit Rate : 321k
Sample Encoding: MPEG audio (layer I, II or III)
Comments :
Title=Nothing But the Night
Artist=Nightprowler
Album=Unholy Rawness
Tracknumber=02
Year=2017
Genre=Heavy Metal

[/more]

Register
(14) boby9052, Buregon, infiltrator, necromasochist, Ostinato, Rosen, roverinc, satanas189, SatanicPanzer, snake, Sylvi, varlam4, vir2al, wgs73,
Jun 21 2017, 19:44:06 Nekromant - Snakes & Liars (2017)


*Artist: Nekromant
*Album: Snakes & Liars
*Year: 2017
*Genre: Heavy/Doom Metal/Hard Rock
*Country: Sweden
*Format: mp3@CBR320kbps
*Size: 84MB

Tracklist:
1. Stoned to Death, Doomed to Die 04:51
2. Funeral Worship 04:23
3. Black Velvet 03:15
4. Ashes & Rain 04:45
5. Inside Yourself 04:54
6. Mardröm 01:13
7. Never Saved 05:59
8. Snakes & Liars 01:56
9. Spelmannen 04:39
******************************
Total playing time: 35:55




[more=Extended info] ex-Serpent

[youtube]AkpUnrYVCac[/youtube][/more]

[more=Technical info]
Input File: 01. Stoned to Death, Doomed to Die.mp3
Channels : 2
Sample Rate : 44100
Precision : 16-bit
Duration : 00:04:51.53 = 12856473 samples = 21864.7 CDDA sectors
File Size : 11.8M
Bit Rate : 323k
Sample Encoding: MPEG audio (layer I, II or III)
Comments :
Title=Stoned to Death, Doomed to Die
Artist=Nekromant
Album=Snakes & Liars
Tracknumber=1
Year=2017

[/more]

Register
(17) avkruchinin, BRUTAL06, Buregon, infiltrator, Lightbringer, metala, Mogozoz, Moonshtook, postal67, Rosen, roverinc, SatanicPanzer, Spunkynut, VALERY, varlam4, vir2al, wgs73,
Jun 20 2017, 20:54:52 Breathing Hell - Gospel Of Annihilation (2017)
Register
(8) AHBAnep, Diflock, ExeThrash, infiltrator, metala, metalfanatic666, rom666, Sanc,
Jun 20 2017, 20:52:43 Black Sin - Solitude éternelle (2017)


*Artist: Black Sin
*Album: Solitude éternelle
*Year: 2017
*Genre: Suicidal Black Metal
*Country: France
*Format: mp3@CBR320kbps
*Size: 111MB

Tracklist:
1. Intro 02:16
2. Lente descente 05:22
3. Dévastation 08:14
4. Derniers instants de vie 06:03
5. K.A.H.R II 04:37
6. Cendres 10:33
7. Vides existences 05:42
8. Solitude éternelle 05:50
******************************
Total playing time: 48:37




[more=Extended info][youtube]gdklzVN2054[/youtube][/more]

[more=Technical info]
Input File: 2.Lente descente.mp3
Channels : 2
Sample Rate : 44100
Precision : 16-bit
Duration : 00:05:22.12 = 14205404 samples = 24158.9 CDDA sectors
File Size : 12.9M
Bit Rate : 320k
Sample Encoding: MPEG audio (layer I, II or III)
Comments :
Title=Lente descente
Artist=Black Sin
Album=Solitude Г©ternelle
Tracknumber=2
Year=2017
Genre=Black Metal

[/more]

Register
(31) 1968_janeart, artscald, blacky66, Branis, Buregon, Hell_Is_Here, Ildjarn, Indamage, infiltrator, kim666, Krosis, Maximvs, metala, metaljinie, NachtWulf, Naga, rom666, Rosen, RUSP73, Sanc, SatanicPanzer, satanist666, serg1349, Storky, stub888, SyncestrA, toly1917, VALERY, varlam4, ZambuL, добрыйКот,
Jun 20 2017, 20:33:08 Totenmond - Auf Dem Mond Ein Feuer (2001)
Из сети... 320kbps 76,5mb

Register
(3) cinik999, hushmail, wgs73,
Jun 20 2017, 20:18:01 Breathing Hell - Gospel Of Annihilation (2017)


*Artist: Breathing Hell
*Album: Gospel Of Annihilation
*Year: 2017
*Genre: Blackened Death/Thrash Metal
*Country: Unknown
*Format: mp3@CBR320kbps
*Size: 104MB

Tracklist:
1. The Initiation 02:51
2. Advent of the Adversary 06:14
3. Omnicide 04:26
4. Ascension of the Malignant Spirits 04:14
5. Incinerate 04:50
6. Hellraising Degenerates 05:38
7. The Seventh and One 04:45
8. Bloodline of the Oppressor 04:21
9. Herald of Pestilence 04:59
10. Gospel of Annihilation 02:10
******************************
Total playing time: 44:28



Metal-Archives


[more=Technical info]
Input File: 03. Omnicide.mp3
Channels : 2
Sample Rate : 44100
Precision : 16-bit
Duration : 00:04:25.85 = 11723985 samples = 19938.8 CDDA sectors
File Size : 10.9M
Bit Rate : 329k
Sample Encoding: MPEG audio (layer I, II or III)
Comments :
Title=Omnicide
Artist=Breathing Hell
Album=Gospel of Annihilation
Tracknumber=03
Year=2017
Genre=Blackened Death Metal

[/more]

Register
(17) boby9052, BRUTAL06, Buregon, Diflock, infiltrator, lldma, METALHUNTER, neoatheist, Rosen, roverinc, Sanc, satanas189, SymbyoticEntity, THROWER666, Vintersorg, vyacheslav, wgs73,
Jun 20 2017, 19:28:43 Anthem - Engraved (2017)


*Artist: Anthem
*Album: Engraved
*Year: 2017
*Genre: Heavy Metal
*Country: Japan
*Format: mp3@CBR320kbps
*Size: 114MB

Tracklist:
1. The Artery Song
2. Far Away
3. Keep You Spirit Alive
4. Linkage
5. Midnight Growl
6. Reactive Desire
7. Sacred Trace
8. Paint Myself
9. Frozen Fate
10. Don't Break Away
11. Engraved
******************************
Total playing time: 49:35



[more=Extended info][youtube]UQ5l62J6NvQ[/youtube][/more]

[more=Technical info]
Input File: 01 - The Artery Song.mp3
Channels : 2
Sample Rate : 44100
Precision : 16-bit
Duration : 00:03:46.48 = 9987856 samples = 16986.1 CDDA sectors
File Size : 9.10M
Bit Rate : 322k
Sample Encoding: MPEG audio (layer I, II or III)
Comments :
Title=The Artery Song
Artist=Anthem
Album=Engraved
Tracknumber=1/11
Year=2017
Genre=Heavy Metal

[/more]

Register
(14) ace73pq, AHBAnep, anatolibugar, Buregon, csgmnk, DTGB, infiltrator, metala, MеtalHead, Rosen, rpa, varlam4, wgs73, Wolfera,
Jun 20 2017, 19:05:31 Meszaroth - Nihil Manifesto [ep] (2017)


*Artist: Meszaroth
*Album: Nihil Manifesto [ep]
*Year: 2017
*Genre: Black Metal
*Country: Spain
*Format: mp3@CBR320kbps
*Size: 61MB

Tracklist:
1. Mors Genesis Collapse 06:24
2. Dread 06:53
3. The Fractal Halls of Nothingness 06:24
4. Behold the Vacuum 05:18
******************************
Total playing time: 24:59




[more=Extended info]В Лоу..

[youtube]I8xPXZj_7mc[/youtube][/more]

[more=Technical info]
Input File: 04 Behold the Vacuum.mp3
Channels : 2
Sample Rate : 44100
Precision : 16-bit
Duration : 00:05:19.06 = 14070634 samples = 23929.6 CDDA sectors
File Size : 13.7M
Bit Rate : 344k
Sample Encoding: MPEG audio (layer I, II or III)
Comments :
Title=Behold the Vacuum
Artist=Meszaroth
Album=Nihil Manifesto
Tracknumber=4
Year=2017
Genre=Black Metal
Discnumber=4/4

[/more]

Register
(15) 1968_janeart, blacky66, Doooomed, Eugenio, Ildjarn, infiltrator, kim666, murian, rimfrost, rom666, Rosen, satanist666, stub888, thenecromancer, vasiljev_sergej,
Jun 19 2017, 19:34:35 Various Artists - A Tribute To Iron Maiden's Somewhere In Time [best of/compilation] (2016)


*Artist: Various Artists
*Album: A Tribute To Iron Maiden's Somewhere In Time [best of/compilation]
*Year: 2016
*Genre: Heavy Metal
*Country: Greece
*Format: mp3@CBR320kbps
*Size: 120MB

Tracklist:
1. Psycrence - Caught Somewhere In Time 07:51
2. Null'O'Zero - Wasted Years 05:02
3. Endomain - Sea Of Madness 05:57
4. Fortress Under Siege - Heaven Can Wait 07:22
5. Diviner - The Loneliness Of The Long Distance Runner 06:20
6. Arrayan Path - Stranger In A Strange Land 06:07
7. Monument - Déjà Vu 05:02
8. InnerWish - Alexander The Great 08:41
******************************
Total playing time: 52:22

discogs.com - инфа

[more=Extended info][youtube]40QQzpjPoNM[/youtube][/more]

[more=Technical info]
Input File: 02. Wasted Years.mp3
Channels : 2
Sample Rate : 44100
Precision : 16-bit
Duration : 00:05:02.37 = 13334605 samples = 22677.9 CDDA sectors
File Size : 12.2M
Bit Rate : 323k
Sample Encoding: MPEG audio (layer I, II or III)
Comments :
Title=Wasted Years
Artist=Null 'o' Zero
Album=A Tribute To Iron Maiden's Somewhere In Time
Tracknumber=2
Year=2016
Genre=137

[/more]

Register
(10) AndreFrancis, Andrew, DMIYUR, infiltrator, khestanow3001, killingod, MAYH, Olrak, Rosen, wgs73,
Jun 19 2017, 18:47:15 Equilibrium Falls - Frames And Horizons (2017)


*Artist: Equilibrium Falls
*Album: Frames And Horizons
*Year: 2017
*Genre: Modern Melodic Death Metal
*Country: Russian Federation
*Format: mp3@CBR320kbps
*Size: 79MB

Tracklist:
1. A Flawless Nothing 03:28
2. A Rising Downfall 03:38
3. Secure Tomorrow 04:26
4. Frames and Horizons 03:38
5. Catch the Sunrise 04:20
6. System Resistance 03:48
7. Past Illusions 01:44
8. Revolve to Fade 03:41
9. Deception 05:23
******************************
Total playing time: 34:06

ВКонтакТ



[more=Extended info][youtube]zjS52vbj4bI[/youtube][/more]

[more=Technical info]
Input File: 01. A Flawless Nothing.mp3
Channels : 2
Sample Rate : 44100
Precision : 16-bit
Duration : 00:03:28.17 = 9180121 samples = 15612.5 CDDA sectors
File Size : 8.41M
Bit Rate : 323k
Sample Encoding: MPEG audio (layer I, II or III)
Comments :
Title=A Flawless Nothing
Artist=Equilibrium Falls
Album=Frames and Horizons
Tracknumber=1
Year=2017
Genre=Метал
Discnumber=1

[/more]

Register
(11) csgmnk, DenisKov, ehfeka44, Emhyr var Emreis, infiltrator, ironyserg, Mogozoz, Rosen, talismanFS, VALERY, ZAR,
Jun 18 2017, 21:46:09 Stone Cadaver - Reject Remove Replace (2017)


*Artist: Stone Cadaver
*Album: Reject Remove Replace
*Year: 2017
*Genre: Stoner Metal/Rock
*Country: Denmark
*Format: mp3@CBR320kbps
*Size: 91MB

Tracklist:
1. Sscum
2. We Need Your Fucking Blood
3. Suffer the Scorn
4. Ruins in the Sand
5. Hands of Death
6. Removal of the Eye
7. Dead Horses (Parts 1 & 2)
******************************
Total playing time: 39:27




[more=Extended info]Old school proto-metal guitar and gritty, distorted bass combine with fat, organic drums to concoct an evil gumbo of dirty ‘70s inspired stoner riffs topped off with a few pinches of catchy doom grooves that is bound to fill that empty hole in your stomach.

Picture three guys in denim vests mixing the likes of Pentagram, Black Sabbath, Deep Purple and Electric Wizard in their heavy riffing, and you have pretty good idea of what Stone Cadaver is all about.

[youtube]cfYXVsIXsuI[/youtube]
[youtube]uc5cTFaOyQE&t[/youtube][/more]

[more=Technical info]
Input File: 01. Sscum.mp3
Channels : 2
Sample Rate : 44100
Precision : 16-bit
Duration : 00:05:37.53 = 14885073 samples = 25314.7 CDDA sectors
File Size : 13.5M
Bit Rate : 321k
Sample Encoding: MPEG audio (layer I, II or III)
Comments :
Title=Sscum
Artist=Stone Cadaver
Album=Reject Remove Replace
Tracknumber=01
Year=2017
Genre=Stoner Metal

[/more]

Register
(9) avkruchinin, Buregon, gena, infiltrator, marilin, Rosen, SatanicPanzer, stub888, vosmidesijatye,
Jun 18 2017, 21:20:09 Cheap Trick - We're All Alright! (2017)


*Artist: Cheap Trick
*Album: We're All Alright!
*Year: 2017
*Genre: Hard Rock
*Country: United States
*Format: mp3@CBR320kbps
*Size: 105MB

Tracklist:
01. You Got It Going On
02. Long Time Coming
03. Nowhere
04. Radio Lover
05. Lolita
06. Brand New Name On An Old Tattoo
07. Floating Down
08. She’s Alright
09. Listen To Me
10. The Rest Of My Life
11. Blackberry Way (Bonus Track)
12. Like A Fly (Bonus Track)
13. If You Still Want My Love (Bonus Track)
******************************
Total playing time: 44:47


HomePage

[more=Extended info][youtube]sc2NP8TUCUM[/youtube][/more]

[more=Technical info]
Input File: 01 - You Got It Going On.mp3
Channels : 2
Sample Rate : 44100
Precision : 16-bit
Duration : 00:03:11.46 = 8443254 samples = 14359.3 CDDA sectors
File Size : 7.88M
Bit Rate : 329k
Sample Encoding: MPEG audio (layer I, II or III)
Comments :
Title=You Got It Going On
Artist=Cheap Trick
Album=We're All Alright! (Deluxe Edition)
Tracknumber=1/13
Year=2017

[/more]

Register
(3) avkruchinin, Diflock, Hedgehog666,
Jun 18 2017, 20:45:51 Изумрудный Город - Встать на Крыло (2016)


*Artist: Изумрудный Город
*Album: Встать на Крыло
*Year: 2016
*Genre: Folk/Heavy Metal
*Country: Russian Federation
*Format: mp3@CBR320kbps
*Size: 72MB

Tracklist:
1. Не Позволяй Мне Упасть 04:11
2. Сказ про Ивана 03:25
3. 300 03:16
4. Магистраль Дней 04:38
5. Вивальди 02:33
6. В Ожидании 04:50
7. The Boyfriend of Steel 03:30
8. Танец Осенней Листвы 04:27
******************************
Total playing time: 30:50

ВКонтакТ

[more=Extended info][youtube]2_QzlnqpOcM[/youtube][/more]

[more=Technical info]
Input File: 02. Сказ про Ивана.mp3
Channels : 2
Sample Rate : 44100
Precision : 16-bit
Duration : 00:03:25.98 = 9083630 samples = 15448.4 CDDA sectors
File Size : 8.41M
Bit Rate : 326k
Sample Encoding: MPEG audio (layer I, II or III)
Comments :
Title=Сказ РїСЂРѕ Р?вана
Artist=Р?зумрудный РіРѕСЂРѕРґ
Album=Встать на крыло
Tracknumber=2
Year=2016
Genre=Symphonic Metal / Folk

[/more]

Register
(15) apostol_13, Aresson, avkruchinin, Cartman223, cesar, csgmnk, Druidir, infiltrator, oldvarg, Rakkot, Rosen, talismanFS, v.v.m, varlam4, Сварог Барг,
Jun 18 2017, 20:34:30 Проект-162 - Приди и Возьми [ep] (2016)


*Artist: Проект-162
*Album: Приди и Возьми [ep]
*Year: 2016
*Genre: Heavy Metal/Hard Rock
*Country: Unknown
*Format: mp3@CBR320kbps
*Size: 50MB

Tracklist:
1. Ложь 03:45
2. Дай мне руку 04:02
3. Альтаир 04:24
4. Крысолов 04:36
5. Приди и возьми 05:00
******************************
Total playing time: 21:47

ВКонтакТ

[more=Technical info]
Input File: 01. Ложь.mp3
Channels : 2
Sample Rate : 44100
Precision : 16-bit
Duration : 00:03:45.67 = 9952091 samples = 16925.3 CDDA sectors
File Size : 9.03M
Bit Rate : 320k
Sample Encoding: MPEG audio (layer I, II or III)
Comments :
Title=Ëîæü
Artist=Ïðîåêò-162
Album=Ïðèäè è Âîçüìè
Tracknumber=1
Year=2016
Genre=Heavy Metal

[/more]

Register
(5) apostol_13, Aresson, infiltrator, oldvarg, VALERY,
Jun 18 2017, 20:25:12 Талисман - Время Как Вода [ep] (2017)


*Artist: Талисман
*Album: Время Как Вода [ep]
*Year: 2017
*Genre: Heavy/Power Metal
*Country: Russian Federation
*Format: mp3@CBR320kbps
*Size: 37MB

Tracklist:
1. Русское Племя 05:32
2. Помни 05:58
3. Забытая История (инструментал) 04:32
******************************
Total playing time: 16:02

ВКонтакТ

[more=Technical info]
Input File: 01. Русское племя.mp3
Channels : 2
Sample Rate : 44100
Precision : 16-bit
Duration : 00:05:33.06 = 14688122 samples = 24979.8 CDDA sectors
File Size : 13.3M
Bit Rate : 320k
Sample Encoding: MPEG audio (layer I, II or III)
Comments :
Title=Русское племя
Artist=Талисман
Album=Время как вода (EP)
Tracknumber=1
Year=2017

[/more]

Register
(8) apostol_13, Aresson, csgmnk, infiltrator, oldvarg, Rosen, varlam4, Сварог Барг,
Jun 18 2017, 20:12:52 Багира - Шрамы (2017)


*Artist: Багира
*Album: Шрамы
*Year: 2017
*Genre: Heavy/Groove Metal
*Country: Russian Federation
*Format: mp3@CBR320kbps
*Size: 87MB

Tracklist:
1. Волна 04:10
2. Шёпот 04:27
3. Залечь на Дно 03:31
4. Шрамы 04:04
5. Бритва Рассвета 03:18
6. Ловец Снов 05:06
7. Гнев 03:11
8. Девятый Круг 02:56
9. Момент 03:43
10. Запах Войны 03:18
******************************
Total playing time: 37:44

ВКонтакТ


[more=Technical info]
Input File: 01. Волна.mp3
Channels : 2
Sample Rate : 44100
Precision : 16-bit
Duration : 00:04:10.99 = 11068527 samples = 18824 CDDA sectors
File Size : 10.0M
Bit Rate : 320k
Sample Encoding: MPEG audio (layer I, II or III)
Comments :
Title=Волна
Artist=Багира
Album=Шрамы
Tracknumber=01
Year=2017
Genre=9

[/more]

Register
(8) Aresson, avkruchinin, csgmnk, infiltrator, Rosen, roverinc, VALERY, varlam4,
Jun 18 2017, 20:00:31 Hardy - Тень Одиночества [ep] (2017)


*Artist: Hardy
*Album: Тень Одиночества [ep]
*Year: 2017
*Genre: Heavy Metal
*Country: Russian Federation
*Format: mp3@CBR320kbps
*Size: 40MB

Tracklist:
1. Избранный 04:14
2. Тень Одиночества 04:35
3. Штрихи 04:42
4. Ветер Воли 04:00
******************************
Total playing time: 17:31

ВКонтакТ

[more=Technical info]
Input File: 01. Избранный.mp3
Channels : 2
Sample Rate : 44100
Precision : 16-bit
Duration : 00:04:14.07 = 11204443 samples = 19055.2 CDDA sectors
File Size : 10.2M
Bit Rate : 320k
Sample Encoding: MPEG audio (layer I, II or III)
Comments :
Title=Р?збранный
Artist=HARDY
Album=EP "Тень Одиночества"
Tracknumber=1
Year=2017
Genre=hard'n'heavy
Discnumber=0

[/more]

Register
(9) apostol_13, csgmnk, Druidir, infiltrator, oldvarg, Rosen, varlam4, wgs73, Сварог Барг,
Jun 18 2017, 19:48:10 Grimwind - IV (2017)


*Artist: Grimwind
*Album: IV
*Year: 2017
*Genre: Melodic Death Metal
*Country: Russian Federation
*Format: mp3@CBR320kbps
*Size: 97MB

Tracklist:
1. Штрафной Легион 04:00
2. Берсерк Кхорна 03:25
3. Мёртвые Дети Вселенной 04:17
4. Культистке 04:06
5. Там Будем Мы 03:54
6. Плачь, Империум 04:54
7. Несущие Слово 03:31
8. Тзинч 06:01
9. Кайваан Шрайк 04:24
10. Люций 03:42
******************************
Total playing time: 42:14

ВКонтакТ

[more=Technical info]
Input File: 02 - Берсерк Кхорна.mp3
Channels : 2
Sample Rate : 44100
Precision : 16-bit
Duration : 00:03:26.08 = 9088216 samples = 15456.1 CDDA sectors
File Size : 8.24M
Bit Rate : 320k
Sample Encoding: MPEG audio (layer I, II or III)
Comments :
Title=Áåðñåðê Êõîðíà
Artist=Grimwind
Album=IV
Tracknumber=02
Year=2017
Genre=Melodic Death Metal

[/more]

Register
(14) 0x13, apostol_13, csgmnk, ehfeka44, infiltrator, Machine Head, Mogozoz, oldvarg, Rosen, roverinc, VALERY, varlam4, ZAR, zerger,
Jun 8 2017, 19:17:38 Новости направления MDM
Альбом 11 августа...Napalm

[youtube]VPDT1VIiHAk[/youtube]
(2) Andrew, neoatheist,
Jun 8 2017, 19:05:40 Gods Forsaken - In A Pitch Black Grave (2017)
Вполне годная шведятинка...

[youtube]pzwdFxW_lEk[/youtube] [youtube]FSQyRRa2yac[/youtube]
(3) 6666666, KVRT, neoatheist,

177 Pages V   1 2 3 > » 
- Lo-Fi Version Support form
Copyrights and abuse reports form
Time is now: 14th December 2019 - 03:14:47