Welcome Guest ( Log In | Register )

История благодарностей участнику metadeat ::: Спасибо сказали: 40176 раз(а)
Дата поста: В теме: За сообщение: Спасибо сказали:
May 15 2017, 17:48:02 Elyose - Rédemption [studio clip] (2015)


*Performer: Elyose
*Title: Rédemption
*Type: Studio Clip
*Album: Ipso Facto
*Year: 2015
*Genre: Gothic Metal
*Country: France

*Audio: aac@126kbps
*Video: h.264@1916kbps
*Resolution: 1920x1080
*Size: 66MB
******************************
*Length: 00:04:30

[more=Extended info][youtube]2PCqUeds3Pg[/youtube][/more]

Register
(4) Rosen, Scuns, Styx, VALERY,
May 15 2017, 17:39:18 Eleine - Break Take Live [studio clip] (2016)


*Performer: Eleine
*Title: Break Take Live
*Type: Studio Clip
*Album: Break Take Live (single)
*Year: 2016
*Genre: Symphonic Metal
*Country: Sweden

*Audio: aac@126kbps
*Video: h.264@1651kbps
*Resolution: 1920x816
*Size: 59MB
******************************
*Length: 00:04:35

[more=Extended info][youtube]r_6gFdC4Rm4[/youtube][/more]

Register
(2) gwar, Rosen,
May 15 2017, 17:32:10 Theatres Des Vampires - Morgana Effect [studio clip] (2016)


*Performer: Theatres Des Vampires
*Title: Morgana Effect
*Type: Studio Clip
*Album: Candyland
*Year: 2016
*Genre: Gothic Metal
*Country: Italy

*Audio: aac@126kbps
*Video: h.264@2166kbps
*Resolution: 1920x1080
*Size: 62MB
******************************
*Length: 00:03:46

[more=Extended info][youtube]r2whvqOU2gw[/youtube][/more]

Register
(4) gwar, Rosen, Scuns, VALERY,
May 14 2017, 18:10:07 Nattvindens Gråt - A Bard's Tale (1995)
CBR320kbps 107mb + 5mb scans
Register

[youtube]4Qp5rqCTqy0[/youtube]
(8) cuimit1349, kostja, Luminous, Old Vyaine, quicksand, sperminator, Utugg, Zahrim,
May 14 2017, 17:06:59 Sideburn - #Eight (2017)


*Artist: Sideburn
*Album: #Eight
*Year: 2017
*Genre: Hard Rock
*Country: Switzerland
*Format: mp3@CBR320kbps
*Size: 105MB

Tracklist:
01. All the While
02. Call Me a Doctor
03. Turn Away
04. Drop Zone
05. Get You Ride On
06. No More Room in Hell
07. Driving on the Main Line
08. Give Me a Sign
09. Long Road to Paradise
10. Save Your Soul
11. Got to Move On
12. No Class
******************************
Total playing time: 45:20

HomePage


[more=Extended info][youtube]zJXciyTJWPI[/youtube][/more]

[more=Technical info]
Input File: 01 All the While.mp3
Channels : 2
Sample Rate : 44100
Precision : 16-bit
Duration : 00:04:21.30 = 11523374 samples = 19597.6 CDDA sectors
File Size : 10.7M
Bit Rate : 327k
Sample Encoding: MPEG audio (layer I, II or III)
Comments :
Title=All the While
Artist=Sideburn
Album=#Eight
Tracknumber=1
Year=2017
Discnumber=1/1

[/more]

Register
(3) avkruchinin, Diflock, postal67,
May 14 2017, 16:39:21 Alestorm - Mexico [studio clip] (2017)


*Performer: Alestorm
*Title: Mexico
*Type: Studio Clip
*Album: No Grave But The Sea
*Year: 2017
*Genre: Folk/Power Metal
*Country: United Kingdom

*Audio: aac@126kbps
*Video: h.264@3542kbps
*Resolution: 1920x1080
*Size: 94MB
******************************
*Length: 00:03:34

[more=Extended info][youtube]-r8jlHDBMsw[/youtube][/more]

Register
(5) gwar, marsfarock, Rosen, Scuns, vint1324,
May 14 2017, 16:26:40 Geezer - Psychoriffadelia (2017)


*Artist: Geezer
*Album: Psychoriffadelia
*Year: 2017
*Genre: Stoner/Psychedelic/Hard Rock
*Country: United States
*Format: mp3@CBR320kbps
*Size: 90MB

Tracklist:
1. Hair Of The Dog 04:47
2. Stressknots 04:40
3. Psychoriffadelia 10:15
4. Red Hook 06:02
5. Dirty Penny 13:23
******************************
Total playing time: 39:07




[more=Extended info][youtube]AQ9S9jwFIt8[/youtube][/more]

[more=Technical info]
Input File: 01 Hair Of The Dog.mp3
Channels : 2
Sample Rate : 44100
Precision : 16-bit
Duration : 00:04:47.98 = 12699742 samples = 21598.2 CDDA sectors
File Size : 11.6M
Bit Rate : 322k
Sample Encoding: MPEG audio (layer I, II or III)
Comments :
Title=Hair Of The Dog
Artist=Geezer
Album=Psychoriffadelia
Tracknumber=01
Year=2017
Genre=Rock

[/more]

Register
(11) A.L.Rapsod, Aresson, avkruchinin, BRUTAL06, Diflock, princeshr, qpMM, SatanicPanzer, scorn33, Spunkynut, VALERY,
May 14 2017, 11:39:49 D-Metal Stars - Metal Disney (2016)


*Artist: D-Metal Stars
*Album: Metal Disney
*Year: 2016
*Genre: Heavy/Power Metal
*Country: United States
*Format: mp3@CBR320kbps
*Size: 90MB

Tracklist:
01. Introduction 00:41
02. Mickey Mouse March 03:26
03. I See the Light 04:16
04. A Whole New World 03:17
05. Its A Small World 03:57
06. Beauty and the Beast 03:53
07. Under the Sea 03:34
08. Go the Distance 04:14
09. Can You Feel the Love Tonight 04:01
10. Disney Medley 04:23
11. When You Wish Upon a Star 03:39
******************************
Total playing time: 39:21



[more=Extended info]D-Metal Stars is a band spun off of the successful Animetal USA project. The band features Michael Vescera (Vocals), Rudy Sarzo (Bass), John Bruno (Guitar), and BJ Zampa (Drums). The band covers heavy metal versions of popular Disney songs on Walt Disney Records.

The song "I see the Light" from Disney's Tangled features special guests Demon Kakka (Vocal) and Jeff Watson (guitar solos). The Debut album "Metal Disney" release date is Oct 5th 2016 in the Japanese market.
[/more]

[more=Technical info]
Input File: 01 - Introduction.mp3
Channels : 2
Sample Rate : 44100
Precision : 16-bit
Duration : 00:00:40.71 = 1795355 samples = 3053.32 CDDA sectors
File Size : 1.63M
Bit Rate : 320k
Sample Encoding: MPEG audio (layer I, II or III)
Comments :
Title=Introduction
Artist=D-Metal Stars
Album=Metal Disney
Tracknumber=1
Year=2017
Genre=Metal

[/more]

Register
(6) csgmnk, metala, Olrak, Rosen, Spork, v.v.m,
May 14 2017, 10:46:23 Coldborn - Lingering Voidwards (2016)


*Artist: Coldborn
*Album: Lingering Voidwards
*Year: 2016
*Genre: Atmospheric Black Metal
*Country: Belgium
*Format: mp3@VBR263kbps
*Size: 89MB

Tracklist:
1. The Call of Death's Clarion 12:52
2. In the Absence of Light, Death Gazes 08:38
3. In Solitude 08:40
4. Lingering Voidwards 08:10
5. Withered 08:55
******************************
Total playing time: 47:15




[more=Extended info]LineUp:
Norgaath Vocals, Guitars, Bass, Keyboards (2007-present)
See also: Grimfaug, Nightbringer, Striid, ex-Urzamoth (live), ex-Worthless (live), Ayperos, ex-Gotmoor, ex-Hellewacth, ex-Corpus Christii (live), ex-Paragon Impure, ex-Wapenspraak & Drinkgelag

[youtube]Ihqsf3GDz04[/youtube][/more]

Register
(24) 0x13, 1968_janeart, aserius, blacky66, Buregon, GAS, Ildjarn, Immortality, kim666, Korpse, Machine Head, Maximvs, NachtWulf, Ostinato, Razorbladeswaltz, rom666, Rosen, RUSP73, stub888, TAKATAEL, VALERY, varg-38ru, vasiljev_sergej, ZA670,
May 14 2017, 09:47:33 Spoil Engine - Stormsleeper (2017)


*Artist: Spoil Engine
*Album: Stormsleeper
*Year: 2017
*Genre: Melodic Death Metal/Metalcore
*Country: Belgium
*Format: mp3@CBR320kbps
*Size: 98MB

Tracklist:
1. Disconnect 03:50
2. Silence Will Fall 04:42
3. Doomed to Die 03:48
4. Weightless 03:50
5. Stormsleeper 04:00
6. Hollow Crown 04:46
7. Black Sails 04:21
8. The Verdict 03:44
9. Singing Sirens 04:44
10. Wastelands 04:33
******************************
Total playing time: 42:18



[more=Extended info][youtube]Y-m9sztaWo0[/youtube]
[youtube]tdyrT89NRxs[/youtube][/more]

[more=Technical info]
Input File: 01 Disconnect.mp3
Channels : 2
Sample Rate : 44100
Precision : 16-bit
Duration : 00:03:50.37 = 10159317 samples = 17277.8 CDDA sectors
File Size : 9.36M
Bit Rate : 325k
Sample Encoding: MPEG audio (layer I, II or III)
Comments :
Title=Disconnect
Artist=Spoil Engine
Album=Stormsleeper
Tracknumber=1/10
Year=2017

[/more]

Register
(5) DenisKov, Mogozoz, Rosen, talismanFS, VALERY,
May 14 2017, 09:20:06 Shadowlynx - Forged As One (2017)


*Artist: Shadowlynx
*Album: Forged As One
*Year: 2017
*Genre: Power/Heavy Metal
*Country: United States
*Format: mp3@CBR320kbps
*Size: 108MB

Tracklist:
1. Attila 05:12
2. The Black Crusade 06:00
3. Destiny 05:26
4. Beasts 03:49
5. We Are Legend 04:43
6. Diamonds 06:33
7. The Last Straw 04:09
8. Run Out of Tears 06:08
9. Hailfyre 05:04
******************************
Total playing time: 47:04




[more=Extended info][youtube]A8RN6otj8xs[/youtube][/more]

[more=Technical info]
Input File: 04 - Beasts.mp3
Channels : 2
Sample Rate : 44100
Precision : 16-bit
Duration : 00:03:46.53 = 9989973 samples = 16989.8 CDDA sectors
File Size : 9.18M
Bit Rate : 324k
Sample Encoding: MPEG audio (layer I, II or III)
Comments :
Title=Beasts
Artist=Shadowlynx
Album=Forged as One
Tracknumber=4/9
Year=2017

[/more]

Register
(12) andgrek28, Druidir, infozahist, katalin, metala, MetalW, mevgal, Mogozoz, Olrak, Rosen, roverinc, wgs73,
May 14 2017, 09:00:50 Savanah - The Healer (2017)


*Artist: Savanah
*Album: The Healer
*Year: 2017
*Genre: Stoner Metal/Rock
*Country: Austria
*Format: mp3@CBR320kbps
*Size: 102MB

Tracklist:
1. Intro 00:50
2. Mind 08:04
3. The Healer 05:56
4. Pillars of Creation 07:41
5. Black Widow 10:31
6. Panoramic View of Stormy Weather 11:25
******************************
Total playing time: 44:27




[more=Technical info]
Input File: 01. Intro.mp3
Channels : 2
Sample Rate : 44100
Precision : 16-bit
Duration : 00:00:50.74 = 2237502 samples = 3805.28 CDDA sectors
File Size : 2.10M
Bit Rate : 331k
Sample Encoding: MPEG audio (layer I, II or III)
Comments :
Title=Intro
Artist=Savanah
Album=The Healer
Tracknumber=1/6
Year=2017

[/more]

Register
(7) Buregon, Ostinato, Rosen, RunningWild_AT, Sabbathian, stub888, Uriel,
May 13 2017, 18:22:40 A Feast For Crows - A Chapter Unwritten (2017)


*Artist: A Feast For Crows
*Album: A Chapter Unwritten
*Year: 2017
*Genre: Modern Metal
*Country: Germany
*Format: mp3@CBR320kbps
*Size: 125MB

Tracklist:
01. Prologue
02. Endless Devour
03. Insomaniac
04. Hail Mary
05. Waste & Filth
06. Cromwell 25
07. For(N)Ever
08. The Reckoning
09. Miss Bloodred Lips
10. A Gleam of Hope
11. Neverending Rain
12. The Tale (A Chapter Unwritten)
13. Epilogue
14. Endless Devour (Zyntethik Remix) (bonus)
15. The Reckoning (Noisuf-X Remix) (bonus)
******************************
Total playing time: 54:20

HomePage


[more=Extended info][youtube]9utXYy6-QeE[/youtube][/more]

[more=Technical info]
Input File: 02. Endless Devour.mp3
Channels : 2
Sample Rate : 44100
Precision : 16-bit
Duration : 00:03:34.02 = 9438194 samples = 16051.4 CDDA sectors
File Size : 8.63M
Bit Rate : 323k
Sample Encoding: MPEG audio (layer I, II or III)
Comments :
Title=Endless Devour
Artist=A Feast For Crows
Album=A Chapter Unwritten
Tracknumber=02/15
Year=2017
Genre=Modern Metal

[/more]

Register
(6) avather, Buregon, DenisKov, MeatWolf, Rosen, roverinc,
May 13 2017, 10:36:47 Aldious - Unlimited Diffusion (2017)


*Artist: Aldious
*Album: Unlimited Diffusion
*Year: 2017
*Genre: Melodic Power Metal
*Country: Japan
*Format: mp3@CBR320kbps
*Size: 122MB

Tracklist:
1. Utopia
2. Lose Control
3. Without You
4. Dilemma
5. Baika
6. Alright
7. Marigold
8. Nostalgic (New Mix)
9. Reincarnation
10. Go Away
11. In This World
12. Fragile (Album Mix)
******************************
Total playing time: 52:50



[more=Extended info][youtube]6i7LKabRdqs[/youtube]
[youtube]Eo89hEJ2rsM[/youtube]
[youtube]7qukgVMx5b0[/youtube][/more]

[more=Technical info]
Input File: 01. Utopia.mp3
Channels : 2
Sample Rate : 48000
Precision : 16-bit
Duration : 00:04:40.01 = 13440528 samples ~ 21000.8 CDDA sectors
File Size : 11.3M
Bit Rate : 323k
Sample Encoding: MPEG audio (layer I, II or III)
Comments :
Title=Utopia
Artist=Aldious
Album=Aldious
Tracknumber=01/12
Genre=Metal
Discnumber=1/1

[/more]

Register
(10) Alpha_Prime, aviacademy, gwar, metala, Mogozoz, oldvarg, Rosen, roverinc, sayfut, varlam4,
May 13 2017, 10:07:58 Unchained - Chasing Shadows (2017)


*Artist: Unchained
*Album: Chasing Shadows
*Year: 2017
*Genre: Melodic Death Metal
*Country: France
*Format: mp3@CBR320kbps
*Size: 93MB

Tracklist:
1. City of Lights 01:00
2. No Lessons Learned 03:51
3. Conspiracy for Fools 03:44
4. The Great Disease 04:01
5. This Is Hell 04:52
6. My Favorite Nightmare 04:48
7. Black as Your Soul 04:49
8. Book of the Dead 03:37
9. Let It Kill You 04:18
10. Room 237 05:32
******************************
Total playing time: 40:32



[more=Extended info][youtube]HM_pl14ux9A[/youtube]
[youtube]hAoZq6SyHKTc[/youtube][/more]

[more=Technical info]
Input File: 02 - No Lessons Learned.mp3
Channels : 2
Sample Rate : 44100
Precision : 16-bit
Duration : 00:03:51.91 = 10227187 samples = 17393.2 CDDA sectors
File Size : 9.30M
Bit Rate : 321k
Sample Encoding: MPEG audio (layer I, II or III)
Comments :
Title=No Lessons Learned
Artist=Unchained
Album=Chasing Shadows
Tracknumber=2/10
Year=2017
Genre=22

[/more]

Register
(14) Buregon, DenisKov, infozahist, MMMMM, Mogozoz, Ostinato, Rosen, roverinc, StoneTemple, Storky, SymbyoticEntity, talismanFS, TeamatSE, VALERY,
May 13 2017, 09:30:56 Sinorma - Love Like... (2017)


*Artist: Sinorma
*Album: Love Like...
*Year: 2017
*Genre: Progressive Thrash/Death/Groove Metal
*Country: France
*Format: mp3@CBR320kbps
*Size: 105MB

Tracklist:
01. Love, Like, Live 01:39
02. Love Like A Despot 03:12
03. Love Like An Animal 05:34
04. Love Like A Business Man 05:19
05. Love Like A Slave 02:14
06. Love Like A Newborn 06:42
07. Love, Like, Hate 03:57
08. Love Like A Fat Pig 03:03
09. Love Like A Fanatic 04:47
10. Love Like A Respectable Man 03:30
11. Love Like A Shining Star 05:09
******************************
Total playing time: 45:06




[more=Extended info][youtube]YVkVzEfmF_g[/youtube][/more]

[more=Technical info]
Input File: 02. Love Like a Despot.mp3
Channels : 2
Sample Rate : 44100
Precision : 16-bit
Duration : 00:03:12.33 = 8481929 samples = 14425 CDDA sectors
File Size : 7.81M
Bit Rate : 325k
Sample Encoding: MPEG audio (layer I, II or III)
Comments :
Title=Love Like a Despot
Artist=Sinorma
Album=Love Like...
Tracknumber=2
Year=2017
Genre=Metal
Discnumber=1

[/more]

Register
(6) Buregon, daemonarch, ExeThrash, metala, METALHUNTER, Rosen,
May 13 2017, 09:03:19 Grauen - В Небесном Источнике [ep] (2017)


*Artist: Grauen
*Album: В Небесном Источнике [ep]
*Year: 2017
*Genre: Symphonic Black/Death Metal
*Country: Russian Federation
*Format: mp3@CBR320kbps
*Size: 51MB

Tracklist:
01. Пароксизм Иллюзий 05:55
02. Ледяная Комната 02:53
03. В Небесном Источнике 04:31
04. Умерщвление Плоти 04:19
05. Квинтэссенция Боли 04:11
******************************
Total playing time: 21:49

ВКонтакТ

[more=Extended info][youtube]ym_StnDc7hQ[/youtube][/more]

[more=Technical info]
Input File: 02. Ледяная комната.mp3
Channels : 2
Sample Rate : 44100
Precision : 16-bit
Duration : 00:02:53.30 = 7642486 samples = 12997.4 CDDA sectors
File Size : 6.94M
Bit Rate : 320k
Sample Encoding: MPEG audio (layer I, II or III)
Comments :
Title=Ледяная комната
Artist=Grauen
Album=В небесном источнике (EP)
Tracknumber=2
Year=2017
Genre=Symphonic Black/Death Metal

[/more]

Register
(7) Aresson, Mogozoz, Ostinato, Rosen, symphonicadiction, VALERY, Сварог Барг,
May 13 2017, 08:36:04 Haze Of Summer - Znoi (2017)


*Artist: Haze Of Summer
*Album: Znoi
*Year: 2017
*Genre: Melodic Black/Post-Metal
*Country: Russian Federation
*Format: mp3@VBR285kbps
*Size: 69MB

Tracklist:
1. March 04:51
2. April 07:18
3. May 05:18
4. June 04:51
5. July (Anno 2205) 06:23
6. August 05:11
******************************
Total playing time: 33:52



ВКонтакТ

[more=Extended info][youtube]yaJO5-DzVV8[/youtube][/more]

Register
(15) 0x13, artscald, Emhyr var Emreis, GuldenDraak, kim666, murian, Old Vyaine, oldvarg, Ostinato, Rosen, satanist666, ShmiT, stone88, VALERY, varlam4,
May 4 2017, 11:59:03 Cancer Whore - Catastrophic Rise (2016)


*Artist: Cancer Whore
*Album: Catastrophic Rise
*Year: 2016
*Genre: Death Metal
*Country: United States
*Format: mp3@CBR128kbps
*Size: 29MB

Tracklist:
1. Untitled 00:30
2. Waking Nightmare 03:27
3. Ultimate Justice 02:44
4. Inpestation 03:04
5. Tortured Existence 03:36
6. Ritual 03:04
7. Genocide Campaign 03:39
8. Killing Spree 02:59
9. Systematic Dissection 03:35
10. Godless America 03:45
******************************
Total playing time: 30:23




[more=Extended info][youtube]0oTFiBaokVM[/youtube]
[youtube]jQ4yr38vD84[/youtube][/more]

Register
(3) jollo, Rosen, Semargl2010,
May 4 2017, 09:01:50 Reaction - Reaction (1988)


*Artist: Reaction
*Album: Reaction
*Year: 1988
*Genre: Heavy Metal
*Country: Japan
*Format: mp3@CBR192kbps
*Size: 50MB

Tracklist:
1. Startin' Something 02:58
2. Hammer on the Beat 05:01
3. Get My Way 03:08
4. Down Side Stranger 03:29
5. Left Behind 04:21
6. Hands on Dream 02:52
7. Hot Rod Gig Tonight 03:03
8. All Together 03:58
9. You Got Me Burning 04:04
10. At 25:00 03:14
******************************
Total playing time: 36:08

Metal-Archives

[more=Extended info]192 реальные[/more]

Register
(3) henknegatief, Rosen, roverinc,
May 4 2017, 08:52:22 Reaction - Twist And Shout (1988)


*Artist: Reaction
*Album: Twist And Shout
*Year: 1988
*Genre: Heavy Metal
*Country: Japan
*Format: mp3@CBR192kbps
*Size: 60MB

Tracklist:
1. Twist & Shout 05:25
2. Red Zone 03:39
3. Rosie 04:11
4. Green Tambourine 04:16
5. Always on My Mind 04:40
6. All Right Heaven 04:09
7. Stand Up 04:09
8. Star Collector 03:25
9. Midnight Shuffle 04:13
10. Right to Rock 03:02
11. Last Song 02:24
******************************
Total playing time: 43:33

Metal-Archives

[more=Extended info]192 реальные[/more]

Register
(3) henknegatief, Rosen, roverinc,
May 4 2017, 08:41:49 Reaction - True Imitation (1987)


*Artist: Reaction
*Album: True Imitation
*Year: 1987
*Genre: Heavy/Speed Metal
*Country: Japan
*Format: mp3@VBR211kbps
*Size: 69MB

Tracklist:
1. Let It Rock 04:51
2. Desire 04:31
3. Everybody's Crazy 03:54
4. Lookin' for Action 04:19
5. Change Your Ways 03:57
6. Bad Boy's Toy 04:20
7. Cool It Down 04:03
8. XXX 9430 04:42
9. Coming Home 04:09
10. Lust 03:58
11. Think 'bout Tomorrow 02:52
******************************
Total playing time: 45:36

Metal-Archives

[more=Extended info][youtube]nb2xHy71Bbs[/youtube]
[youtube]Y7XwIfoqoi4[/youtube]
[youtube]aidXRUDyTCY[/youtube][/more]

Register
(6) Exxie, ilsestomartire, metala, Mogozoz, Rosen, roverinc,
May 4 2017, 08:28:05 Reaction - Insane (1985)


*Artist: Reaction
*Album: Insane
*Year: 1985
*Genre: Heavy/Speed Metal
*Country: Japan
*Format: mp3@CBR192kbps
*Size: 50MB

Tracklist:
1. Insane 04:14
2. Are You Free Tonight 03:17
3. Don't Stop 04:03
4. Hat Trick 04:26
5. Nothing 03:38
6. Dark Illusion 04:15
7. Joy Ride 04:04
8. Let Me Shout 04:03
9. Lonesome Knight 04:21
******************************
Total playing time: 36:21

Metal-Archives

[more=Extended info]192 реальные...

Tracklist 12" vinyl :
Side A
1. Joy Ride 04:04
2. Are You Free Tonight 03:17
3. Don't Stop 04:03
4. Hat Trick 04:26
5. Nothing 03:38
Side B
6. Let Me Shout 04:03
7. Lonesome Knight 04:21
8. Dark Illusion 04:15
9. Insane 04:14

[youtube]jb6AyOIdkLk&t=201s[/youtube][/more]

Register
(4) ilsestomartire, Mogozoz, Rosen, roverinc,
May 3 2017, 17:24:43 God Dethroned - Annihilation Crusade [studio clip] (2017)


*Performer: God Dethroned
*Title: Annihilation Crusade
*Type: Studio Clip
*Album: The World Ablaze
*Year: 2017
*Genre: Blackened Death Metal
*Country: Netherlands

*Audio: aac@126kbps
*Video: h.264@3311kbps
*Resolution: 1920x1080
*Size: 128MB
******************************
*Length: 00:05:12

[more=Extended info][youtube]COJ58_Z8p-s[/youtube][/more]

Register
(5) alexcount, LUCASDEATH, Rosen, RUSP73, VALERY,
May 3 2017, 11:35:37 Ironbite - Blood & Thunder (2016)


*Artist: Ironbite
*Album: Blood & Thunder
*Year: 2016
*Genre: Heavy Metal
*Country: Germany
*Format: mp3@CBR320kbps
*Size: 112MB

Tracklist:
1. A Glorious Mess 01:01
2. Keep the Rage 03:35
3. Unleashed 03:11
4. D.E.A.D.B.E.A.T 05:25
5. The Doomsayer 05:27
6. Moonshine Dynamite 05:53
7. When Blood Runs Cold 04:44
8. Behind the Mask of a Faceless Man 05:49
9. Hellride 05:02
10. Black Death 03:33
11. Hammer of Justice 04:39
******************************
Total playing time: 48:19

HomePage


[more=Extended info][youtube]B-D6zfjW28Q[/youtube]
[youtube]f8jf58yxXrA[/youtube][/more]

[more=Technical info]
Input File: 02. Keep the Rage.mp3
Channels : 2
Sample Rate : 44100
Precision : 16-bit
Duration : 00:03:35.56 = 9506152 samples = 16166.9 CDDA sectors
File Size : 8.76M
Bit Rate : 325k
Sample Encoding: MPEG audio (layer I, II or III)
Comments :
Title=Keep the Rage
Artist=Ironbite
Album=Blood & Thunder
Tracknumber=2
Year=2016
Genre=Hard & Heavy
Discnumber=1

[/more]

Register
(11) aviacademy, Buregon, csgmnk, metala, MetalW, Mogozoz, Rosen, roverinc, Storky, vir2al, wgs73,

177 Pages V  « < 3 4 5 6 7 > » 
- Lo-Fi Version Support form
Copyrights and abuse reports form
Time is now: 10th December 2019 - 17:14:00