Welcome Guest ( Log In | Register )

История благодарностей участнику metadeat ::: Спасибо сказали: 40175 раз(а)
Дата поста: В теме: За сообщение: Спасибо сказали:
Jun 7 2017, 20:10:13 Rampart - Voice Of The Wilderness (2009)
CBR320kbps + scans

Register


[youtube]Cwah3LpK-K8[/youtube] [youtube]LqzG0z8xlxU[/youtube]
(1) wgs73,
Jun 7 2017, 19:26:53 Britof - Britof (2017)


*Artist: Britof
*Album: Britof
*Year: 2017
*Genre: Doom/Heavy/Stoner Metal
*Country: Slovenia
*Format: mp3@CBR320kbps
*Size: 74MB

Tracklist:
1. Intro 00:49
2. Nightstalker 04:49
3. Pale Death 03:02
4. Break Your Chains 02:40
5. Power of the Rolling Stone 02:27
6. Soulless 04:14
7. Enraged Impaler 05:11
8. Son of Satan 03:50
9. Sin Train 05:09
******************************
Total playing time: 32:11





[more=Extended info]На Bandcamp можно скачать безвозмездно...[/more]

[more=Technical info]
Input File: Britof - Britof - 02 Nightstalker.mp3
Channels : 2
Sample Rate : 44100
Precision : 16-bit
Duration : 00:04:49.59 = 12771095 samples = 21719.5 CDDA sectors
File Size : 11.6M
Bit Rate : 321k
Sample Encoding: MPEG audio (layer I, II or III)
Comments :
Title=Nightstalker
Artist=Britof
Album=Britof
Tracknumber=2
Year=2017

[/more]

Register
(5) avkruchinin, Buregon, Rosen, stub888, VALERY,
Jun 7 2017, 19:14:41 Handout - Off The Beaten Path (2017)


*Artist: Handout
*Album: Off The Beaten Path
*Year: 2017
*Genre: Modern Metal
*Country: Hungary
*Format: mp3@CBR320kbps
*Size: 77MB

Tracklist:
01. Differ 03:12
02. Paint A Door On A Wall 03:05
03. Empty Soul 03:37
04. Reanimate 03:19
05. Interlude 01:03
06. Encounter 03:45
07. From Writer To Reader 04:10
08. Final Glance 03:38
09. In An Other Body 03:12
10. Advisor 04:19
******************************
Total playing time: 33:20



[more=Extended info][youtube]SKtvjuZvOQc[/youtube]
[youtube]StEK1N4wLM8[/youtube]
[youtube]rM26e1Vah00[/youtube][/more]

[more=Technical info]
Input File: 01 - Differ.mp3
Channels : 2
Sample Rate : 44100
Precision : 16-bit
Duration : 00:03:12.99 = 8511035 samples = 14474.5 CDDA sectors
File Size : 7.76M
Bit Rate : 322k
Sample Encoding: MPEG audio (layer I, II or III)
Comments :
Title=Differ
Artist=Handout
Album=Off the Beaten Path
Tracknumber=1/10
Year=2017
Genre=Metal

[/more]

Register
(6) Buregon, DenisKov, metala, Rosen, RotAnus, roverinc,
Jun 6 2017, 21:10:34 Cold Mist - From The Dark Hills Of The Past (2017)


*Artist: Cold Mist
*Album: From The Dark Hills Of The Past
*Year: 2017
*Genre: Black Metal
*Country: Brazil
*Format: mp3@CBR256kbps
*Size: 76MB

Tracklist:
1. From the Dark Hills of the Past
2. Nightmysteries
3. A Funeral Frost
4. Triumph of Cruelty
5. Interlude
6. Deadly Mist
7. Emotions of a Full Terror
8. Old Domains
9. Outro
******************************
Total playing time: 40:52



[more=Extended info]В Лоу...

[youtube]I_a8HqlKPb4[/youtube][/more]

Register
(7) Foneg, Ildjarn, kim666, Rosen, satanist666, varg-38ru, vasiljev_sergej,
Jun 6 2017, 20:39:26 BulletBack - The Quest For New Horizons (2017)


*Artist: BulletBack
*Album: The Quest For New Horizons
*Year: 2017
*Genre: Heavy Metal
*Country: Brazil
*Format: mp3@CBR320kbps
*Size: 102MB

Tracklist:
01. Down and Out
02. The Quest for New Horizons
03. Battlefield
04. Holy Words
05. Scream It Out
06. Faking
07. Rust
08. Running Away
09. Fire In the Hole
10. Where Are the Angels
11. Here I Stand
******************************
Total playing time: 44:33



[more=Extended info][youtube]-465Dg8Xyfs[/youtube]
[youtube]SjDeQsJ7GDU[/youtube][/more]

[more=Technical info]
Input File: 01. Down and Out.mp3
Channels : 2
Sample Rate : 44100
Precision : 16-bit
Duration : 00:04:24.88 = 11681340 samples = 19866.2 CDDA sectors
File Size : 10.6M
Bit Rate : 321k
Sample Encoding: MPEG audio (layer I, II or III)
Comments :
Title=Down and Out
Artist=Bulletback
Album=The Quest for New Horizons
Tracknumber=01
Genre=Heavy Metal
Discnumber=1

[/more]

Register
(8) Andrew, aviacademy, avkruchinin, Buregon, metala, Olrak, Rosen, varlam4,
Jun 6 2017, 19:58:22 Death Overlord - Brutal Dead Holocaust [demo] (2017)


*Artist: Death Overlord
*Album: Brutal Dead Holocaust [demo]
*Year: 2017
*Genre: Black Metal
*Country: Brazil
*Format: mp3@CBR320kbps
*Size: 90MB

Tracklist:
1. Holocaust of the Dead 03:42
2. Scorned Evil 04:13
3. Impaled Hand 04:13
4. Dark Souls 04:13
5. Chaos Dawning 04:22
6. Haunted Crypt 03:42
7. Soul Carrion 03:35
8. Gardens of the Dead 03:12
9. Enthroned 04:04
10. Lucifer Mortiis 03:40
******************************
Total playing time: 38:56



[more=Extended info]На Bandcamp можно скачать безвозмездно...[/more]

[more=Technical info]
Input File: Death Overlord - Brutal Dead Holocaust - 01 Holocaust Of The Dead.mp3
Channels : 2
Sample Rate : 44100
Precision : 16-bit
Duration : 00:03:42.45 = 9810177 samples = 16684 CDDA sectors
File Size : 8.97M
Bit Rate : 322k
Sample Encoding: MPEG audio (layer I, II or III)
Comments :
Title=Holocaust Of The Dead
Artist=Death Overlord
Album=Brutal Dead Holocaust
Tracknumber=1
Year=2017

[/more]

Register
(6) 1968_janeart, artscald, kim666, Rosen, varlam4, vasiljev_sergej,
Jun 6 2017, 19:31:16 Weird Tales - Weird Tales [ep] (2017)


*Artist: Weird Tales
*Album: Weird Tales [ep]
*Year: 2017
*Genre: Doom/Sludge/Stoner Metal
*Country: Poland
*Format: mp3@CBR320kbps
*Size: 63MB

Tracklist:
1. Satan's Smile 08:07
2. False Faith 10:36
3. Trippin' Deads 08:36
******************************
Total playing time: 27:19




[more=Extended info][youtube]k0l7A4GkKvk[/youtube][/more]

[more=Technical info]
Input File: 01 Satan\'s smile.mp3
Channels : 2
Sample Rate : 44100
Precision : 16-bit
Duration : 00:08:07.36 = 21492532 samples = 36551.9 CDDA sectors
File Size : 19.7M
Bit Rate : 323k
Sample Encoding: MPEG audio (layer I, II or III)
Comments :
Title=Satan's smile
Artist=Weird Tales
Album=Weird Tales
Tracknumber=01
Year=2017
Genre=Doom / Sludge Metal

[/more]

Register
(6) Buregon, djsema4, Rosen, Tankard, VALERY, varlam4,
Jun 6 2017, 19:16:17 Hyperdump - The Weak Man (2017)


*Artist: Hyperdump
*Album: The Weak Man
*Year: 2017
*Genre: Progressive Metal
*Country: France
*Format: mp3@CBR320kbps
*Size: 130MB

Tracklist:
01. Awaken (feat. Arno Strobl)
02. History (feat. Fred Blanchard)
03. The Weak Man (feat. Guillaume Bideau)
04. Departure (feat. Kamel Guellil)
05. The Calling (feat. Drix)
06. No One Can Divide Us (feat. Deke)
07. Forlornly (feat. Mark Basile)
08. Incoherence (feat. Guillaume Bideau)
09. Massacre
10. No More (feat. Blaze Bayley)
11. Revelation (feat. Arno Strobl & Drix)
12. Circling Down the Drain (feat. Benhanced)
******************************
Total playing time: 56:37

HomePage


[more=Extended info][youtube]Oe3hz81CwM8[/youtube][/more]

[more=Technical info]
Input File: 01. Awaken (feat. Arno Strobl).mp3
Channels : 2
Sample Rate : 44100
Precision : 16-bit
Duration : 00:04:40.09 = 12351881 samples = 21006.6 CDDA sectors
File Size : 11.3M
Bit Rate : 323k
Sample Encoding: MPEG audio (layer I, II or III)
Comments :
Title=Awaken (feat. Arno Strobl)
Artist=Hyperdump
Album=The Weak Man
Tracknumber=1
Year=2017
Genre=Progressive Metal
Discnumber=1

[/more]

Register
(8) aviacademy, metala, MMMMM, Mogozoz, Rosen, roverinc, varlam4, Yarri,
Jun 6 2017, 18:42:52 Black Phantom - Better Beware! (2017)


*Artist: Black Phantom
*Album: Better Beware!
*Year: 2017
*Genre: Heavy Metal
*Country: Italy
*Format: mp3@CBR320kbps
*Size: 120MB

Tracklist:
1. Light Behind the Armour 04:21
2. Black Phantom 03:44
3. Up Is Down, Black Is White 04:17
4. Less Than Zero 05:19
5. Firebase Valley Forge 06:14
6. From an Is to a Was 04:15
7. The Absence 05:06
8. Ninth Ring of Hell 04:21
9. The Invisible Man 05:22
10. King of Bottom Feeders 05:09
11. Total Eclipse (Iron Maiden cover) 03:51
******************************
Total playing time: 51:59



[more=Extended info][youtube]wagsbZok8dY[/youtube]
[youtube]x19kbfoHyF0[/youtube]
[youtube]R2WcVOPji3Y[/youtube][/more]

[more=Technical info]
Input File: 01 - Light Behind the Armour.mp3
Channels : 2
Sample Rate : 44100
Precision : 16-bit
Duration : 00:04:21.15 = 11516583 samples = 19586 CDDA sectors
File Size : 10.5M
Bit Rate : 323k
Sample Encoding: MPEG audio (layer I, II or III)
Comments :
Title=Light Behind the Armour
Artist=Black Phantom
Album=Better Beware!
Tracknumber=1/11
Year=2017
Genre=Heavy Metal

[/more]

Register
(14) aviacademy, avkruchinin, Buregon, infozahist, LightWizard, metala, Metropolis, Mogozoz, oldvarg, Olrak, Rosen, roverinc, varlam4, wgs73,
Jun 5 2017, 18:56:08 Walpyrgus - Walpyrgus Nights (2017)


*Artist: Walpyrgus
*Album: Walpyrgus Nights
*Year: 2017
*Genre: Heavy Metal
*Country: United States
*Format: mp3@CBR320kbps
*Size: 83MB

Tracklist:
1. The Dead of Night 04:37
2. Somewhere Under Summerwind 05:05
3. Dead Girls 03:19
4. Lauralone 05:01
5. Palmystry 05:10
6. She Lives 02:47
7. Light of a Torch (Witch Cross cover) 05:16
8. Walpyrgus Nights 04:50
******************************
Total playing time: 36:05





[more=Technical info]
Input File: 01 - The Dead of Night.mp3
Channels : 2
Sample Rate : 44100
Precision : 16-bit
Duration : 00:04:37.33 = 12230165 samples = 20799.6 CDDA sectors
File Size : 11.2M
Bit Rate : 322k
Sample Encoding: MPEG audio (layer I, II or III)
Comments :
Title=The Dead of Night
Artist=Walpyrgus
Album=Walpyrgus Nights
Tracknumber=1/8
Year=2017
Genre=Heavy Metal

[/more]

Register
(16) aviacademy, avkruchinin, Buregon, cesar, csgmnk, desekrator, ExeThrash, metala, Mogozoz, Olrak, poeira, Rosen, roverinc, Spork, varlam4, wgs73,
Jun 4 2017, 17:53:50 EZoo - Feeding The Beast (2017)


*Artist: EZoo
*Album: Feeding The Beast
*Year: 2017
*Genre: Hard Rock
*Country: Unknown
*Format: mp3@CBR320kbps
*Size: 128MB

Tracklist:
01. You Are Your Money
02. The Flight Of The Sapini
03. C'est La Vie
04. Guys From God
05. Feeding The Beast
06. Eyes Of The World
07. Colder Than Cool
08. Too High To Be Falling
09. Motorbike
10. Since You Been Gone
11. Don't Look Back
12. Coda
******************************
Total playing time: 55:38

[more=Extended info]Легендарный вокалист Грэм Боннет (Graham Bonnet, RAINBOW, MSG, ALCATRAZZ, GRAHAM BONNET BAND) объединился с итальянским гитаристом и продюсером Дарио Молло (Dario Mollo) в новом проекте под названием EZoo.
В качестве особого подарка фэнам RAINBOW "Feeding The Beast" содержит классические песни "Eyes Of The World" и "Since You Been Gone".


[youtube]eVwJgErTOJw[/youtube]
[youtube]43xlbX6eKJo[/youtube][/more]

[more=Technical info]
Input File: 01. You Are Your Wallet.mp3
Channels : 2
Sample Rate : 44100
Precision : 16-bit
Duration : 00:04:13.86 = 11195226 samples = 19039.5 CDDA sectors
File Size : 10.2M
Bit Rate : 321k
Sample Encoding: MPEG audio (layer I, II or III)
Comments :
Title=You Are Your Wallet
Artist=EZoo
Album=Feeding the Beast
Tracknumber=01
Year=2017
Genre=Hard Rock

[/more]

Register
(2) avkruchinin, Diflock,
Jun 4 2017, 17:37:42 Burning Witches - Burning Witches (2017)
Да, удачный альбом получился, ровный, без явных проседаний. Девушки хорошо поработали, умнички smile1.gif
ps 20.gif Последний трэк-хитяра, класическая конфетка акцептоджудаспристовкая...
(1) Andrew,
Jun 4 2017, 16:36:46 Vultures - Post Mortem (2017)


*Artist: Vultures
*Album: Post Mortem
*Year: 2017
*Genre: Heavy/Thrash Metal
*Country: Brazil
*Format: mp3@CBR320kbps
*Size: 146MB

Tracklist:
01. Beware
02. Inkizitor (Human Plague Is Disgusting)
03. Agony at Night
04. Everything Is on Fire
05. Death...And Sleep
06. Souls Pain
07. Awake
08. Seeking the War
09. Attrition
10. Nightmare
11. Vultures (Born of Death)
12. Aqueronte
13. Satan's Work Is Done!
******************************
Total playing time: 1:02:52




[more=Extended info][youtube]zMfU6zxrqE8[/youtube][/more]

[more=Technical info]
Input File: 03 - Agony at Night.mp3
Channels : 2
Sample Rate : 44100
Precision : 16-bit
Duration : 00:04:32.21 = 12004329 samples = 20415.5 CDDA sectors
File Size : 11.1M
Bit Rate : 326k
Sample Encoding: MPEG audio (layer I, II or III)
Comments :
Title=Agony at Night
Artist=Vultures
Album=Post Mortem
Tracknumber=03/13
Year=2017
Genre=Heavy Thrash Metal

[/more]

Register
(11) aviacademy, avkruchinin, Buregon, csgmnk, metala, METALHUNTER, Mogozoz, Rosen, roverinc, SymbyoticEntity, wgs73,
Jun 4 2017, 14:09:43 Sonic State Capital - Save The World (2017)


*Artist: Sonic State Capital
*Album: Save The World
*Year: 2017
*Genre: Hard Rock
*Country: Sweden
*Format: mp3@CBR320kbps
*Size: 123MB

Tracklist:
01. Wayward Son
02. Cast Your Shadow
03. Brings Them Back
04. Mary Jane
05. The Great War, Pt. I: Prologue, Pt. II: Heroes, Pt. III: War
06. Hollow
07. Save Me
08. Another Day Of Life
09. Burn
10. Carry On
11. The Great War, Pt. IV: Epilogue
******************************
Total playing time: 53:47

HomePage


[more=Extended info][youtube]-W9MAZcBRE4[/youtube][/more]

[more=Technical info]
Input File: 01.Wayward Son.mp3
Channels : 2
Sample Rate : 44100
Precision : 16-bit
Duration : 00:04:52.18 = 12885226 samples = 21913.6 CDDA sectors
File Size : 11.7M
Bit Rate : 321k
Sample Encoding: MPEG audio (layer I, II or III)
Comments :
Title=Wayward Son
Artist=Sonic State Capital
Album=Save The World
Tracknumber=1
Year=2017
Genre=Hard Rock

[/more]

Register
(2) avkruchinin, postal67,
Jun 4 2017, 12:57:03 Moretools - Moretools (2011)


*Artist: Moretools
*Album: Moretools
*Year: 2011
*Genre: Death/Thrash Metal/Grindcore
*Country: Brazil
*Format: mp3@CBR320kbps
*Size: 79MB

Tracklist:
1. Damned Dog of War 02:59
2. Human Dependence 02:18
3. The Time 02:07
4. Final Solution 02:51
5. From Beyond 03:56
6. Pain Screams 02:36
7. Murder of Innocence 02:23
8. Traitor 01:30
9. Taste of Blood 03:05
10. Moretools 03:11
11. Face Me 02:50
12. Still Burning 04:45
******************************
Total playing time: 34:31



[more=Extended info][youtube]X3bLtXcjjNs[/youtube][/more]

[more=Technical info]
Input File: 01- Damned Dog of War.mp3
Channels : 2
Sample Rate : 44100
Precision : 16-bit
Duration : 00:02:59.49 = 7915509 samples = 13461.8 CDDA sectors
File Size : 7.18M
Bit Rate : 320k
Sample Encoding: MPEG audio (layer I, II or III)
Comments :
Title=Damned Dog of War.mp3
Artist=Moretools
Album=Moretools
Tracknumber=1
Genre=Death Metal

[/more]

Register
(7) avkruchinin, Buregon, jollo, METALHUNTER, Rosen, vyacheslav, wgs73,
Jun 4 2017, 12:41:16 Psychobolia - Chiaroscuro (2017)


*Artist: Psychobolia
*Album: Chiaroscuro
*Year: 2017
*Genre: Brutal Death Metal
*Country: France
*Format: mp3@CBR128kbps
*Size: 36MB

Tracklist:
1. Feast of Pills 02:44
2. Oxygen 03:33
3. Order of Chaos 02:50
4. Full Bloom 03:13
5. Altar 03:53
6. Self-obliteration 03:29
7. Crimson Abysses 03:00
8. Chiaroscuro 02:53
9. Lethal Substance 02:25
10. Killing Void 02:19
11. Silent Mistakes 03:54
12. Severance Echoes 04:24
******************************
Total playing time: 38:37




[more=Extended info][youtube]6Bu-CwOwjdU[/youtube][/more]

Register
(4) Indamage, jollo, logunarm, xiuhcoatl075,
Jun 4 2017, 11:53:01 Final Mercy - Revival (2017)


*Artist: Final Mercy
*Album: Revival
*Year: 2017
*Genre: Melodic Death/Thrash/Groove Metal
*Country: Portugal
*Format: mp3@CBR320kbps
*Size: 74MB

Tracklist:
1. Relentless 04:05
2. Hunger Your Fail 04:00
3. Revival 04:13
4. Leeches 04:19
5. My Addiction 04:11
6. S.H.S.S. 03:44
7. The 7th Crow 05:04
8. The Anatomy of Sin 02:21
******************************
Total playing time: 31:57




[more=Technical info]
Input File: 01. Relentless.mp3
Channels : 2
Sample Rate : 44100
Precision : 16-bit
Duration : 00:04:06.65 = 10877265 samples = 18498.8 CDDA sectors
File Size : 9.91M
Bit Rate : 321k
Sample Encoding: MPEG audio (layer I, II or III)
Comments :
Title=Relentless
Artist=Final Mercy
Album=Revival
Tracknumber=01
Year=2017
Genre=Thrash/Groove Metal

[/more]

Register
(9) Buregon, ehfeka44, kimkayoung, metala, METALHUNTER, Mogozoz, Ostinato, Rosen, varlam4,
Jun 3 2017, 16:11:13 Новости Heavy/Power металла
Accept - The Rise Of Chaos (NEW SONG 2017)

[youtube]hvyVuvbm1Sc[/youtube]
(2) avkruchinin, Old Vyaine,
Jun 3 2017, 13:26:41 Decrepit Throne - Traitor's Grave (2017)


*Artist: Decrepit Throne
*Album: Traitor's Grave
*Year: 2017
*Genre: Black/Death Metal
*Country: United States
*Format: mp3@CBR320kbps
*Size: 79MB

Tracklist:
1. Lands of Ash 05:36
2. Lucifer's Decent 03:47
3. Winter's Call 04:36
4. The Path of Revenge 05:26
5. Your Death My Solitude 04:54
6. The Victor's Trumpet Sounds 05:00
7. A Defiant Flame Burning 04:38
******************************
Total playing time: 33:57




[more=Extended info][youtube]iJpvPrxwoPA[/youtube][/more]

[more=Technical info]
Input File: 02. Lucifer\'s Descent.mp3
Channels : 2
Sample Rate : 44100
Precision : 16-bit
Duration : 00:03:49.25 = 10110057 samples = 17194 CDDA sectors
File Size : 9.21M
Bit Rate : 321k
Sample Encoding: MPEG audio (layer I, II or III)
Comments :
Title=Lucifer's Descent
Artist=Decrepit Throne
Album=Traitor's Grave
Tracknumber=02
Year=2017
Genre=Black/Death Metal

[/more]

Register
(6) marilin, metala, Rosen, Sanc, Semargl2010, SyncestrA,
Jun 3 2017, 12:59:09 Municipal Waste - Slime And Punishment (2017)
[youtube]4a-jx_fRk3U[/youtube]
(4) Diflock, infiltrator, metalboll, troll_swamp,
Jun 3 2017, 12:11:18 Rec/All - Rec/All (2017)


*Artist: Rec/All
*Album: Rec/All
*Year: 2017
*Genre: Hard Rock/Heavy Metal
*Country: Brazil
*Format: mp3@CBR320kbps
*Size: 96MB

Tracklist:
1. Rio Riots 03:40
2. I Hate 04:35
3. Blind 05:17
4. Broken Wings 04:51
5. 5 A.M. 03:53
6. We Own the Night 04:16
7. Walk with You 05:41
8. Running in Her Veins 05:04
9. Set the Night on Fire 04:24
******************************
Total playing time: 41:41

HomePage


[more=Extended info][youtube]oxf7bc1EQVE[/youtube]
[youtube]_EMEGcwqT4I[/youtube][/more]

[more=Technical info]
Input File: 01. Rio Riots.mp3
Channels : 2
Sample Rate : 44100
Precision : 16-bit
Duration : 00:03:40.08 = 9705704 samples = 16506.3 CDDA sectors
File Size : 8.86M
Bit Rate : 322k
Sample Encoding: MPEG audio (layer I, II or III)
Comments :
Title=Rio Riots
Album=Rec/All
Tracknumber=01
Year=2017
Genre=Hard'n'Heavy

[/more]

Register
(8) aviacademy, avkruchinin, Mogozoz, Olrak, Rosen, roverinc, varlam4, wgs73,
Jun 3 2017, 11:37:33 Malefic House - Tetramorph (2017)


*Artist: Malefic House
*Album: Tetramorph
*Year: 2017
*Genre: Occult/Doom/Psychedelic Rock
*Country: Russian Federation
*Format: mp3@CBR320kbps
*Size: 101MB

Tracklist:
1. 1000 Bulls for Pontus 12:32
2. Geronimo 10:02
3. Mother of the Void 08:51
4. Har 12:08
******************************
Total playing time: 43:33



ВКонтакТ

[more=Extended info][youtube]_AJtWL5b1rA[/youtube][/more]

[more=Technical info]
Input File: 03 - Mother of the Void.mp3
Channels : 2
Sample Rate : 44100
Precision : 16-bit
Duration : 00:08:51.48 = 23438444 samples = 39861.3 CDDA sectors
File Size : 21.5M
Bit Rate : 323k
Sample Encoding: MPEG audio (layer I, II or III)
Comments :
Title=Mother of the Void
Artist=Malefic House
Album=Tetramorph
Tracknumber=3
Year=2017

[/more]

Register
(9) AndreFrancis, Black Cat, Jurmagund, marilin, Phlebotomized, SyncestrA, VALERY, Velkaarn, vosmidesijatye,
Jun 3 2017, 11:11:10 Maledia - Human Trash Deluxe (2017)


*Artist: Maledia
*Album: Human Trash Deluxe
*Year: 2017
*Genre: Modern Gothic Metal
*Country: Italy
*Format: mp3@CBR320kbps
*Size: 108MB

Tracklist:
01. Intro
02. Not Homologated
03. The Evil Inside
04. Sweep Away
05. Open Again
06. Illusion
07. The Blood Is Cooling
08. Stop Call
09. Endless
10. Dark Passenger
******************************
Total playing time: 47:00



[more=Extended info][youtube]U_aUBZX9M4k[/youtube]
[youtube]Xuht1aI5c0o[/youtube][/more]

[more=Technical info]
Input File: 02 - Not Homologated.mp3
Channels : 2
Sample Rate : 44100
Precision : 16-bit
Duration : 00:04:05.33 = 10818833 samples = 18399.4 CDDA sectors
File Size : 9.89M
Bit Rate : 323k
Sample Encoding: MPEG audio (layer I, II or III)
Comments :
Title=Not Homologated
Artist=Maledia
Album=Human Trash Deluxe
Tracknumber=2/10
Year=2017
Genre=Metal

[/more]

Register
(12) Cartman223, DenisKov, Disillusion, ehfeka44, Grinder777, infozahist, metala, Rosen, roverinc, sayfut, VALERY, Veggr,
Jun 3 2017, 10:33:40 Grand Collapse - Along The Dew (2017)


*Artist: Grand Collapse
*Album: Along The Dew
*Year: 2017
*Genre: Hardcore Punk/Thrash Metal
*Country: United Kingdom
*Format: mp3@CBR320kbps
*Size: 69MB

Tracklist:
1. Along The Dew 04:22
2. Thrissell Street 01:47
3. Turncoat 02:05
4. Though Bloodshot & Blurry 03:44
5. Deep Rooted 03:01
6. Omission 03:40
7. Fragments 02:30
8. Chalk & Flint 02:56
9. Luciano Ponzetto 00:36
10. Llygaid Gwyrdd 01:08
11. Trapped 03:53
******************************
Total playing time: 29:42




[more=Extended info][youtube]eosBvV5D9SE[/youtube][/more]

[more=Technical info]
Input File: 03. Turncoat.mp3
Channels : 2
Sample Rate : 44100
Precision : 16-bit
Duration : 00:02:05.89 = 5551617 samples = 9441.53 CDDA sectors
File Size : 5.14M
Bit Rate : 327k
Sample Encoding: MPEG audio (layer I, II or III)
Comments :
Title=Turncoat
Artist=Grand Collapse
Album=Along The Dew
Tracknumber=03
Year=2017
Genre=Thrash/Punk/Hardcore

[/more]

Register
(16) avkruchinin, Buregon, DarkHorde, Diflock, DMIYUR, ExeThrash, marilin, METALHUNTER, Metropolis, Oath19, Oldskulthrasher, Ostinato, Rosen, Saalingurth, varlam4, wgs73,
Jun 3 2017, 09:41:35 Sound Of Silence - El Llanto De Los Mártires (2017)


*Artist: Sound Of Silence
*Album: El Llanto De Los Mártires
*Year: 2017
*Genre: Melodic Death Metal/Metalcore
*Country: Spain
*Format: mp3@CBR320kbps
*Size: 98MB

Tracklist:
1. Laudes 00:41
2. Culto al suicidio 05:58
3. Felices bajo tierra 04:50
4. Muerto por dentro 04:48
5. La pasión del ángel caído 04:48
6. Nuestra sangre os ahogará en vuestras tumbas 05:38
7. Más allá de mí 04:58
8. Sin sentimientos 03:42
9. Lucifer no es nuestro señor 07:27
******************************
Total playing time: 42:50


HomePage

[more=Extended info][youtube]RKKxCszceuQ[/youtube][/more]

[more=Technical info]
Input File: 08. Sin Sentimientos.mp3
Channels : 2
Sample Rate : 44100
Precision : 16-bit
Duration : 00:03:42.46 = 9810530 samples = 16684.6 CDDA sectors
File Size : 8.94M
Bit Rate : 322k
Sample Encoding: MPEG audio (layer I, II or III)
Comments :
Title=Sin Sentimientos
Artist=Sound of Silence
Album=El Llanto de los Martires
Tracknumber=08
Year=2017
Genre=Melodic Death Metal

[/more]

Register
(6) DenisKov, ehfeka44, Rosen, roverinc, VALERY, varlam4,

177 Pages V  < 1 2 3 4 > » 
- Lo-Fi Version Support form
Copyrights and abuse reports form
Time is now: 10th December 2019 - 06:54:11