Welcome Guest ( Log In | Register )

История благодарностей участнику metadeat ::: Спасибо сказали: 40158 раз(а)
Дата поста: В теме: За сообщение: Спасибо сказали:
Jun 3 2017, 08:44:58 Ugly Deadman - Toxic Legacy (2017)


*Artist: Ugly Deadman
*Album: Toxic Legacy
*Year: 2017
*Genre: Black'n'Roll
*Country: Russian Federation
*Format: mp3@CBR320kbps
*Size: 99MB

Tracklist:
01. Queen of the Desert Winds
02. Toxic Legacy
03. Royal Hate
04. City of Red Nights
05. Where I Hide My Shotgun
06. Shout with Lucyfer
07. Awakening in Sodom
08. Unicorn
09. Weld Me Inside
10. Eden Lake
11. 7 Souls (Of 40 Corpses)
12. Mechanic
******************************
Total playing time: 43:07





[more=Extended info][youtube]m4Eizla9pVk[/youtube][/more]

[more=Technical info]
Input File: 01 Queen of the Desert Winds.mp3
Channels : 2
Sample Rate : 44100
Precision : 16-bit
Duration : 00:03:45.18 = 9930350 samples = 16888.4 CDDA sectors
File Size : 9.07M
Bit Rate : 322k
Sample Encoding: MPEG audio (layer I, II or III)
Comments :
Title=Queen of the Desert Winds
Artist=Ugly Deadman
Album=Toxic Legacy
Tracknumber=01
Year=2017
Genre=Metal

[/more]

Register
(13) apostol_13, artscald, DarkHorde, Korpse, oldvarg, Rosen, samokot, SatanicPanzer, satanist666, wgs73, xiuhcoatl075, ZambuL, Сварог Барг,
Jun 3 2017, 08:26:52 Sacrifice The Sun - When It Rains, It Pours [ep] (2017)


*Artist: Sacrifice The Sun
*Album: When It Rains, It Pours [ep]
*Year: 2017
*Genre: Metalcore
*Country: United States
*Format: mp3@CBR320kbps
*Size: 62MB

Tracklist:
01. Project X 00:53
02. Fool Me Once 04:22
03. Carnival Games 04:11
04. Wildfire 04:32)
05. When It Rains 03:29
06. It Pours 04:37
07. Sunrise,Sunset 04:33
******************************
Total playing time: 26:37



[more=Extended info][youtube]kGZunOJxTo4[/youtube]
[youtube]U-HVBZyu9r8[/youtube][/more]

[more=Technical info]
Input File: 01. Project X.mp3
Channels : 2
Sample Rate : 44100
Precision : 16-bit
Duration : 00:00:53.48 = 2358468 samples = 4011 CDDA sectors
File Size : 2.34M
Bit Rate : 351k
Sample Encoding: MPEG audio (layer I, II or III)
Comments :
Title=Project X
Artist=Sacrifice the Sun
Album=When It Rains, It Pours
Tracknumber=1/7
Year=2017
Genre=9

[/more]

Register
(2) Rosen, varlam4,
Jun 3 2017, 08:13:41 Cocyte - The Human Disease (2017)


*Artist: Cocyte
*Album: The Human Disease
*Year: 2017
*Genre: Melodic Deathcore
*Country: Belgium
*Format: mp3@CBR320kbps
*Size: 77MB

Tracklist:
1. Ominous 01:48
2. We are Divided 04:32
3. The Oppressed 05:30
4. Malevolent Urge 04:57
5. Hollow Cause 02:26
6. Mechanical Refuge 03:56
7. Behind the Mess of the Soul 00:41
8. Shadows and Illusion 03:25
9. The Human Disease 04:52
10. Last Requiem 00:53
******************************
Total playing time: 33:00




[more=Extended info][youtube]-JyJJ55MGMY[/youtube]
[youtube]60NaO3gFsDg[/youtube][/more]

[more=Technical info]
Input File: 01 - Ominous.mp3
Channels : 2
Sample Rate : 44100
Precision : 16-bit
Duration : 00:01:48.30 = 4776074 samples = 8122.57 CDDA sectors
File Size : 4.51M
Bit Rate : 333k
Sample Encoding: MPEG audio (layer I, II or III)
Comments :
Title=Ominous
Artist=Cocyte
Album=The Human Disease
Tracknumber=1/10
Year=2017
Genre=Death Metal

[/more]

Register
(7) DenisKov, ehfeka44, Ostinato, popen13, respect, Rosen, varlam4,
Jun 2 2017, 18:00:50 Dead Head - Swine Plague (2017)


*Artist: Dead Head
*Album: Swine Plague
*Year: 2017
*Genre: Thrash Metal
*Country: Netherlands
*Format: mp3@CBR320kbps
*Size: 110MB

Tracklist:
1. Helhuizen 03:02
2. Dühr 04:48
3. Palfium 04:21
4. Fortress of Greed 04:12
5. The Awakening 03:29
6. 13 Close 04:08
7. The Day of the Devil 04:11
8. Spanish Horse 03:36
9. The Reformation 01:52
10. The Gates Beyond 04:54
11. Eternity Destroyed 05:01
12. The Battle of Europe 03:56
******************************
Total playing time: 47:30



HomePage

[more=Technical info]
Input File: 01 Helhuizen.mp3
Channels : 2
Sample Rate : 44100
Precision : 16-bit
Duration : 00:03:03.03 = 8071667 samples = 13727.3 CDDA sectors
File Size : 7.42M
Bit Rate : 324k
Sample Encoding: MPEG audio (layer I, II or III)
Comments :
Title=Helhuizen
Artist=Dead Head
Album=Swine Plague
Tracknumber=1
Year=2017

[/more]

Register
(39) andreikun, artscald, avkruchinin, BRUTAL06, Buregon, cancer1974, CRUNCH, DarkHorde, Darkness, desekrator, Diflock, Fire_crow, gwar, hammer, Hell_Is_Here, infozahist, katalin, killingod, lyukon, MEmethuselah, metalboll, METALHUNTER, Metropolis, Mogozoz, Mplast, neoatheist, oldthrashman, oldvarg, Razorbladeswaltz, Rosen, roverinc, samokot, Storky, SymbyoticEntity, Thrashman, Tino, Typhoid, wgs73, WX419,
Jun 2 2017, 17:51:20 Thunderdome - Nowhere Fast (2017)


*Artist: Thunderdome
*Album: Nowhere Fast
*Year: 2017
*Genre: Heavy Metal
*Country: Italy
*Format: mp3@CBR320kbps
*Size: 108MB

Tracklist:
01. Billy Bulldozer
02. Superstar
03. Child of Black
04. Demon Hunter
05. Ghost of Our Mistakes
06. Midnight Stalker
07. Hand On My Shoulder
08. Eternal Light
******************************
Total playing time: 46:56




[more=Extended info][youtube]Z7lG0WeitJo[/youtube][/more]

[more=Technical info]
Input File: 01. Billy Bulldozer.mp3
Channels : 2
Sample Rate : 44100
Precision : 16-bit
Duration : 00:04:19.63 = 11449771 samples = 19472.4 CDDA sectors
File Size : 10.5M
Bit Rate : 325k
Sample Encoding: MPEG audio (layer I, II or III)
Comments :
Title=Billy Bulldozer
Artist=Thunderdome
Album=Nowhere Fast
Tracknumber=01
Year=2017
Genre=Heavy Metal
Discnumber=1

[/more]

Register
(12) aviacademy, Buregon, csgmnk, ExeThrash, infozahist, metala, Olrak, pensiata, Reverend, Rosen, roverinc, wgs73,
Jun 1 2017, 19:56:34 Prevail - War Will Reign (2016)
Смачный альбом с вкуснющим звучком headcrab.png !!!

ps Видос 2017 года:
[youtube]0t-iDPd6Lak[/youtube]

Видос 2011 года:
[youtube]4-6XPHg0DGo[/youtube]
(2) Andrew, Metalass,
Jun 1 2017, 19:35:19 Violet Cold - Random Memories Channel [best of/compilation] (2017)


*Artist: Violet Cold
*Album: Random Memories Channel [best of/compilation]
*Year: 2017
*Genre: Atmospheric Post-Black Metal/Blackgaze/Instrumental
*Country: Azerbaijan
*Format: mp3@CBR320kbps
*Size: 182MB

Tracklist:
1. Brave New Void 07:52
2. Drowned in the Lights 07:38
3. Endless Journey 04:10
4. She Spoke of Her Devestation 10:10
5. Pour l'éternité 11:34
6. I See the Air You Breathe 05:20
7. Silver Moon (Pt. II) 07:17
8. No Escape from Dreamland 09:00
9. Warm Winter 09:25
10. Everything You Can Imagine Is Real... 07:10
******************************
Total playing time: 1:19:36



[more=Extended info][youtube]0qFq-toiY-0[/youtube][/more]

[more=Technical info]
Input File: 03. Endless Journey.mp3
Channels : 2
Sample Rate : 44100
Precision : 16-bit
Duration : 00:04:10.28 = 11037304 samples = 18770.9 CDDA sectors
File Size : 10.0M
Bit Rate : 320k
Sample Encoding: MPEG audio (layer I, II or III)
Comments :
Title=Endless Journey
Artist=Violet Cold
Album=Random Memories Channel (Compilation)
Tracknumber=03
Year=2017
Genre=Instrumental Atmospheric Black / Post-Black / Shoegaze

[/more]

Register
(11) artscald, ddarkthrone, igorzz, joaoccbento, kolar666, Korpse, Ostinato, Rosen, stone88, varlam4, Спектр,
Jun 1 2017, 18:46:25 Cancerous Womb - It Came To This [ep] (2016)


*Artist: Cancerous Womb
*Album: It Came To This [ep]
*Year: 2016
*Genre: Death Metal/Grindcore
*Country: United Kingdom
*Format: mp3@CBR128kbps
*Size: 12MB

Tracklist:
1. The Shrieking of Idiots 04:33
2. Formless 00:54
3. Isolation Frenzy 03:36
4. When All Is Said and Done (Napalm Death cover) 02:51
******************************
Total playing time: 11:54




Register
(1) Rosen,
Jun 1 2017, 18:32:13 Antichrist - Forbidden World (2011)
ЦИТАТА(diflock @ Jun 1 2017, 12:29:01) *
Если есть возможность у кого загрузите 320 ... Заранее спасибо.


Закинул в шапку новые ссылки 9.gif
(1) Diflock,
May 31 2017, 20:45:08 Rough Diamond - Servants Of War [ep] (2007)


*Artist: Rough Diamond
*Album: Servants Of War [ep]
*Year: 2007
*Genre: Melodic Heavy Metal
*Country: Sweden
*Format: mp3@CBR320kbps
*Size: 61MB

Tracklist:
1. Where Darkness Reigns 03:53
2. Salvation by Murder 06:01
3. Servants of War 04:35
4. Deep Inside 04:16
5. Maiden of Lorraine 07:43
******************************
Total playing time: 26:28


Metal-Archives

[more=Technical info]
Input File: 01. Where Darkness Reigns.mp3
Channels : 2
Sample Rate : 44100
Precision : 16-bit
Duration : 00:03:55.75 = 10396751 samples = 17681.5 CDDA sectors
File Size : 9.48M
Bit Rate : 322k
Sample Encoding: MPEG audio (layer I, II or III)
Comments :
Title=Where Darkness Reigns
Artist=Rough Diamond
Album=Servants of War
Tracknumber=01
Year=2007
Genre=Heavy Metal

[/more]

Register
(6) aviacademy, Grinder777, MetalW, Mogozoz, Rosen, strato20,
May 31 2017, 20:25:52 Ultra Vomit - Panzer Surprise! (2017)
[youtube]NLPyySN9Czw[/youtube]
(2) DarkHorde, popen13,
May 31 2017, 20:11:10 Sarea - Black At Heart (2017)


*Artist: Sarea
*Album: Black At Heart
*Year: 2017
*Genre: Modern Melodic Death Metal
*Country: Sweden
*Format: mp3@CBR320kbps
*Size: 122MB

Tracklist:
1. Lights
2. Black at Heart
3. Perception
4. The Others
5. Let Us Fall
6. Duality
7. The Dormant National
8. Monotone
9. Control
10. Dead Eyes
11. All for None
12. Circles
******************************
Total playing time: 52:46

HomePage


[more=Extended info][youtube]glv3UwBRQPY[/youtube]
[youtube]QruZ7eX_xcQ[/youtube]
[youtube]6bgPfjDcn4g[/youtube][/more]

[more=Technical info]
Input File: 01. Lights.mp3
Channels : 2
Sample Rate : 44100
Precision : 16-bit
Duration : 00:04:07.90 = 10932478 samples = 18592.6 CDDA sectors
File Size : 10.0M
Bit Rate : 324k
Sample Encoding: MPEG audio (layer I, II or III)
Comments :
Title=Lights
Artist=Sarea
Album=Black at Heart
Tracknumber=1/12
Year=2017
Genre=22

[/more]

Register
(9) Bloodn Lord, Buregon, DenisKov, Emhyr var Emreis, Mogozoz, Rosen, SymbyoticEntity, talismanFS, VALERY,
May 31 2017, 19:11:07 Area - Obsolete Flesh – Part I [demo] (2016)


*Artist: Area
*Album: Obsolete Flesh – Part I [demo]
*Year: 2016
*Genre: Death Metal
*Country: Poland
*Format: mp3@CBR320kbps
*Size: 42MB

Tracklist:
1. Human Distortion 03:13
2. Subject 04:17
3. Mechanical Hymn 03:09
4. Radioactive Sun 02:22
5. Awaken / Inhuman Torment 05:09
******************************
Total playing time: 18:10





[more=Extended info]На BandCamp можно скачать безвозмездно (flac, 320, v0)[/more]

[more=Technical info]
Input File: 01 Human Distortion.mp3
Channels : 2
Sample Rate : 44100
Precision : 16-bit
Duration : 00:03:13.85 = 8548609 samples = 14538.5 CDDA sectors
File Size : 7.87M
Bit Rate : 325k
Sample Encoding: MPEG audio (layer I, II or III)
Comments :
Title=Human Distortion
Artist=Area
Album=Obsolete Flesh - Part I
Tracknumber=01
Year=2016
Genre=Black/Death Metal

[/more]

Register
(2) Rosen, vyacheslav,
May 31 2017, 19:00:15 Dream Fool Disease - Dream Fool Disease [demo] (2008)


*Artist: Dream Fool Disease
*Album: Dream Fool Disease [demo]
*Year: 2008
*Genre: Thrash/Death Metal
*Country: France
*Format: mp3@CBR320kbps
*Size: 58MB

Tracklist:
1. Dialectique 03:15
2. Hell 03:43
3. Rise 04:54
4. Outdoor 03:49
5. Prisoner 03:57
6. 3rd Eye 05:44
******************************
Total playing time: 25:22

HomePage



[more=Extended info]На BandCamp можно скачать безвозмездно flac, 320, v0...

[youtube]8hnS5840UnI[/youtube][/more]

[more=Technical info]
Input File: 01 Dialectique.mp3
Channels : 2
Sample Rate : 44100
Precision : 16-bit
Duration : 00:03:14.97 = 8598177 samples = 14622.8 CDDA sectors
File Size : 7.87M
Bit Rate : 323k
Sample Encoding: MPEG audio (layer I, II or III)
Comments :
Title=Dialectique
Artist=Dream Fool Disease
Album=Dream Fool Disease
Tracknumber=1
Year=2013

[/more]

Register
(3) METALHUNTER, Rosen, wgs73,
May 31 2017, 18:15:45 Maquahuitl - Panquetzaliztli [ep] (2015)


*Artist: Maquahuitl
*Album: Panquetzaliztli [ep]
*Year: 2015
*Genre: Black Metal
*Country: United States
*Format: mp3@CBR320kbps
*Size: 27MB

Tracklist:
1. La Resistencia Para La Existencia 02:57
2. El Muerte Mas Preciosa 03:33
3. Panquetzaliztli 02:36
4. Paraiso Azul 02:59
******************************
Total playing time: 12:05


Metal-Archives

[more=Extended info]Cassette, EP, Limited Edition (50), Self-released

[youtube]r4nnNRAd5_Y[/youtube][/more]

[more=Technical info]
Input File: Maquahuitl - 01 - La Resistencia Para La Existencia.mp3
Channels : 2
Sample Rate : 48000
Precision : 16-bit
Duration : 00:02:57.74 = 8531712 samples ~ 13330.8 CDDA sectors
File Size : 6.90M
Bit Rate : 311k
Sample Encoding: MPEG audio (layer I, II or III)
Comments :
Title=La Resistencia Para La Existencia
Artist=Maquahuitl
Album=Panquetzaliztli [EP]
Tracknumber=1
Year=2015
Genre=Black Metal

[/more]

Register
(12) fabriziomagno, Ildjarn, kim666, Moonshtook, Ratibor366, Raw1488, Rosen, satanist666, stub888, varg-38ru, varlam4, vasiljev_sergej,
May 30 2017, 20:50:12 Horrid - Beyond The Dark Border (2017)


*Artist: Horrid
*Album: Beyond The Dark Border
*Year: 2017
*Genre: Death Metal
*Country: Italy
*Format: mp3@CBR256kbps
*Size: 90MB

Tracklist:
01. The Black March
02. Cursed Dunes
03. Blood Painted Walls
04. The Eyes Of Terror
05. The Statement
06. Sacrilegious Fornication
07. Missing End
08. Demonic Challenge
09. Beyond The Black Border
******************************
Total playing time: 49:08



[more=Extended info]В Лоу...

[youtube]X79GAdrpsMY[/youtube][/more]

Register
(6) BERZERK, Diflock, Pinhead666, TeamatSE, thenecromancer, THROWER666,
May 30 2017, 20:30:17 Broken Hope - The Carrion Eaters [studio clip] (2017)


*Performer: Broken Hope
*Title: The Carrion Eaters
*Type: Studio Clip
*Album: Mutilated And Assimilated
*Year: 2017
*Genre: Death Metal
*Country: United States

*Audio: aac@126kbps
*Video: h.264@4193kbps
*Resolution: 1920x1080
*Size: 107MB
******************************
*Length: 00:03:27

[more=Extended info]Альбом 23 июня...

[youtube]qRZRRxLxCMM[/youtube][/more]

Register
(9) belial666, legion01, leviathanticus, nikolay81, Paradayz, Rosen, RUSP73, Scuns, Styx,
May 30 2017, 19:53:39 Forces United - Egorov (2017)


*Artist: Forces United
*Album: Egorov
*Year: 2017
*Genre: Power Metal
*Country: Russian Federation
*Format: mp3@CBR320kbps
*Size: 92MB

Tracklist:
1. Beconing Heights 04:09
2. Lie 04:15
3. Facing the Storm 04:50
4. Father to Sun 04:04
5. Take a Breath 03:11
6. Counting Numbers 03:13
7. The Circle of Hurt 03:54
8. The Vow 04:00
9. Special 04:02
10. The Voice 04:11
******************************
Total playing time: 39:49

Preview 1

[more=Extended info][youtube]q2XBGKmz7KI[/youtube][/more]

[more=Technical info]
Input File: 01 Beconing Heights.mp3
Channels : 2
Sample Rate : 44100
Precision : 16-bit
Duration : 00:04:09.76 = 11014372 samples = 18731.9 CDDA sectors
File Size : 10.0M
Bit Rate : 322k
Sample Encoding: MPEG audio (layer I, II or III)
Comments :
Title=Beconing Heights
Artist=Forces United
Album=Egorov
Tracknumber=01
Year=2017
Genre=Power Metal

[/more]

Register
(15) ace73pq, aviacademy, csgmnk, DTGB, infozahist, metala, MetalW, Mogozoz, Mplast, oldvarg, Rosen, roverinc, talismanFS, varlam4, Сварог Барг,
May 30 2017, 19:17:48 Riff Fist - King Tide (2017)


*Artist: Riff Fist
*Album: King Tide
*Year: 2017
*Genre: Stoner/Doom Metal/Psychedelic Rock
*Country: Australia
*Format: mp3@CBR320kbps
*Size: 78MB

Tracklist:
1. King Tide 11:20
2. D.T.U.B. 03:11
3. Chugg 08:47
4. Fist Bier (Noch Eins) 04:02
5. Beer and a Cigarette 06:11
******************************
Total playing time: 33:31




[more=Extended info][youtube]xjs0ckRRiog[/youtube]
[youtube]k1eonn6xqUU[/youtube][/more]

[more=Technical info]
Input File: 02. D.T.U.B..mp3
Channels : 2
Sample Rate : 44100
Precision : 16-bit
Duration : 00:03:11.32 = 8436992 samples = 14348.6 CDDA sectors
File Size : 7.73M
Bit Rate : 323k
Sample Encoding: MPEG audio (layer I, II or III)
Comments :
Title=D.T.U.B.
Artist=Riff Fist
Album=King Tide
Tracknumber=02
Year=2017
Genre=Rock

[/more]

Register
(11) Buregon, kauyumari, marilin, Metropolis, Ostinato, Rosen, Sabbathian, SatanicPanzer, stub888, VALERY, Дерсу Узала,
May 30 2017, 18:46:52 Cosmosonic - Cosmosonic (2017)


*Artist: Cosmosonic
*Album: Cosmosonic
*Year: 2017
*Genre: Stoner Metal
*Country: Switzerland
*Format: mp3@CBR320kbps
*Size: 78MB

Tracklist:
1. A Night with the Devil 05:34
2. Party Spirit 06:42
3. Chtulhu 09:24
4. Hopeless 06:58
5. Save Me 05:16
******************************
Total playing time: 33:54





[more=Extended info][youtube]wQSnc4KMO9M[/youtube][/more]

[more=Technical info]
Input File: 01 - A Night With The Devil.mp3
Channels : 2
Sample Rate : 44100
Precision : 16-bit
Duration : 00:05:34.22 = 14739014 samples = 25066.4 CDDA sectors
File Size : 13.5M
Bit Rate : 323k
Sample Encoding: MPEG audio (layer I, II or III)
Comments :
Title=A Night With The Devil
Artist=Cosmosonic
Album=Cosmosonic
Tracknumber=1
Year=2017

[/more]

Register
(12) avkruchinin, Buregon, djsema4, J0k3r, marilin, Metropolis, Ostinato, Rosen, SatanicPanzer, stub888, Thrashman, VALERY,
May 30 2017, 18:06:05 Battle Raider - Hard Flyer (2016)


*Artist: Battle Raider
*Album: Hard Flyer
*Year: 2016
*Genre: Heavy Metal
*Country: Mexico
*Format: mp3@CBR320kbps
*Size: 109MB

Tracklist:
1. Lifeblood 04:23 (instrumental)
2. Monstersteel 03:47
3. Honor Core 06:16
4. Mystical Jail 06:22
5. Celestial Protector 07:02
6. Tártaro 07:47
7. Irons In My Heart 04:41
8. Rampage 06:55 (instrumental)
******************************
Total playing time: 47:13




[more=Extended info]Old School Heavy Metal
flac рип, сканы в архиве

[youtube]KVe1KJ8EFac[/youtube][/more]

[more=Technical info]
Input File: 02. Monstersteel .mp3
Channels : 2
Sample Rate : 44100
Precision : 16-bit
Duration : 00:03:46.56 = 9991384 samples = 16992.1 CDDA sectors
File Size : 9.12M
Bit Rate : 322k
Sample Encoding: MPEG audio (layer I, II or III)
Comments :
Title=Monstersteel
Artist=Battle Raider
Album=Hard Flyer
Tracknumber=02
Year=2016
Genre=Heavy Metal

[/more]

Register
(11) aviacademy, Buregon, DTGB, ExeThrash, metala, MetalW, Mogozoz, Rosen, roverinc, varlam4, wgs73,
May 29 2017, 21:00:43 A Taste Of Fear - God's Design (2017)


*Artist: A Taste Of Fear
*Album: God's Design
*Year: 2017
*Genre: Technical Thrash/Death Metal
*Country: Italy
*Format: mp3@CBR256kbps
*Size: 89MB

Tracklist:
1. God's Design 06:08
2. Into Hell 04:04
3. Out of Place 05:24
4. A Feared Secret 07:48
5. Make Suffer 05:18
6. Ripped Soul's Gift 04:55
7. The Passage 05:56
8. A Taste of Fear 07:27
******************************
Total playing time: 47:00




[more=Extended info]В Лоу...

[youtube]2X5GuN25LIc[/youtube][/more]

Register
(5) infozahist, logunarm, metala, neoatheist, Rosen,
May 29 2017, 20:00:12 Syn TZ - Heavy Load (2017)


*Artist: Syn TZ
*Album: Heavy Load
*Year: 2017
*Genre: Heavy Metal
*Country: Brazil
*Format: mp3@CBR320kbps
*Size: 117MB

Tracklist:
01. Stubborn
02. The Decline
03. Killing Me
04. Under Control
05. Held by the Cold
06. Shining for All
07. Erase It
08. Headbanger
09. Mirror
10. Louder and Harder
11. My Fear
******************************
Total playing time: 51:00




[more=Extended info][youtube]nclf1MpMDnA[/youtube]
[youtube]q58y6CG4zYk[/youtube][/more]

[more=Technical info]
Input File: 01. Stubborn.mp3
Channels : 2
Sample Rate : 44100
Precision : 16-bit
Duration : 00:05:05.97 = 13493453 samples = 22948 CDDA sectors
File Size : 12.3M
Bit Rate : 321k
Sample Encoding: MPEG audio (layer I, II or III)
Comments :
Title=Stubborn
Artist=Syn TZ
Album=Heavy Load
Tracknumber=01
Year=2017
Genre=Metal

[/more]

Register
(9) aviacademy, Buregon, metala, MetalW, Mogozoz, Rosen, roverinc, varlam4, wgs73,
May 29 2017, 19:23:58 Sense Of Ember - The Void Inside (2017)


*Artist: Sense Of Ember
*Album: The Void Inside
*Year: 2017
*Genre: Heavy Metal
*Country: Germany
*Format: mp3@CBR320kbps
*Size: 143MB

Tracklist:
1. No Spark 06:00
2. Specter 04:49
3. Bitter Thoughts 04:08
4. Just One Day 06:11
5. I'm a Lie 04:31
6. Reach for More 06:18
7. My Fault 05:00
8. Your Disgrace 04:07
9. Break These Chains 04:04
10. The Ensign 05:44
11. Deserted 05:21
12. Lost in This World 05:35
******************************
Total playing time: 1:01:48





[more=Extended info][youtube]ipFjRfvSPXw[/youtube]
[youtube]GlNnt7_vPJg[/youtube][/more]

[more=Technical info]
Input File: 03. Bitter Thoughts.mp3
Channels : 2
Sample Rate : 44100
Precision : 16-bit
Duration : 00:04:08.61 = 10963569 samples = 18645.5 CDDA sectors
File Size : 10.1M
Bit Rate : 325k
Sample Encoding: MPEG audio (layer I, II or III)
Comments :
Title=Bitter Thoughts
Artist=Sense Of Ember
Album=The Void Inside
Tracknumber=03
Year=2017
Genre=Metal
Discnumber=1

[/more]

Register
(10) ace73pq, Buregon, csgmnk, metala, MetalW, Metropolis, Mogozoz, Rosen, roverinc, vir2al,
May 29 2017, 18:51:00 Among Gods - The Feeding Of Cruelty (2017)


*Artist: Among Gods
*Album: The Feeding Of Cruelty
*Year: 2017
*Genre: Melodic Death Metal
*Country: Belarus
*Format: mp3@CBR320kbps
*Size: 94MB

Tracklist:
01. Reach To The Stars
02. Vengeance
03. Faceless Terror
04. My Confrontation
05. Nasty Blood
06. Frozen Heart
07. Young Warrior
08. Nightly Ghost
09. Rise Up
10. Galactic Abyss
******************************
Total playing time: 40:56

ВКонтакТ

[more=Extended info]Альбом выложен для свободного скачивания на странице Вконтакте (flac, mp3, wav)

[youtube]c3xk6Z02Row[/youtube][/more]

[more=Technical info]
Input File: 01. Reach To The Stars.mp3
Channels : 2
Sample Rate : 44100
Precision : 16-bit
Duration : 00:03:57.43 = 10470487 samples = 17807 CDDA sectors
File Size : 9.50M
Bit Rate : 320k
Sample Encoding: MPEG audio (layer I, II or III)
Comments :
Title=Reach To The Stars
Artist=Among Gods
Album=The Feeding Of Cruelty
Tracknumber=1/10
Year=2017
Genre=9

[/more]

Register
(25) Andrew, apostol_13, Aresson, avkruchinin, Bloodn Lord, BRUTAL06, Cheshire, Diflock, dinossaor, ehfeka44, Femto, Firefrost, logunarm, neoatheist, nsmetalhead, Rosen, roverinc, satanist666, SnaP, Storky, talismanFS, TeamatSE, VALERY, varlam4, wanderer73,

177 Pages V  < 1 2 3 4 5 > » 
- Lo-Fi Version Support form
Copyrights and abuse reports form
Time is now: 20th November 2019 - 02:03:50