Welcome Guest ( Log In | Register )

История благодарностей участнику Angren ::: Спасибо сказали: 2581 раз(а)
Дата поста: В теме: За сообщение: Спасибо сказали:
Feb 26 2021, 11:04:20 Новости Heavy/Power металла
ЦИТАТА(SAPOGi @ Feb 25 2021, 16:05:13) *
Что за зверь такой? hmm.gif

Аля Kiuas с самим Микко как на гитаре, так и на вокале. По музыке мб чуть злее, только пару песен опубликовали, например [youtube]Sxl5waUB4rE[/youtube]
(2) infiltrator, SAPOGi,
Feb 24 2021, 10:12:42 Новости Heavy/Power металла
Kiuas реформировались в оригинальном составе с Ильей за микрофоном, уже объявили несколько концертов на фестивалях, в планах также запись нескольких песен, но пока даже альбома полноценного обещать не могут
(2) infiltrator, Thiarnan,
May 15 2020, 18:39:32 Lör - Edge Of Eternity [ep] (2020)


*Artist: Lör
*Album: Edge Of Eternity [ep]
*Year: 2020
*Genre: Progressive Folk/Power Metal
*Country: United States
*Format: mp3@CBR320kbps
*Size: 72MB

Tracklist:
1. Upon a Withered Heart 06:07
2. A Life Once Known 05:08
3. Ruin 07:26
4. Relic 05:42
5. Edge of Eternity 06:26
******************************
Total playing time: 30:49




[more=Клип на песню Ruin][youtube]ejNc1AHr93k[/youtube][/more]

[more=Technical info]
Input File: Lör - Edge of Eternity - 02 A Life Once Known.mp3
Channels : 2
Sample Rate : 44100
Precision : 16-bit
Duration : 00:05:08.39 = 13600087 samples = 23129.4 CDDA sectors
File Size : 12.3M
Bit Rate : 320k
Sample Encoding: MPEG audio (layer I, II or III)
Comments :
Title=A Life Once Known
Artist=Lör
Album=Edge of Eternity (EP)
Tracknumber=2
Year=2020
Genre=Progressive Folk Power Metal

[/more]

Register
(23) aviacademy, BandR75, BladeOvDarkness, Cartman223, chipsgott, cist, Forest, gwar, infiltrator, kolar666, Lukittaz, Luminous, Mogozoz, Olethros, randumbum, Regnat, Rosen, senecazm, Spork, terron, zhol, Нигилист, Сварог Барг,
Jan 24 2019, 22:12:57 Ancient Bards - Origine (The Black Crystal Sword Saga Part 2) (2019)
Если кто не в курсе, их басист (один из основателей и вроде как автор концептуальной идеи про черный кристаллический меч) сейчас также играет в Ne Obliviscaris, что считаю весьма примечательным фактом.
(1) Foneg,
Aug 31 2018, 21:04:38 Great Leap Skyward - Map Of Broken Dreams (2018)
ЦИТАТА(MeatWolf @ Aug 31 2018, 18:53:42) *
Во втором треке, например.

Элементы есть, не спорю, но в любом случае его тут намного меньше, чем прога или павера, который не упомянут. Альтернативы вот ни капельнки нет - это 100%.
(1) Samaritianin,
Jun 4 2017, 16:30:40 Unleash The Archers - Apex (2017)
ЦИТАТА(avkruchinin @ Jun 4 2017, 18:07:31) *
Сиё было бы замечательно, Arise по моему называется она.

Готово
(2) avkruchinin, csgmnk,
Jun 4 2017, 16:29:15 Unleash The Archers - Defy The Skies [ep] (2012)
1. The Path Unsought 05:00
2. Upon Ashen Wings 05:11
3. Soulstorm 02:50
4. Arise 04:56

320 kbps, 41 Mb, lossless-rip
Register
(8) avkruchinin, BladeOvDarkness, csgmnk, Druidir, pfk505, smes, t0t0, varlam4,
Jun 4 2017, 15:51:10 Unleash The Archers - Apex (2017)
ЦИТАТА(avkruchinin @ Jun 4 2017, 17:42:54) *
Интересная история с этой ипишкой, на архивах указано 4 песни, а инет для скачивания на разных ресурсах предлагает только 3, где правда, опять учёные скрывают, а правительства замалчивают crazy.gif

Все очень просто на самом деле - в цифровом варианте сперва было выпущено 3 песни, а 4 была эксклюзивом для винила, но где-то через полгода-год (не помню точно) после релиза ее добавили и в цифровой вариант. Могу выложить, если надо.
(1) avkruchinin,
Dec 7 2016, 11:21:19 Меланхоличный Power Metal
Чет тут все по большей части известные группы рекомендуют, надо чего-нибудь подпольного вкинуть, например
(2) Foneg, SAPOGi,
Oct 13 2016, 00:32:53 Temperance - The Earth Embraces Us All (2016)
ЦИТАТА(vosmidesijatye @ Oct 13 2016, 00:29:07) *
Говорят, достойная замена Амарант.

Не знаю, в каком месте на этом альбоме Амаранте. Прошлый - да, там явная попытка отобрать у Элиз хлеб, но на этом они одумались (надеюсь, раз и навсегда) и решили делать более самобытную музыку. Самое главное, что вышло-то отлично! На мой взгляд, этот альбом на две головы лучше предыдущего. Им бы еще поработать с плотностью звучания - все равно как: гитарки добавить или аранжировок - и будет совсем хорошо.
(2) MeatWolf, vosmidesijatye,
Oct 12 2016, 22:40:15 Crimson Cult - Crimson Cult (2009)
320, 127 mb
Register
(1) Olrak,
Sep 22 2016, 17:18:45 Sunburst - Нет героев (2016)


*Artist: Sunburst
*Album: Нет героев
*Year: 2016
*Genre: Modern Heavy Metal
*Country: Russian Federation
*Format: mp3@CBR320kbps
*Size: 143MB

Tracklist:
1. Заткнись и слушай! 05:45
2. Моя война 03:24
3. Гетто 04:49
4. Армия Z 04:35
5. Нет героев 04:03
6. Небеса 04:15
7. Лабиринт 04:58
8. Замок абсурда 08:25
9. На грани 04:10
10. Адреналин 04:45
11. Пустота 03:24
12. Бестия города 05:48
13. Оборона 03:41
******************************
Total playing time: 1:02:02

Вконтакте
Официальный сайт
Яндекс.Музыка

[more=Extended info]Перерождение Ольви. На вокале Самосват и Насонов (поет на последних релизах Mechanical Poet). Заметен некоторый налет альтернативы, но решил в стиль не включать.[/more]
[more=Technical info]
Input File: 01 - Sunburst - Заткнись и слушай.mp3
Channels : 2
Sample Rate : 44100
Precision : 16-bit
Duration : 00:05:45.83 = 15251279 samples = 25937.5 CDDA sectors
File Size : 13.8M
Bit Rate : 320k
Sample Encoding: MPEG audio (layer I, II or III)
Comments :
Title=Заткнись и слушай
Artist=Sunburst
Album=Нет героев
Tracknumber=1
Year=2016
Genre=Modern Heavy Metal

[/more]

Register
(5) Aresson, BRUTAL06, Fess, Rosen, varlam4,
Nov 9 2015, 15:02:04 Лучший альбом Power митола!
ЦИТАТА(Old Vyaine @ Nov 9 2015, 17:53:38) *
Angren, столько мутных альбомов и ни одного хелловина smile2.gif

Из хелловина я могу написать только Unarmed. Правда надо сказать, что это не значит, что я совсем их не котирую. Я прекрасно осознаю, какую большую роль они сыграли для развития павера в целом, но не могу для себя выделить какой-нибудь один их альбом в ранг великих. Кстати, Пит Зилк сыграл не меньшую (а как личность - даже большую, чем кто-либо из тыкв, кроме Кая) роль, и, тем не менее, ни одного его альбома в моем списке нет.
(1) infiltrator,
Nov 9 2015, 14:50:19 Лучший альбом Power митола!
Blind Guardian - Imaginations from the Other Side
Blind Guardian - A Night at the Opera
Gamma Ray - Land of the Free
Auvernia - Afraid of Me
Kiuas - The Spirit of Ukko
Elvenking - The Winter Wake
Persuader - When Eden Burns
Raintime - Flies & Lies
Timeless Miracle - Into The Enchanted Chamber
Angra - Temple Of Shadows
Aquaria - Luxaeterna
Freedom Call - Eternity
Futures End - Memoirs of a Broken Man
Manticora - 8 Deadly Sins
Rage - Unity
Symphony X - Iconoclast (да, у меня извращенный вкус)
Brainstorm - Soul Temptation
Wuthering Heights - The Shadow Cabinet
Theocracy - Mirror of Souls
Timestorm - Shades of Unconsciousness
------
А Outworld сюда подойдет? Если да, то, конечно, лучше его.

Не влезли
Divinefire - Into A New Dimension
Dragonforce - Sonic Firestorm
Orden Ogan - Easton Hope
Pathfinder - Beyond The Space Beyond The Time
Pyramaze - Legend Of The Bone Carver
Secret Sphere - A Portrait Of A Dying Heart
Sinergy - Beware The Heavens
Tierramystica - A New Horizon
Twilightning - Delirium Veil
White Skull - Under This Flag
Wildpath - Non Omnis Moriar
Zonata - Buried Alive

P.S. От всей души желаю не занять ничего всякой дряни вроде сабатона, расподии и хамерфола.
(3) EviLLSmooke, infiltrator, Yarri,
Apr 30 2015, 08:27:59 Sunburst - Гетто [ep] (2015)


*Artist: Sunburst
*Album: Гетто [ep]
*Year: 2015
*Genre: Heavy/Power Metal
*Country: Russian Federation
*Format: mp3@CBR320kbps
*Size: 59MB

Tracklist:
1 Адреналин 4:46
2 Гетто 4:51
3 Нет героев 3:54
******************************
Total playing time: 13:31

Вконтакте

[more=Extended info]Перерождение Ольви с Самосватом на вокале[/more]

[more=Technical info]
Input File: 01 Адреналин.mp3
Channels : 2
Sample Rate : 44100
Precision : 16-bit
Duration : 00:04:46.43 = 12631651 samples = 21482.4 CDDA sectors
File Size : 12.1M
Bit Rate : 337k
Sample Encoding: MPEG audio (layer I, II or III)
Comments :
Title=Адреналин
Artist=Sunburst
Album=Гетто
Tracknumber=1/3
Year=2015
Genre=9

[/more]

Register
(3) BRUTAL06, kipelov999, varlam4,
Apr 15 2015, 02:14:52 Auvernia - Afraid Of Me (2010)
Настоящий флак
Register
(3) AHBAnep, infiltrator, varlam4,
Mar 25 2015, 01:05:49 Outworld - Demo [demo] (2004)


*Artist: Outworld
*Album: Demo [demo]
*Year: 2004
*Genre: Progressive Heavy/Speed Metal
*Country: United States
*Format: mp3@CBR192kbps
*Size: 37MB

Tracklist:
1. Raise Hell 06:10
2. Prelude to Madness 01:27
3. Concentration Camp 09:26
4. City of the Dead 07:16
******************************
Total playing time: 24:19



Register
(4) crimson glory, Rosen, varlam4, wreak,
Jan 27 2015, 22:10:44 Blind Guardian - Beyond The Red Mirror (2015)
Удивлен, что никто не упомянул The Grand Parade. Я с первого прослушивания почти ничего не понял (в Оперу тоже несколько лет въезжал, зато сейчас считаю его наилучшим на уровне IftOS), но именно последняя песня меня зацепила. Теперь надо послушать на виниле альтернативный микс. Что-то среднее между And Then There Was Silence и Chronicle of a Frozen Era от Elvenking, которая тоже мне очень нравится.
(1) Deze,
May 9 2014, 13:52:44 Statius - Arcane Fables [ep] (2009)
the same
Register
(6) ALBIGON, Luminous, satanist666, Spunkynut, Svafrlami, timteam88,
Feb 19 2014, 12:30:06 Cryonic Temple - Blood, Guts & Glory (2003)
320 kpbs 117 Mb
Register
(1) atmidian,
Dec 22 2013, 16:57:17 Evertale - Of Dragons And Elves (2013)


*Artist: Evertale
*Album: Of Dragons And Elves
*Year: 2013
*Genre: Epic Power Metal
*Country: Germany
*Format: mp3@CBR320kbps
*Size: 178MB

Tracklist:
1. Paladine's Embrace 01:24
2. In the Sign of the Valiant Warrior 05:12
3. Tale of the Everman 09:06
4. The Dragon's Lair 05:26
5. Of Dragons and Elves 04:01
6. Elventwilight 05:48
7. As Tarsis Falls 07:03
8. The Crownguard's Quest 01:43
9. Dawn of Winter Night 06:12
10. The Last Knight 07:46
11. Sturm's Funeral March 05:52
12. Firestorm 05:52
13. Brothers in War (Forever Damned) 07:49
14. The Final Page 07:51
******************************
Total playing time: 1:21:05




[more=Technical info]
Input File: 02 In the Sign of the Valiant Warrior .mp3
Channels : 2
Sample Rate : 44100
Precision : 16-bit
Duration : 00:05:12.59 = 13785087 samples = 23444 CDDA sectors
File Size : 12.5M
Bit Rate : 320k
Sample Encoding: MPEG audio (layer I, II or III)
Comments :
Title=In the Sign of the Valiant Warrior
Artist=Evertale
Album=Of Dragons and Elves
Tracknumber=02
Year=2013
Genre=Epic Power Metal

[/more]

Register
(45) aorta3, avather, BERZERK, bka, caro, Cartman223, CTPEMLEHIE, Darkness, DowntownGsus, Emhyr var Emreis, Fatalv, Fess, finrod, garretje, gusto24191, gwynnbleid, Kuzya, LusitanianTroll, mart2203, maxapero, MeatWolf, metala, MetalAlex, Mplast, Necroalex, nospeedlimit, Old Vyaine, oldvarg, Olrak, postal67, Protecto, randumbum, SAPOGi, satanist666, Scuns, StoneTemple, supremo, talismanFS, Thunderbird, v.v.m, varlam4, watasan, wreak, ZambuL, zamunder,
Nov 30 2013, 11:05:49 Ultimatium - New Dawn (2004)
CD-RIP 320 kbps 98 MB
Register

[more=spectrum][/more]
(3) boby9052, Lugia010719d1, satanist666,
Oct 12 2013, 18:05:46 Skyfire - Spectral (2004)
Patterns 320
Register
(1) MeatWolf,
Sep 25 2013, 13:42:23 Волновой Фронт - Северный Ветер (2013)
Такое ощущение, что никто в этой теме никогда не видел лого из блека. У меня почему-то не возникло проблем с его прочтением. Вот тут люди реально страдают
[youtube]m2NJ_b2RUcI[/youtube]
(1) Nattfodd,
Sep 19 2013, 17:43:43 Starsoup - Bazaar Of Wonders (2013)


*Artist: Starsoup
*Album: Bazaar Of Wonders
*Year: 2013
*Genre: Progressive/Power Metal
*Country: Russian Federation
*Format: mp3@CBR320kbps
*Size: 125MB

Tracklist:
1 Angels 6:27
2 Ain't no Superman 4:23
3 Try 4:23
4 Cradle of War 7:01
5 Rumors of Better Life 3:33
6 Past Bites 3:37
7 The City and the Stars 2:58
8 Bazaar 5:41
9 Voices of the Wind 2:40
10 Road to Sunset 3:54
11 Perfect Loser 4:56
12 Rain in the Desert 4:55
******************************
Total playing time: 54:28

Vkontakte

[more=Extended info]TRANSCODE. Vkontakte rip = 192 kbps.
В записи приняли участие Александр Ветхов (Оргия Праведников), Илья Мамонтов (Эпидемия), Олег Мишин (Catharsis), Андрей Nova (Nova Art), Nicholas W.Angel и Костя Науменко (Conquest), Евгений Нестеров (Illidiance) и другие отличные музыканты. Одну из песен написал Лекс Плотников (Mechanical Poet).[/more]

[more=Technical info]
Input File: 06 Past Bites.mp3
Channels : 2
Sample Rate : 44100
Precision : 16-bit
Duration : 00:03:37.44 = 9589192 samples = 16308.1 CDDA sectors
File Size : 8.70M
Bit Rate : 320k
Sample Encoding: MPEG audio (layer I, II or III)
Comments :
Title=Past Bites
Artist=Starsoup
Album=Bazaar of Wonders
Tracknumber=06
Year=2013
Genre=Progressive/Power Metal

[/more]

Register
(16) ace73pq, aviacademy, caro, dimitriusk, garretje, hammer, metala, Mogozoz, Mplast, northerking, Old Vyaine, oldvarg, varlam4, watasan, wreak, Yarri,

14 Pages V   1 2 3 > » 
- Lo-Fi Version Support form
Copyrights and abuse reports form
Time is now: 14th April 2021 - 15:01:10