Welcome Guest ( Log In | Register )

История благодарностей участнику Un4given ::: Спасибо сказали: 6458 раз(а)
Дата поста: В теме: За сообщение: Спасибо сказали:
Today, 13:50:49 40 Watt Sun - Perfect Light (2022)


*Artist: 40 Watt Sun
*Album: Perfect Light
*Year: 2022
*Genre: Acoustic/Indie Rock
*Country: United Kingdom
*Format: mp3@CBR320kbps
*Size: 162MB

Tracklist:
1. Reveal 08:46
2. Behind My Eyes 11:34
3. Until 08:19
4. Colours 04:19
5. The Spaces in Between 09:41
6. Raise Me Up 09:46
7. A Thousand Miles 09:08
8. Closure 05:54
******************************
Total playing time: 1:07:27



[more=Technical info]
Input File: 04 Colours.mp3
Channels : 2
Sample Rate : 44100
Precision : 16-bit
Duration : 00:04:19.28 = 11434336 samples = 19446.1 CDDA sectors
File Size : 10.5M
Bit Rate : 322k
Sample Encoding: MPEG audio (layer I, II or III)
Comments :
Title=Colours
Artist=40 Watt Sun
Album=Perfect Light
Tracknumber=4
Year=2022
Genre=Acoustic

[/more]

Register
(3) Black Cat, Emm Human, yuratroll,
Jan 20 2022, 19:16:31 Кому-то Неймётся, или Переголосовалка Попсачей - Часть 1: 1980 - 1984
На самом деле многие альбомы не слушал никогда целиком до голосовалки 11.gif

1980:
Judas Priest - British Steel - да, на альбоме есть Breaking The Law... и всё остальное... На самом деле мне даже ещё пара треков нравится, но на топ не тянет даже в рамках группы. -1
Black Sabbath - Heaven And Hell - +3, но накинул балл потому что Mob Rules не попал.
Iron Maiden - Iron Maiden - с удовольствием переслушал, +2
Motorhead - Ace Of Spades - весело и задорно, мега-влиятельно... но на альбоме есть Ace Of Spades и почти дюжина его клонов... На самом деле, если бы первой шла любая другая песенка, то хитом стала бы она (например Fire Fire). Еле дослушал. -1

1981:
нет Mob Rules... mad_ani.gif
Accept - Breaker - терпеть не могу их вокал, но тут терпимо и разнообразно, +1, хотя более одной песенки про рок-н-ролл - это перебор
Iron Maiden - Killers - наверно самый слабый альбом Железной Девы 80-х, нет явных хитов, тем не менее слушается нормально, +1
Ozzy Osbourne - Diary of a Madman - редкостная нудятина кроме последнего трека, -1
Venom - Welcome To Hell - п***ц кривая панкуха, и кривая даже по меркам жанра, до конца не выдержал. -2

1982:
Iron Maiden - The Number Of The Beast - шедевр, но +2
Accept - Restless And Wild - а здесь уже почти сплошное фирменное хрюканье, только 4 трека слушал без зевоты, -1
Judas Priest - Screaming For Vengeance - в этом году скорее за IM, но у Железной Девы будет 3 балла от меня в следующем году, +3 во имя баланса

1983:
Accept - Balls To The Wall - титульная песня - одна из причин, почему недолюбливаю группу. В общем-то всё, кроме первых двух треков, "Losers and Winners" и последнего, хорошо. Много крутых риффов и хуковых припевов, но есть вопросы к сонграйтингу, +1
Metallica - Kill'Em All +2
Slayer - Show No Mercy - представляю, как ох*уел народ в 1983-м от первого трека... +2
Iron Maiden - Piece Of Mind - +3
Dio - Holy Diver - Дио вытянет своим голосом даже откровенно слабый альбом, но тут есть два хита и несколько просто хороших песен помимо порожняка, +1
Ozzy Osbourne - Bark At The Moon - намного лучше предыдущего, но без восторгов, +1

1984:
да тут половине участников надо +3 ставить!
Metallica - Ride The Lighting, +3
Judas Priest - Defenders Of The Faith, +2
Grave Digger - Heavy Metal Breakdown, бодрое начало, но под конец надоедает, +1
W.A.S.P - W.A.S.P - думал, что кроме пары хитов слушать будет нечего, но оказалось, что в целом неплохо, +1
Iron Maiden - Powerslave +2
Manowar - The Sign of the Hammer - на этом альбоме две мои любимейшие композиции группы: Mountains и Guyana, и пофиг что на нём есть и раздражающие, +2
Mercyful Fate - Don't Break The Oath - не знал, что у них были притрешёванные риффы, но всё равно разочарование - в первой половине альбома складывается ощущение, что играют кто в лес, кто по дрова, хотя по отдельности партии инструментов интересные. -1
Running Wild - Gates To Purgatory - вроде и хорошо, но как-то не цепляет, +1
Scorpions - Love At First Sting - альбом без откровенно слабых вещей, +2
Dio - The Last In Line - поровнее дебюта, но явных хитов нет, +1
Sodom - In The Sign Of Evil (EP) - здесь протоблэк должен нести историческую ценность, жаль только музыкальная - околонулевая, -1
Manowar - Hail To England - похуже чем The Sign Of The Hammer и непопавший в список Into Glory Ride, +1
(1) Deze,
Jan 20 2022, 18:41:59 Новости DOOM Metal
Et Moriemur - Tamashii No Yama - out on 8th April 2022 by Transcending Obscurity Records
[youtube]2pNmlg7RRjs[/youtube] [youtube]miwMmD6LqFc[/youtube]
(1) Chasm,
Jan 15 2022, 09:25:43 Новости DOOM Metal
Friends Of Hell - a new project by Albert Witchfinder (ex-Reverend Bizarre) - sef-titled album out on March 18th 2022 by Rise Above Records
[youtube]58UMNZse5Po[/youtube]
(1) Occultas,
Dec 28 2021, 20:38:21 Evangelist - Ad Mortem Festinamus (2020)


*Artist: Evangelist
*Album: Ad Mortem Festinamus
*Year: 2020
*Genre: Epic Doom Metal
*Country: Poland
*Format: mp3@CBR320kbps
*Size: 87MB

Tracklist:
1. Perceval 07:16
2. Anubis (On the Onyx Throne of Death) 06:16
3. The Puritan 05:51
4. Pale Lady of Mercy 06:18
5. Towards the End 05:06
6. Mystification (Manilla Road cover) 05:29
******************************
Total playing time: 36:16



[more=Technical info]
Input File: 05 Towards the End.mp3
Channels : 2
Sample Rate : 44100
Precision : 16-bit
Duration : 00:05:06.67 = 13524191 samples = 23000.3 CDDA sectors
File Size : 12.5M
Bit Rate : 326k
Sample Encoding: MPEG audio (layer I, II or III)
Comments :
Title=Towards the End
Artist=Evangelist
Album=Ad Mortem Festinamus
Tracknumber=5
Year=2020
Genre=Epic Doom Metal

[/more]

Register
(33) after21allD, AHBAnep, Akmerg, artscald, autumnwood, Black Cat, Brutal, Buregon, caro, djsema4, doomTemplar, Elfaffo, HMHamster, lacrimatorium, LEGION69, Lux, marilin, mayrink, Mogozoz, Old Vyaine, oldvarg, Olethros, RUDACHUR, SAPOGi, sergsazan, stumpheavyrock, supremo, VALERY, vlad74, wreak, Xtohar, zhol, Луч,
Dec 28 2021, 06:45:23 Evoking Winds - Conjunction Of Spheres (2021)


*Artist: Evoking Winds
*Album: Conjunction Of Spheres
*Year: 2015
*Genre: Atmospheric Black Metal
*Country: Belarus
*Format: mp3@CBR320kbps
*Size: 86MB

Tracklist:
1. Tapestry of Time 03:53
2. The Aftermath 03:39
3. Snowslide 05:09
4. Conjunction of Spheres 04:13
5. The Journeyman (Instrumental) 04:07
6. The Mirror (pt. I) 04:04
7. Forgotten Realms 04:27
8. The Mirror (pt. II) 03:15
9. Aurora Borealis (Instrumental) 04:19
******************************
Total playing time: 37:06




[more=Extended info]In this album, we explored the philosophy and folklore motives inspired by the Witcher saga, specifically the time when the worlds collided bringing the new inhabitants into Neverland.[/more]

[more=Technical info]
Input File: 01 Tapestry of Time.mp3
Channels : 2
Sample Rate : 44100
Precision : 16-bit
Duration : 00:03:53.84 = 10312256 samples = 17537.9 CDDA sectors
File Size : 9.48M
Bit Rate : 324k
Sample Encoding: MPEG audio (layer I, II or III)
Comments :
Title=Tapestry of Time
Artist=Evoking Winds
Album=Conjunction of Spheres
Tracknumber=1
Year=2015
Genre=Atmospheric Black Metal

[/more]

Register
(23) aleon, AlexSmith, artscald, autumnwood, Carcharoth, caro, dermarsoran, kim666, Metalass, nemx, Olethros, Olrak, Reverend, robertho777, sergsazan, Shadechaser, SilentNidhogg, stormhatt, Strid, supremo, VALERY, varlam4, wreak,
Dec 26 2021, 10:55:20 Raison D'être - Daemonum + Daemoniacum (2021)
ЦИТАТА(Hexer @ 25th December 2021 - 20:18:28) *
Насколько я боготворю творчество Питера Андерссона периода 90ых, настолько я равнодушен, к тому что началось у него в нулевых и продолжается до сих пор.

как раз наоборот, уныло, потому что альбом в духе 90-х, но слишком прилизан
Atomine Elektrine этого года хорош
(1) mirotvorets,
Dec 14 2021, 18:02:51 Новости DOOM Metal
Druid Lord - Relics Of The Dead - Old-school death/doom - 21 Jan 2022
(1) Occultas,
Dec 14 2021, 16:01:56 Keen Of The Crow - Hyborea (2007)
in one archive:
Keen Of The Crow - Premonition (EP, 2006)
Keen Of The Crow - Hyborea (2007)
320kbps
Register
(2) lucifix, wreak,
Dec 14 2021, 15:44:56 Funeral - Praesentialis In Aeternum (2021)
ЦИТАТА(Faust_Vulkan_16 @ 13th December 2021 - 08:57:58) *
Конечно, ведь ты неизлечим.
Обозвать Шэйпов фьюнералом...пхахахахахахахааа

назови критерии фьюнерала, и чем Angel Of Distress им не соответствует
(1) Exorcist,
Dec 12 2021, 13:24:01 Psilocybe Larvae - Where Silence Dwells (2021)
Не считая жиденького звука, отличный альбом одной из самых самобытных групп страны!
По первой прослушке особенно эти треки понравились:
ЦИТАТА(necroscum @ 10th December 2021 - 18:40:07) *
02. Run to Nowhere
04. Inner Darkness
09. Encounter with Nothingness
10. Where Silence Dwells


Удивляет количество негативных отзывов 6.gif
(3) AHBAnep, Chasm, Mplast,
Dec 11 2021, 18:56:37 Worm - Foreverglade (2021)
Шикарно!
Любителям Disembowelment, Dusk и Morgion слушать обязательно.
У первых в этом списке много подвальных подражателей, но тут со звуком всё отлично!

ЦИТАТА(isvili @ 18th October 2021 - 19:29:17) *
Отличное сочетание doom и black metal

где блэк?
(2) Chasm, MorsPulchra,
Dec 11 2021, 18:37:54 Funeral - Praesentialis In Aeternum (2021)
ЦИТАТА(mpavlentiy @ 11th December 2021 - 11:17:39) *
Я как-то на группу подзабил, первые альбомы считаю классикой, в то, что было после ухода в мир иной лидеров коллектива, особо не вслушивался, - видимо напрасно, слушать определенно есть что.

Смена стилистики поначалу, конечно, напрягла, но From These Wounds и Oratorium тоже шедевры, хоть и в другом стиле.
Прогресс в аранжировках заметен на этом альбоме, но пока не готов записать его в лучший нефьюнеральный
(1) Chasm,
Nov 5 2021, 19:51:39 Ophis - Spew Forth Odium (2021)
ЦИТАТА(DenisKov @ 4th November 2021 - 11:22:41) *
вообще никакого развития

нех*й слушать под звуки щёлканья мышью и выпадания лута, тогда и развитие будет слышно
(5) 6666666, Ethnos, FullofHate, Lux, plfan93,
Nov 1 2021, 11:20:42 Sol - Before We Disappear (2018)
Новый альбомчик: Final Seizure of the Light-Being (2021)

Неформат: Ambient/Neoclassical и стоит 1 EUR, поэтому оформлять не стал
По настроению - саундтрек к какому-нибудь скандинавскому арт-хаусу про безысходность и тлен
(2) Chasm, mirotvorets,
Oct 29 2021, 14:39:04 Yes - The Quest (2021)
Ellaya,
рекомендую:
Fragile 1971
Close To The Edge 1972
Tales From Topographic Oceans 1973
остальное для фанатов
(1) Ellaya,
Oct 29 2021, 10:54:41 Funeralium - Decrepit (2021)


*Artist: Funeralium
*Album: Decrepit
*Year: 2021
*Genre: Funeral Doom/Black Metal
*Country: France
*Format: mp3@CBR320kbps
*Size: 179MB

Tracklist:
1. Aviditas 09:46
2. Ruination 31:53
3. The Lunatic Escalation Towards Extinction 23:42
4. The Terminal Purge 12:22
******************************
Total playing time: 1:17:43



[more=Technical info]
Input File: 01 Aviditas.mp3
Channels : 2
Sample Rate : 44100
Precision : 16-bit
Duration : 00:09:46.90 = 25882378 samples = 44017.6 CDDA sectors
File Size : 23.6M
Bit Rate : 322k
Sample Encoding: MPEG audio (layer I, II or III)
Comments :
Title=Aviditas
Artist=Funeralium
Album=Decrepit
Tracknumber=1
Year=2021
Genre=Funeral Doom Metal

[/more]

Register
(43) AHBAnep, AlexSmith, alikkon, andreikun, artscald, BERZERK, Black Cat, Brutal, Buregon, caro, Chasm, ENDSMOUTH, gena, grimoir, Hell_Is_Here, HMHamster, INDARKNESS, infozahist, julianotidre, kauyumari, LEGION69, Marek, MaXL, MAYH, Metalass, Olethros, quarantine, randumbum, Reverend, robertho777, rominow, RUDACHUR, Samaritianin, Shadechaser, SilentNidhogg, Sphinx7, supremo, thenecromancer, Tino, Tyrone, VALERY, varlam4, wreak,
Oct 29 2021, 10:36:40 Dhyana - Bodhisattva (2021)


*Artist: Dhyana
*Album: Bodhisattva
*Year: 2021
*Genre: Psychedelic Stoner/Drone Doom Metal
*Country: United States
*Format: mp3@CBR320kbps
*Size: 269MB

Tracklist:
1. Mahayana 15:52
2. Avalokiteshvara 09:20
3. Embodiment of Great Bliss 06:21
4. Born from the Lotus 11:08
5. Padmasambhava 09:56
6. Amitabha 06:45
7. Siddhartha 08:24
8. Jewel in the Lotus 14:25
9. Rainbow Body 10:23
10. Infinite Light 12:41
11. Milarepa 12:06
******************************
Total playing time: 1:57:21



[more=Extended info]For fans of Om, Bong, Zaum.
There are other releases available for free at Bandcamp[/more]

[more=Technical info]
Input File: 03 Embodiment of Great Bliss.mp3
Channels : 2
Sample Rate : 44100
Precision : 16-bit
Duration : 00:06:21.28 = 16814492 samples = 28596.1 CDDA sectors
File Size : 15.3M
Bit Rate : 322k
Sample Encoding: MPEG audio (layer I, II or III)
Comments :
Title=Embodiment of Great Bliss
Artist=Dhyana
Album=Bodhisattva
Tracknumber=3
Year=2021
Genre=Psychedelic Doom Metal

[/more]

Register
(10) caro, gena, HMHamster, julianotidre, marilin, Olethros, skidnik, StabWound, stub888, wreak,
Oct 29 2021, 10:09:46 Новости DOOM Metal
40 Watt Sun - Perfect Light - out on 21.01.2022
[youtube]Swy_v-8SZYE[/youtube]
по превью правда металла не осталось вообще
(4) Emm Human, SatanicPanzer, Stutthof, Wise.man,
Oct 23 2021, 11:12:52 Новости DOOM Metal
Pantheist - Closer To God - releases 3 December 2021
(3) Emm Human, Old Vyaine, thenecromancer,
Oct 3 2021, 09:43:04 Cataleptic - The Tragedy (2021)
ЦИТАТА(Aectan @ 2nd October 2021 - 16:43:42) *
убожество). В первую очередь, в музыкальном, мелодическом плане, что, сбсенно, главное.

всё отлично тут с мелодиями и построением композиций
другое дело, что смесь Paradise Lost с Brave Murder Day Кататонии не очень интересно слушать

ЦИТАТА(Ice Gnoll @ 3rd October 2021 - 11:35:57) *
Третьесорт. Насилу дождался окончания альбома. Скучно, тускло.

под вывеской Paradise Lost небось нахваливал бы
(4) BERZERK, Bloodn Lord, DCLXVI-135, Old Vyaine,
Oct 2 2021, 14:51:30 Общие рекомендации в стиле
ЦИТАТА(Ellaya @ 2nd October 2021 - 15:33:40) *
Фанат что-ли?
Последний из могикан или из могилы?
давно уже тех нет а те далече....
помрешь,кто тебя вспомнит?

ещё не вечер, а ты уже упоролся?
(1) Old Vyaine,
Sep 30 2021, 18:01:29 Skepticism - Companion (2021)
Шикарный альбом! Чем больше слушаю, тем больше нравится.
(2) tenebriis, Thiarnan,
Sep 15 2021, 11:07:10 Chasmdweller - Flesh Crusade (2021)
олдскульная дезуха, дума нет
на Disembowelment изредка похоже, но на быстрые фрагменты
(1) Old Vyaine,
Sep 13 2021, 18:39:53 Confessor - Unraveled (2005)
Качество как в шапке:
Register
(3) Kazoth, thenecromancer, wreak,

54 Pages V   1 2 3 > » 
- Lo-Fi Version Support form
Copyrights and abuse reports form
Time is now: 22nd January 2022 - 18:54:58