Welcome Guest ( Log In | Register )

История благодарностей участнику Un4given ::: Спасибо сказали: 6735 раз(а)
Дата поста: В теме: За сообщение: Спасибо сказали:
Sep 10 2022, 12:24:50 Wine From Tears - I'm Fine (2022)
ЦИТАТА(Godflesh @ 10th September 2022 - 11:59:04) *
Swallow the Sun, Novembers Doom каждый их альбом вызывают на мировых муз. форумах

да унылейшее говнище они обе выпускают после первых альбомов
(1) rominow,
Sep 8 2022, 19:45:48 Merkstave - Merkstave (2013)
Register
(2) Cdub, Ice Gnoll,
Sep 7 2022, 18:23:29 Soliloquium - Soulsearching (2022)
Register
(2) 6666666, hell_armageddon,
Sep 3 2022, 13:59:23 Blind Guardian - The God Machine (2022)
Вроде быстрее стали играть, а всё равно какая-то тягомотина получается 13.gif
Даже до 2010-го не дотягивает
(1) plfan93,
Aug 30 2022, 12:18:48 Grívf & Sol - Iss/The Great Plague Imperium [split] (2010)
Register
(2) Nicrophorus, quarantine,
Aug 23 2022, 13:10:21 Grave Bathers - Rock 'n' Roll Fetish (2022)
ЦИТАТА(vosmidesijatye @ 18th August 2022 - 14:10:11) *
сабж - глоток свежего воздуха

звучание оригинальное,
риффы такие же избитые как весь жанр, а вставочки рочка из 60-х не спасают
(1) cesar,
Aug 13 2022, 10:30:28 Ulver - Nattens Madrigal - Aatte Hymne til Ulven i Manden (1997)
Лучший альбом жанра ever.
Как по звуку, так и собственно музыке.
И это при том, что я подвальный звук не люблю.
(1) thenecromancer,
Aug 12 2022, 18:04:38 Shroud Of Bereavement - A Beautiful Winter (2022)
В перемотке казалось, что всё по-Фэншую.
При внимательном прослушивании - унылая, неслушабельная тягомотина, размазанная на 70 с лишним минут.
Взять, например, второй трек - можно смело выкинуть первые 5 с половиной минут и было бы норм.

ЦИТАТА(6666666 @ 7th August 2022 - 15:13:16) *
Первая вещь, кстати, чистой воды Lacrimas Profundere, времён Burning: A Wish.

да и в остальных треках тоже Lacrimas Profundere гомеопата
(1) BleedingSun,
Aug 11 2022, 17:03:40 Arch Enemy - Deceivers (2022)
Неуместный харш портит годный в общем-то хэви
(1) Ghostb,
Aug 10 2022, 13:24:23 Enchantment - Cold Soul Embrace (2022)
Охренительнейший олдскул!
Отличные мелодии в каждом треке.
Понравился гораздо больше дебютного альбома сабжа и камбэка Celestial Season

ЦИТАТА(Terrorizer @ 29th June 2022 - 17:35:47) *
И парадайзовские подражательства можно было не тащить из 90-х.

нужно было, тем более тут есть ещё и Anathema, и MDB.

ЦИТАТА(Faust_Vulkan_16 @ 27th June 2022 - 12:15:39) *
Жаль что не нашли ударника и "нарисовали" в миди барабаны.

но при этом звучат лучше чем живые на последнем полноформате MDB, я бы и не заметил, если бы не прочитал
(2) Falx, Samaritianin,
May 22 2022, 10:24:05 Avantasia - The Wicked Rule The Night [single] (2022)
ЦИТАТА(vosmidesijatye @ 21st May 2022 - 16:53:47) *
Обложка просто

Обложка супер - люблю картофель "по-деревенски"
(1) CTPEMLEHIE,
May 12 2022, 09:15:03 Author & Punisher - Woman & Children (2013)
Register
(1) kimkayoung,
May 6 2022, 13:00:07 Strange Horizon - Beyond The Strange Horizon (2022)
ЦИТАТА(vosmidesijatye @ 6th May 2022 - 10:32:31) *
Просто аццкий воршип Solitude Aeternus,

я попырил только несколько песенок с бандкампа, и там стоунер и более олдовый прото-дум вроде Pentagram/Saint Vitus,
хз где ты Solitude Aeturnus услышал
(4) Aamiinaa, AHBAnep, Metalass, WOLAND,
May 6 2022, 12:46:52 Ufomammut - Fenice (2022)


*Artist: Ufomammut
*Album: Fenice
*Year: 2022
*Genre: Stoner Doom/Post-Metal
*Country: Italy
*Format: mp3@CBR320kbps
*Size: 91MB

Tracklist:
1. Duat 10:33
2. Kepherer 02:59
3. Psychostasia 07:13
4. Metamorphoenix 07:41
5. Pyramind 07:04
6. Empyros 02:47
******************************
Total playing time: 38:17



[more=Extended info]Scene web-rip (Deezer)[/more]

[more=Technical info]
Input File: 06-empyros.mp3
Channels : 2
Sample Rate : 44100
Precision : 16-bit
Duration : 00:02:47.80 = 7399804 samples = 12584.7 CDDA sectors
File Size : 7.15M
Bit Rate : 341k
Sample Encoding: MPEG audio (layer I, II or III)
Comments :
Title=Empyros
Artist=Ufomammut
Album=Fenice
Tracknumber=6/6
Year=2022
Genre=Post-Metal

[/more]

Register
(39) artscald, autumnwood, BERZERK, BlutWut, Boozer, Buregon, caro, chipsgott, Dante_D, fuoco, Geisteswaffe, gena, GFW, Ghostb, gorven, HMHamster, Ignativs, karut, kauyumari, kefka, LiarOfAngmar, madera, marilin, Mencae77, metaljosue, Niknne, Olethros, QuadenThyrane, Reducer, rocesid, smes, squall8fr, stumpheavyrock, thenecromancer, VALERY, wreak, xska, ZamanFu, дивин,
Apr 30 2022, 12:57:56 Shape Of Despair - Illusion's Play (2004)
ЦИТАТА(smes @ 30th April 2022 - 15:07:25) *
а что лучше или хуже, то это уже субъективно

очевидно сабжевый альбом худший в дискографии
(1) Old Vyaine,
Apr 19 2022, 14:38:45 Escaping Aghartha - Croak (2022)


*Artist: Escaping Aghartha
*Album: Croak
*Year: 2022
*Genre: Funeral Doom/Death Metal
*Country: United States
*Format: mp3@CBR320kbps
*Size: 107MB

Tracklist:
1. Chytrid 09:24
2. Perpetual Decline - I 10:16
3. Into Extinction - II 01:46
4. Consuming Drought 08:43
5. Croak 12:25
******************************
Total playing time: 42:34



[more=Technical info]
Input File: 03 Into Extinction - II.mp3
Channels : 2
Sample Rate : 44100
Precision : 16-bit
Duration : 00:01:46.61 = 4701677 samples = 7996.05 CDDA sectors
File Size : 4.43M
Bit Rate : 332k
Sample Encoding: MPEG audio (layer I, II or III)
Comments :
Title=Into Extinction - II
Artist=Escaping Aghartha
Album=Croak
Tracknumber=3
Year=2022
Genre=Funeral Doom Metal

[/more]

Register
(27) 6666666, AlexSmith, artscald, caro, chipsgott, Dante_D, Hell_Is_Here, HMHamster, infozahist, kefka, KVRT, lacrimoza, marilin, Mencae77, mirotvorets, northerking, Olethros, quarantine, Reverend, robertho777, Sanctus, sergsazan, Shadechaser, supremo, VALERY, Wail, wreak,
Apr 12 2022, 07:28:38 Atlantean Kodex - The Course Of Empire (2019)
The same rip as in Andrew's link:
Register
(2) Melusinara, quarantine,
Apr 7 2022, 09:57:10 Funeral - Praesentialis In Aeternum (2021)
BleedingSun,
From These Wounds (2007) примерно в таком же ключе как сабж
(1) BleedingSun,
Apr 7 2022, 07:44:18 Funeral - Praesentialis In Aeternum (2021)
Register
(5) Emhyr var Emreis, MadCarrot, quarantine, SatanicPanzer, thenecromancer,
Mar 19 2022, 08:56:34 Friends Of Hell - Friends Of Hell (2022)


*Artist: Friends Of Hell
*Album: Friends Of Hell
*Year: 2022
*Genre: Traditional Doom Metal
*Country: International
*Format: mp3@CBR320kbps
*Size: 89MB

Tracklist:
01. Out with the Wolves (4:11)
02. Shadow of the Impaler (4:11)
03. Into My Coffin (4:01)
04. Friends of Hell (3:51)
05. Gateless Gate (4:21)
06. Evil They Call Us (4:09)
07. Orion's Beast (4:00)
08. Belial's Bell (4:51)
09. Wallachia (6:23)
******************************
Total playing time: 39:58


 i 

2.3.в
 




[more=Extended info]Albert Witchfinder (Opium Warlords, ex-Spiritus Mortis, ex-The Puritan, ex-Reverend Bizarre) - vocals
Tas Danazoglou (Mirror, Satan’s Wrath, ex-Electric Wizard) - drums
Taneli Jarva (Diavolos, ex-Sentenced, ex-Impaled Nazarene) - bass
Jondix (Mercury Gates) - guitars

[youtube]58UMNZse5Po[/youtube]

Label page

FLAC-rip отсюда:https://rutracker.org/forum/viewtopic.php?t=6191796[/more]

[more=Technical info]
Input File: 04 Friends of Hell.mp3
Channels : 2
Sample Rate : 44100
Precision : 16-bit
Duration : 00:03:51.83 = 10223527 samples = 17387 CDDA sectors
File Size : 9.27M
Bit Rate : 320k
Sample Encoding: MPEG audio (layer I, II or III)
Comments :
Title=Friends of Hell
Artist=Friends Of Hell
Album=Friends Of Hell
Tracknumber=4
Year=2022
Genre=Traditional Doom Metal

[/more]

Register
(13) AHBAnep, BladeOvDarkness, BlutWut, Carcharoth, Chasm, GFW, helvetestoner, Ignativs, Spunkynut, stumpheavyrock, Wail, wgs73, Xtohar,
Mar 12 2022, 16:41:25 Новости DOOM Metal
Celestial Season - Mysterium I - out on April, 25th

(2) Old Vyaine, RUDACHUR,
Mar 2 2022, 09:33:18 Кому-то Неймётся, или Переголосовалка Попсачей - Часть 3: 1988 - 1990
Выбор становится всё сложнее
и где Voivod?

1988:
Blind Guardian - Battalions Of Fear - там, где не вытягивают исполнительским и композиторским мастерством, вытягивают задором! Wizard's Crown единственная слабая вещь. Считаю дебют одним из лучших альбомов группы. +2
Death - Leprosy - уже на втором альбоме стало очень хорошо! (но концовка немного утомительна) +2
Helloween - Keeper of the Seven Keys II - +3
Iron Maiden - Seventh Son of a Seventh Son - как же я ненавижу "Can I Play With Madness" и "The Evil That Men Do"! Без них был бы супер альбом. +1
Judas Priest - Ram It Down - по большому счёту, кроме одноимённой с альбомом песни, "Hard As Iron" и "Blood Red Skies" слушать нечего, но после трэш/детовой долбёжки заходит на ура, по крайней мере разнообразие есть, +1
King Diamond - "Them" - никогда не нравился этот альбом, не знаю, что с ним не так - в большинстве своём умеренная тягомотина с проблесками, +1 с натяжкой
Manowar - Kings of Metal - крутейшие песни соседствуют с кринжатиной, +1
Metallica - ...and Justice for All - половина композиций неоправдано затянута, тем не менее +2
Running Wild - Port Royal - Конкистадоры, конечно, шедевральны, завершающий эпик зело хорош, но остальное - фоновая музычка для рок-паба, культовость группы по-прежнему вызывает у меня вопросы. +1
Slayer - South Of Heaven - +2

1989:
Annihilator - Alice In Hell - Он прекрасен, единственный альбом группы, который переслушиваю... но раз в пятилетку. +3
Atheist - Piece Of Time - вроде бы и умно, но однообразно в плане выкрутасов, и не хватает цепляющих мелодий. +3 ритм-секции, +1 альбому в целом
Carcass - Symphonies Of Sickness - небезнадёжно, но недавно удалил и переслушивать не собираюсь, б/о
Coroner - No More Color - поярче чем дебютник Атеиста, но всё ещё не цепляет, +1
King Diamond - Conspiracy - наконец-то сошлись концептуальность и вставляющие мелодии, +2
Kreator - Extreme Aggression - в начале хороший трэш, но как-то мимо меня и под конец совсем надоедает. Тем не менее, +1 с натяжкой
Morbid Angel - Altars Of Madness - не моё, но впечатляюще, накинул балл за это, +2
Obituary - Slowly We Rot - вообще никак, б/о
Running Wild - Death or Glory - а вот это уже хорошо, +2
Sepultura - Beneath The Remains - переслушал не без удовольствия, хороший альбом, но видимо опять забуду о нём на несколько лет, +1
Sodom - Agent Orange - резко лучше предыдущих, +1
Testament - Practice What You Preach - что-то как-то слишком рок-н-ролльно, +1

1990:
Annihilator - Never, Neverland - на самом деле второй альбом хуже первого только отсутствием песни про Алису в Аду, +2
Bathory - Hammerheart - лучший викинг-метал ever, но в этом году есть Painkiller, поэтому только +2
Death - Spiritual Healing - +2
Deicide - Deicide - однообразие губит, +1
Judas Priest - Painkiller - вершина хэви, +3
King Diamond - The Eye - ещё лучше чем Conspiracy, +2
Kreator - Coma Of Souls - кажется вокал стал хуже; группа пыжится, кряхтит и дубасит, но что-то толковое вышло только на Terror Zone и Agents Of Brutality, -1
Megadeth - Rust in Peace - в период 1988-1995 группа находилась на пике, редкое сочетание рас***дяйского духа и годных мелодий, +2
Obituary - Cause of Death - местами отлично, местами никак, +1
Slayer - Seasons In The Abyss - самый зрелый альбом группы, ещё один претендент на максимальную оценку, +2
Sodom - Better Off Dead - примитивней Agent Orange, но разнообразней за счёт чередования моторхэдовщины и полноценного трэша, +1
(3) NeonKnight, Old Vyaine, Yarri,
Feb 27 2022, 01:30:45 Jack Frost - Wannadie Songs (2005)
VBR ~224:
Register
(2) MadCarrot, thenecromancer,
Feb 27 2022, 01:28:09 Shape Of Despair - Return To The Void (2022)
ЦИТАТА(Faust_Vulkan_16 @ 26th February 2022 - 14:32:37) *
Не доросли некоторые до того момента, чтоб меня учить.

тебе мерещится, что тебя пытаются чему-то учить,
тебя в школе гнобили, или мозг травмирован, и ему больно от информации?
(2) 6666666, BleedingSun,
Feb 26 2022, 10:09:15 Shape Of Despair - Return To The Void (2022)
Faust_Vulkan_16,
в отличие от ваты в твоей голове
(1) BleedingSun,

56 Pages V   1 2 3 > » 
- Lo-Fi Version Support form
Copyrights and abuse reports form
Time is now: 30th September 2022 - 13:57:43