Welcome Guest ( Log In | Register )

История благодарностей участнику Hadelik ::: Спасибо сказали: 3020 раз(а)
Дата поста: В теме: За сообщение: Спасибо сказали:
Jul 16 2017, 22:05:39 Selbst & Holbach - Aversio A Deo Et Conversio Ad Creaturas [split] (2014)


*Artist: Selbst & Holbach
*Album: Aversio A Deo Et Conversio Ad Creaturas [split]
*Year: 2014
*Genre: Black Metal | Black Metal
*Country: Venezuela | Venezuela
*Format: mp3@VBR290kbps
*Size: 49MB

Tracklist:
1. Selbst - Bringers Of Misery
2. Holbach - Forgotten Hymns
3. Holbach - Liberation Through the Free Conscience
******************************
Total playing time: 23:07



Register
(20) 1968_janeart, AndreFrancis, Blut aus Nord, Boozer, ddarkthrone, Hell_Is_Here, infiltrator, kim666, Lanceatum, lestllk, Ostinato, Razorbladeswaltz, rom666, Rosen, satanist666, serg1349, sethurius, vasiljev_sergej, yuratroll, Абигор,
Jul 16 2017, 21:51:01 Selbst - An Ominous Landscape [ep] (2015)


*Artist: Selbst
*Album: An Ominous Landscape [ep]
*Year: 2015
*Genre: Black Metal
*Country: Venezuela
*Format: mp3@CBR320kbps
*Size: 53MB

Tracklist:
1. An Ominous Landscape
2. Heterodox Reason
3. Aequat Omnes Cinis
******************************
Total playing time: 22:14



[more=Technical info]
Input File: 01 - An Ominous Landscape.mp3
Channels : 2
Sample Rate : 44100
Precision : 16-bit
Duration : 00:07:53.41 = 20877337 samples = 35505.7 CDDA sectors
File Size : 19.0M
Bit Rate : 321k
Sample Encoding: MPEG audio (layer I, II or III)
Comments :
Title=An Ominous Landscape
Artist=Selbst
Album=An Ominous Landscape
Tracknumber=1
Year=2015

[/more]

Register
(22) 1968_janeart, AndreFrancis, Black Cat, Blut aus Nord, Buregon, GAS, Hell_Is_Here, infiltrator, kim666, kolar666, lestllk, Ostinato, Razorbladeswaltz, rom666, Rosen, satanist666, serg1349, valafar, VALERY, vasiljev_sergej, yuratroll, Абигор,
Nov 23 2014, 23:03:03 Ayr - Eternal Sustain [ep] (2011)


*Artist: Ayr
*Album: Eternal Sustain [ep]
*Year: 2011
*Genre: Atmospheric Black Metal
*Country: United States
*Format: mp3@CBR320kbps
*Size: 74MB

Tracklist:
1. Drifting 04:46
2. An Opening in the Earth 08:50
3. Released 06:22
4. Lifted by the Light From My Breath 11:43
******************************
Total playing time: 31:41





[more=Technical info]
Input File: 02 - An Opening in the Earth.mp3
Channels : 2
Sample Rate : 44100
Precision : 16-bit
Duration : 00:08:48.61 = 23311745 samples = 39645.8 CDDA sectors
File Size : 21.3M
Bit Rate : 322k
Sample Encoding: MPEG audio (layer I, II or III)
Comments :
Title=An Opening in the Earth
Artist=Ayr
Album=Eternal Sustain
Tracknumber=2
Year=2010

[/more]

Register
(17) 0x13, 1968_janeart, artscald, Coroner, Koscheyushka, lestllk, Moonshtook, Rosen, scorn33, serach, Spunkynut, stub888, tont, Tratil, vasiljev_sergej, VECTOR, Госпромнадзор,
Aug 13 2014, 14:40:50 Moon - Clavicula Nox (2014)
ЦИТАТА(vosmidesijatye @ Aug 13 2014, 17:31:11) *
gena If you are not into BLACK METAL, better don`t you write.

Вообще-то это на Reverbnation написано в информации о Moon. Чекай ссылку.
(2) gena, vosmidesijatye,
Jul 19 2014, 00:43:03 King Of Asgard - Karg (2014)
Облога классная.
(1) Fess,
Jul 9 2014, 18:10:45 Lux Divina - New Days For The Ancient Wisdom [best of/compilation] (2004)
Reup.
Register
(1) neoatheist,
Jan 28 2014, 17:07:31 Dark Moor - Beyond The Sea (2005)
320 kbps:
Register


ЦИТАТА
Japanese edition contains 1 bonus track: 12. Innocence (08:09)
Нашел бонус-трек к японскому изданию альбома, но не уверен в его подлинности. Собрал полную дискографию и пощелкал по трекам: вроде бы похожего нет. Кто может - проверьте.

Register
(1) fabriziomagno,
Nov 8 2013, 14:38:10 Osgiliath - L'Ombre Du Passé [demo] (1997)
Все ссылки обновлены.
All links are updated.
(3) 1968_janeart, rom666, Ulfgrimm,
Sep 25 2013, 21:14:26 Brume Noire & Deinos Mastema - Split [split] (2008)
Reup:
Register
(3) Constantinus I, rom666, varlam4,
Sep 16 2013, 13:46:30 Vallendusk - Vallendusk [ep] (2012)
mp3@CBR320 kbps (lame 3.93.1):
Register

FLAC:
Register
(11) Barbiturat, blacky66, ddarkthrone, Femto, ImNotRussian, kolar666, postED, satanist666, timteam88, varlam4, Zahrim,
Aug 27 2013, 14:17:15 Isvind - Daumyra (2013)
Кто-нибудь, заклейте ему рот отрубите ему пальцы.
(8) alzus, aserius, Daecadance, Demuirg, Razorbladeswaltz, shitsic, UlvhedinGrom, Долгая-Дорога-В-Никуда,
Aug 21 2013, 14:14:38 Weh

Weh - Origins (2010) [best of/compilation]

VBR@160 kbps:
Register
(1) cancer1974,
Jul 26 2013, 18:51:22 Ereb Altor - Fire Meets Ice (2013)
По первому впечатлению: лучше, чем предыдущий альбом. Можно отметить неплохие темы Fire Meets Ice, Sacrifice, и очень хорошую The Deceiver Shall Repent. Я понимаю, что группа эволюционирует и не стоит на месте, но мне непонятны эти беззубые блэковые куски (и подобающий грим-вокал здесь кажется ненужным) в размеренном эпическом полотне почти каждой песни, например ими испорчена прекрасная заглавная тема альбома. Такая "озлобленность" в звучании, начатая с альбома Gastrike, Ereb Altor не к лицу, поэтому идеалом для меня всё так же остаются первые два альбома.
(2) BioMax, Deze,
Jul 11 2013, 11:22:57 Valkyrja - The Invocation Of Demise (2007)
MP3@CBR 320 (lame 3.93.1)
Register
(17) Black Cat, DarkHorde, Ghul, KeeLs, kim666, lestllk, maochen, masdad, Mortuusinfernus, older68, RajvsarN, satanist666, socrates9, stub888, Swastika, varlam4, Witchlord,
Jun 4 2013, 21:02:31 Lantern - Below (2013)
Перезалито.
Register
(23) andreikun, artscald, Boozer, cuimit1349, dany1880, DarkHorde, ddarkthrone, DrkKnight, Evilded, frostdomain, jpvalentim, kauyumari, Mist13Signifier, Oath19, Psychostatusrem, RUSP73, Samaritianin, Tino, troll_swamp, varg-38ru, varlam4, xska, y-e0,
May 26 2013, 00:01:55 Omega & Ravencult - Straight Down In Hell/Deifier Of Necromancy [split] (2012)
Порезано как надо.
Register
(9) Anhra Mainyu, artscald, Hell_Is_Here, satanist666, SilentNidhogg, stormhatt, SyncestrA, Vidder242, waldemardr,
May 13 2013, 16:39:46 Slejpnir & Kozmik Krypt - Funeral Of Morality [split] (2005)
Перезалито. Параметры те же.

Register
(2) rom666, varlam4,
May 4 2013, 13:55:51 Arckanum - Fenris Kindir (2013)
Слабый альбом. Antikosmos был идеальным, ÞÞÞÞÞÞÞÞÞÞÞ - просто очень хорошим альбомом. Дальше по наклонной.
(1) suseka,
Feb 25 2013, 23:00:42 Varuna - The Epical Trilogy Of Vorlaufen I: Night Master (2007)
mp3 320 kbps:
Register

FLAC:
Register
(5) lestllk, Necromag, Spunkynut, varlam4, Спектр,
Feb 8 2013, 20:27:06 Darkest Grove - Coming Of 2012 (2012)


*Artist: Darkest Grove
*Album: Coming Of 2012
*Year: 2012
*Genre: Black Metal
*Country: United States
*Format: mp3@CBR320kbps
*Size: 143MB

Tracklist:
1. Hatred Strives... 02:50
2. Wallowing at the Face of Evil 03:40
3. Destiny 05:19
4. Visions of an Apocalypse 06:04
5. Ready to Kill 06:43
6. Alone Eternal: Part II 07:04
7. Return of the Moonchildren 25:49
8. The Day the World Ends 04:14
9. Ecstasy in Annihilation 00:49
******************************
Total playing time: 1:02:32



[more=Extended info]


Input File: 01 - Hatred Strives....mp3
Channels : 2
Sample Rate : 44100
Precision : 16-bit
Duration : 00:02:50.44 = 7516492 samples = 12783.1 CDDA sectors
File Size : 6.82M
Bit Rate : 320k
Sample Encoding: MPEG audio (layer I, II or III)
Comments :
Title=Hatred Strives...
Artist=Darkest Grove
Album=Coming Of 2012
Tracknumber=01
Year=2012
Genre=Black Metal

[/more]

Register
(29) 0x13, Buregon, Constantinus I, Darkthronefoad, ddarkthrone, Ildjarn, Koscheyushka, Legacy100, lestllk, marilin, qzmit4, RUSP73, satanist666, senecazm, serach, Shuranator, SilentNidhogg, smes, spiritualdecay666, stub888, Thunderbird, toly1917, tont, VALERY, varlam4, vasiljev_sergej, vov7609, wreak, ZloY_GreY,
Jan 30 2013, 16:27:01 Castrum Doloris - I Shall Become [ep] (2011)
Все ссылки умерли.
Register
(8) Borderline1991, kim666, kryptor, lestllk, nsmetalhead, sethurius, varg-38ru, varlam4,
Jan 23 2013, 18:33:04 Horn - Wanderszeit [demo] (2003)

Register
(4) 1984, ddarkthrone, Mist13Signifier, satanist666,
Dec 30 2012, 22:34:13 Wendess & Deafest - Wendess/Deafest [split] (2012)
Register
(8) artscald, CultMetalSerge, GAS, kim666, lestllk, NachtWulf, satanist666, The_Hound,
Dec 29 2012, 11:34:27 Gloria Diaboli - Gate To Sheol [ep] (2007)
Перезалито.
Register
(6) Darkthronefoad, Doooomed, lestllk, olav, Rikardo90, varlam4,
Dec 21 2012, 17:41:54 Omnihierophantom - Beyond Eternity (2000)
ЦИТАТА(Kwaad @ Dec 21 2012, 17:27:06) *
Навскидку: Nortt, Arcana Coelestia, Yhdarl
Если имеется в виду помесь funeral doom и black metal

Licht erlischt... туда же.
(1) MikkeFFF,

18 Pages V   1 2 3 > » 
- Lo-Fi Version Support form
Copyrights and abuse reports form
Time is now: 19th July 2019 - 08:51:29