Welcome Guest ( Log In | Register )

История благодарностей участнику liiva ::: Спасибо сказали: 3997 раз(а)
Дата поста: В теме: За сообщение: Спасибо сказали:
Mar 6 2018, 12:08:45 Phlegm - Consumed By The Dead [best of/compilation] (2015)


*Artist: Phlegm
*Album: Consumed By The Dead [best of/compilation]
*Year: 2015
*Genre: Death Metal
*Country: United States
*Format: mp3@CBR320kbps
*Size: 221MB

Tracklist:
Disc 1:
01. Intro 00:59
02. Consumed By The Dead 03:23
03. Israel Will Burn Again 07:22
04. Grotesque Remains 01:37
05. Slabs Of Meat 02:48
06. Enter The Disintered 03:14
07. Mass Cremation 02:45
08. Successful Zombies 01:21
09. Life As A Corpse 02:00
10. RSFH II 02:03
11. I Gotta Take A Shit 00:42
12. Mangled Carcass 02:10
13. B'Nai Israel Cemetary 02:20
14. Napalm For Africa 00:57
15. Speedy Gonzalez Sucks 01:35
16. Clotheshanger Abortion 03:21
17. Sock 01:02
18. Torment Of Your Life 01:02
19. Festered Anus 02:06
20. Fat Chicks Suck 02:48
21. The Maggot Mosh 01:46
22. Satan's Rectum 01:09
23. RSFH 01:43
24. Scared To Death 00:45
25. Satan's Rectum 00:34
26. Bret The Fag 00:30
27. Speedy Sucks 00:33
28. Napalm For Africa 00:30
29. Festered Anus 01:04
30. Take A Shit 00:20
31. Torment Of Your Life 00:42
32. Sock 00:43
33. Fat Chicks Suck 00:23
34. Carcass Intro 02:41
35. Grotesque Remains 01:34
36. Consumed By The Dead 03:04
37. Mass Cremation 02:15
38. Successful Zombies 01:25
39. Life As A Corpse 01:29
40. Slabs Of Meat 02:12
41. Swaziclan 01:24
42. Masterpiece Of Mutilation 03:10
43. A.M.S. ( Unreleased track) 01:19
44. Sock ( Unreleased Mix ) 00:56
Disc 2:
01. RSFH II ( Live ) 01:52
02. Mass Cremation ( Live ) 02:55
03. Successful Zombies ( Live ) 01:42
04. Consumed By The Dead ( Live ) 03:43
05. Sock ( Live ) 01:35
06. Israel Will Burn Again ( Live ) 07:59
07. Life As A Corpse ( Live ) 02:19
08. Slabs Of Meat ( Live ) 03:21
09. Enter The Disintered ( Live ) 03:46
10. A.M.S. ( Live ) 01:50
11. Anal Cunt cover ( Live ) 00:33
12. Anal Cunt cover ( Live ) with Seth Putnam guest vocals 01:15
13. Grotesque Remains 02:00
******************************
Total playing time: 1:52:36

[more=Extended info]Disc 1:
Tracks 1-10: Consumed by the Dead demo '91
Tracks 11-23: Clothes Hanger Abortion demo '90
Tracks 24-33: Satan's Rectum demo '88
Tracks 34-42: Masterpiece of Mutilation demo '90
Track 43: Unreleased
Track 44: Unreleased Mix
Disc 2: Live 1991[/more]

[more=Technical info]
Input File: 1.02. Consumed by the Dead.mp3
Channels : 2
Sample Rate : 44100
Precision : 16-bit
Duration : 00:03:23.10 = 8956886 samples = 15232.8 CDDA sectors
File Size : 8.13M
Bit Rate : 320k
Sample Encoding: MPEG audio (layer I, II or III)
Comments :
Title=Consumed by the Dead
Artist=Phlegm
Album=Consumed by the Dead
Tracknumber=2
Year=2015
Genre=Death Metal
Discnumber=1

[/more]

Register
(10) mizantrophist, necromasochist, plakalshik, Rosen, spiritualdecay666, varlam4, vyacheslav, Wail, wgs73, wreak,
Nov 10 2016, 10:57:59 Malediction - Chronology Of Distortion [best of/compilation] (2016)


*Artist: Malediction
*Album: Chronology Of Distortion [best of/compilation]
*Year: 2016
*Genre: Death Metal/Grindcore
*Country: United Kingdom
*Format: mp3@CBR320kbps
*Size: 163MB

Tracklist:
1. Infestation 05:11
2. Murdered from Within 03:59
3. Waste (remix) 02:31
4. The Abyss Gazes Also 00:44
5. Longterm Result 04:09
6. System Fear 05:33
7. Insect in the Infrastructure 04:52
8. Dark Effluvium / Weeping Tears of Covetousness 07:22
9. Doctrines Eternal Circles 06:59
10. Framework of Contortion 04:15
11. Longterm Result 04:06
12. System Fear 05:33
13. Mould of an Industrial Horizon 02:17
14. Insect in the Infrastructure 04:57
15. Ruinous Opiate 06:35
16. Waste (Live Audience Recording) 02:29
******************************
Total playing time: 1:11:32

[more=Extended info]Standard forum password. Track notes:

1. Infestation (1990 demo version),
2. Murdered From Within (EP Version),
3. Waste (Remix) [Previously unreleased],
4. The Abyss Gazes Also [Previously Unreleased],
5. Longterm Result (1990) [Previously Unreleased],
6. System Fear (EP Version),
7. Insect in the Infrastructure (EP Version),
11. Longterm Result (“Pantalgia” compilation),
12. System Fear (1993 session) [Previously Unreleased},
13. Mould of an Industrial Horizon (1993 session) [Previously Unreleased],
14. Insect in the Infrastructure (1993 session) [Previously Unreleased]

Наконец-то эта загадочная группа выпустила свою компиляшку. Жаль конечно, в неё не вошёл их полулегендарный неизданный альбом The Millenium Cotillion, эх, найти бы его где-нибудь...[/more]

[more=Technical info]
Input File: 05. Longterm Result (Remix).mp3
Channels : 2
Sample Rate : 44100
Precision : 16-bit
Duration : 00:04:09.97 = 11023501 samples = 18747.5 CDDA sectors
File Size : 10.2M
Bit Rate : 326k
Sample Encoding: MPEG audio (layer I, II or III)
Comments :
Title=Longterm Result
Artist=Malediction
Album=Chronology of Distortion
Tracknumber=5
Year=2016
Genre=Death Metal

[/more]

Register
(12) andreikun, Evilded, Hell_Is_Here, Mist13Signifier, morbidangelo, Ostinato, Rosen, RUSP73, Storky, Tino, Typhoid, varlam4,
Feb 21 2016, 22:41:29 Hydr Hydr - When Johan Was In Norway [demo] (1990)


*Artist: Hydr Hydr
*Album: When Johan Was In Norway [demo]
*Year: 1990
*Genre: Death Metal
*Country: Norway
*Format: mp3@CBR320kbps
*Size: 28MB

Tracklist:
1. Intro 00:34
2. Obscure Illusions 03:32
3. Dark Mist 03:40
4. Dismembered Destiny 01:47
5. Hydr Hydr 02:55
******************************
Total playing time: 12:28

[more=Technical info]
Input File: 01. Intro.mp3
Channels : 2
Sample Rate : 44100
Precision : 16-bit
Duration : 00:00:34.83 = 1535871 samples = 2612.03 CDDA sectors
File Size : 1.52M
Bit Rate : 350k
Sample Encoding: MPEG audio (layer I, II or III)
Comments :
Title=Intro
Artist=Hydr Hydr
Album=When Johan Was in Norway
Tracknumber=1
Year=1990
Genre=Death Metal
Discnumber=1

[/more]

Register
(13) abob, Alfredoelruso, Boozer, enslaver, Evilded, MeathookSeed, morbidangelo, Rosen, spiritualdecay666, Storky, varlam4, wreak, Герб,
Jan 10 2016, 12:44:08 Синдром Дауна - Гнилокровие (1999)
Откопал у себя на старом винте, давно хотел переслушать. Так что перезаливаю - может кому интересно будет.
Register
(7) AIK445, Aresson, DMIYUR, Evilded, samokot, varlam4, Герб,
Jul 11 2015, 15:57:43 Nuclear Death - Harmony Drinks Of Me (2000)


*Artist: Nuclear Death
*Album: Harmony Drinks Of Me
*Year: 2000
*Genre: Experimental Rock
*Country: United States
*Format: mp3@CBR192kbps
*Size: 63MB

Tracklist:
1. Electric Spaceboy 04:37
2. Eyes Closed (The Sin) 08:04
3. Sunless 05:49
4. The Baths 06:16
5. Strident 03:43
6. Shoot 01:53
7. Haunted Man-Nimbus 06:26
8. Untitled 09:49
******************************
Total playing time: 46:37

[more=Extended info]Неформатный альбом от форматной группы, и в её рамках - последний эксперимент от Лори. Здесь мы можем ощутить красоту её чистого голоса и гремучую смесь фолк-рока и индастриала.[/more]

Register
(5) dermarsoran, marilin, paganheart, recber, Sangre,
Jan 13 2015, 20:43:27 Svarte - The Lands Of Forlorn [demo] (2002)
Register
(2) pfk505, varlam4,
Oct 15 2014, 14:26:54 Nuclear Death
Harmony Drinks of Me - всё что нашёл, 128k, но это эпично
Register
(3) HellMetalloid, SyncestrA, Terrorizer,
Oct 12 2014, 20:24:47 Cannibal Corpse - A Skeletal Domain (2014)
ЦИТАТА(vosmidesijatye @ Oct 12 2014, 22:45:35) *
Ху из Энтео?

http://traditio-ru.org/wiki/Дмитрий_Сергеевич_Цорионов
Данные устарели немного правда.
(1) vosmidesijatye,
Oct 12 2014, 12:19:38 Nuclear Death - The Planet Cachexial (1999)
ЦИТАТА(SIG @ Oct 12 2014, 02:33:50) *
А чего так долго?

В сутках всего 24 часа, а их всего 7 в неделю... smile2.gif
Aug 15 2014, 10:33:36 Mordor & Gora & Vorsaken & Art'Sneider & Odessa & Cult Of Noise - The Way Of Nihilism [split] (1993)


*Artist: Mordor & Gora & Vorsaken & Art'Sneider & Odessa & Cult Of Noise
*Album: The Way Of Nihilism [split]
*Year: 1993
*Genre: Black/Funeral Doom Metal | Black/Doom Metal/Grindcore | Funeral Doom Metal | Noise | Industrial/Noise | Noise
*Country: Switzerland | Switzerland | Unknown | Unknown | Unknown | Switzerland
*Format: mp3@CBR256kbps
*Size: 161MB

Tracklist:
Mordor:
1. In Search Of The Pure Negation 10:27
Gora:
2. The Awakening Of Chaos
3. Crematorium
4. Discordant
5. Dissection
6. Razor Blade (In Two Moments)
7. Pure Hate
8. Bestial Orgy (The Second Reign)
9. Dissolution
10. Fourth Reich
11. Final Destruction
Vorsaken:
12. No Life
13. No Joy
14. No Hope
Art'Sneider:
15. Analyptique 1 15:05
Odessa:
16. Dream Of A Cenobite
Cult Of Noise:
17. Trascendance 22:17
******************************
Total playing time: 1:29:34

[more=Extended info]Gora is a pre-Mordor band.
Пароль стандартный / standard forum's password[/more]

Register
(25) Anhra Mainyu, Boozer, cancer1974, dermarsoran, Emhyr var Emreis, Hell_Is_Here, jorgeguldur, Lanceatum, marilin, Mist13Signifier, morbidangelo, Necrodictator, randumbum, Rosen, RUSP73, sacrut, Sickrites, the_cleanser, VALERY, varlam4, vasiljev_sergej, Vlosinssrigg, wreak, Герб, Спектр,
Aug 2 2014, 00:32:58 Enochian - Satanic Ceremony [demo] (1995)
ЦИТАТА(Kazoth @ Jul 20 2014, 22:31:54) *
мля! тоже такую прическу хочу, как у второго справа!

это как бы выглядел Юра Хой, если бы начал играть блэк crazy.gif
(1) LordHaart,
Jul 20 2014, 12:33:04 Splatterreah - Live At The Axiom [ep] (1990)


*Artist: Splatterreah
*Album: Live At The Axiom [ep]
*Year: 1990
*Genre: Death Metal/Grindcore
*Country: United States
*Format: mp3@CBR192kbps
*Size: 15MB

Tracklist:
1. March of Crimes (Intro) / Secreting Cysts 03:36
2. Spewing Vomit 01:34
3. Flesh Fry 01:10
4. Festering Fetus 01:42
5. Human Hater 01:29
6. Vomit Omelet 00:41
******************************
Total playing time: 10:12

[more=Extended info]пароль стандартный / forum's standard password[/more]

Register
(10) abob, Alfredoelruso, Evilded, morbidangelo, Proteus_666, Rosen, varlam4, vyacheslav, wreak, Герб,
Mar 25 2014, 09:36:37 Impostor - Rehearsal Of Chaos [demo] (1987)


*Artist: Impostor
*Album: Rehearsal Of Chaos [demo]
*Year: 1987
*Genre: Black/Thrash Metal
*Country: Norway
*Format: mp3@VBR316kbps
*Size: 41MB

Tracklist:
1. Beyond the Dead 04:26
2. Fucking Scout 04:22
3. Vomit Lust 03:06
4. We Hate You 03:03
5. Drummer Mosh 02:52
6. Fucking Around 01:03
******************************
Total playing time: 18:52

[more=Extended info]Вот и ещё одна демка Impostor'а, спустя почти 7 лет после первой :)
Качество хреновое - что-то вроде их же Death Fuck...[/more]

[more=Technical info]
Input File: 02. Fucking Scout.mp3
Channels : 2
Sample Rate : 44100
Precision : 16-bit
Duration : 00:04:22.37 = 11570649 samples = 19678 CDDA sectors
File Size : 10.5M
Bit Rate : 319k
Sample Encoding: MPEG audio (layer I, II or III)
Comments :
Title=Fucking Scout
Artist=Impostor
Album=Rehearsal of Chaos
Tracknumber=2
Year=1987

[/more]

Register
(14) Alfredoelruso, aorta3, cancer1974, caro, Evilded, fuoco, Hell_Is_Here, metala, morbidangelo, potap03020100, Proteus_666, Rosen, wreak, Xutun,
Feb 15 2014, 09:50:46 Mystification - The Choir Of Death [demo] (1993)


*Artist: Mystification
*Album: The Choir Of Death [demo]
*Year: 1993
*Genre: Black/Death Metal
*Country: Finland
*Format: mp3@CBR256kbps
*Size: 19MB

Tracklist:
01. Gold Mines of God 3:08
02. Real Me 2:03
03. Man of Blindness 2:44
04. The Choir of Death 2:29
******************************
Total playing time: 10:24

Register
(18) Alfredoelruso, Bekkerev, caro, Darkthronefoad, Evilded, goregrindexx, Hell_Is_Here, maxapero, Oath19, Proteus_666, Pure_Stench_Kvlt, Rosen, RUSP73, thenecromancer, VALERY, varlam4, wreak, Xexanoth82,
Feb 15 2014, 09:45:00 Nomicon - De Rerum Natura [single] (1992)


*Artist: Nomicon
*Album: De Rerum Natura [single]
*Year: 1992
*Genre: Death/Thrash Metal
*Country: Finland
*Format: mp3@CBR192kbps
*Size: 9MB

Tracklist:
01. Pursuit 3:02
02. ...Of The Tightedness 3:15
******************************
Total playing time: 6:17

Register
(14) caro, ddarkthrone, Evilded, Hell_Is_Here, potap03020100, Proteus_666, Reverend, Rosen, SyncestrA, thenecromancer, varlam4, Waste_burst, wreak, Xutun,
Jan 2 2014, 13:37:36 Disgorge - Morbid Collapse [demo] (1991)
Есть.
Register
(2) Proteus_666, RotAnus,
Oct 17 2013, 21:53:33 Graveyard - Slabfest [demo] (1992)
Больше 5,5 лет ждал =) Заценю наконец. И серийные убийцы с Адиком на обложке =)
(1) drbutcher,
Apr 29 2013, 16:34:27 Dominion - Midnight Waltz [demo] (2003)


*Artist: Dominion
*Album: Midnight Waltz [demo]
*Year: 2003
*Genre: Black Metal
*Country: Sweden
*Format: mp3@VBR202kbps
*Size: 31MB

Tracklist:
1. Whispers From The Forest 02:48
2. A Silent Farewell 05:50
3. Glimpse Of A Dream 01:44
4. Amongst The Shadows 04:06
5. In Mourning Memory 00:30
6. A Midnight Waltz 06:56
******************************
Total playing time: 21:54

Register
(22) 0x13, andivi, craP_cillA, Darkthronefoad, DOKTORBLACK88, Ildjarn, Koscheyushka, Lena, lestllk, marilin, QoroXx, Sjelekval, Skald_of_Death, sperminator, spiritualdecay666, stub888, tont, tormoz, Unleashed, vasiljev_sergej, wreak, Абигор,
Jan 24 2013, 17:08:02 Summoning
Собственно, интересует меня этот вопрос. Могу быть уверен относительно последних двух альбомов, где известно из открытых источников, ну и ещё несколько песен из разных альбомов. Вот треклисты последних двух с указанием, кто вокалист:

Let Mortal Heroes Sing Your Fame (2001)
1. A New Power Is Rising
2. South Away - Silenius
3. In Hollow Halls Beneath the Fells - Protector
4. Our Foes Shall Fall - Protector
5. The Mountain King's Return - Silenius
6. Runes of Power -Protector
7. Ashen Cold - Protector
8. Farewell - Silenius (чистый вокал Protector & Silenius)

Oath Bound (2006)
1. Bauglir
2. Across the Streaming Tide - Protector
3. Mirdautas Vras - Silenius
4. Might and Glory - Protector
5. Beleriand - Silenius
6. Northward - Silenius
7. Menegroth - Silenius
8. Land of the Dead - Protector

Читал, что единственная песня, где оба задействованы как вокалисты - Over Old Hills. Как выяснилось, последняя композиция с Let Mortal Heroes Sing Your Fame тоже.
Кто различает их голоса на слух, выложите, пожалуйста, треклисты альбомов с поснениями.
(1) Forest Silence,
Dec 18 2012, 21:39:18 Summoning - The Demon Tapes ... Anno Mortui Domini 1959-1961 [bootleg] (2012)
Это охрененно. Почаще бы переиздавались ранние работы многих аффтаров, пусть даже шаловливыми ручками бутлеггеров.
Nov 11 2012, 10:44:31 Swedish Old School Death Metal
ЦИТАТА(Alex5 @ Aug 31 2012, 23:26:56) *
Наверняка есть еще команды, но я как-то не заострял на этом внимания...
Дело в том, что петь на родном языке - это значит резко сократить аудиторию слушателей. И хотя на шведском языке говорят более 9 млн. человек, видимо команды изначально настраиваются на мировой масштаб распространения своего творчества и поют на английском, дабы быть понятыми фанатами из других стран.
Но, в общем-то, такая ситуация не только в Швеции, но и в любой другой стране. Английский язык - самый распространенный и признан международным, и от этого никуда не деться.

Хоть это и олдскул, но новые группы...
Вообще сомневаюсь что язык лирики влияет на популярность именно дэт-метала, ибо тамошние слова не всякий говорящий на английском с рождения разберёт, чего уж говорить о большинстве слушателей, для которых инглиш не родной язык.
(1) Alex5,
Nov 10 2012, 23:11:16 Balvaz - Kællus Tapus [demo] (1989)


*Artist: Balvaz
*Album: Kællus Tapus [demo]
*Year: 1989
*Genre: Death Metal
*Country: Norway
*Format: mp3@CBR192kbps
*Size: 15MB

Tracklist:
1. Illusions 04:10
2. Hate 02:54
3. Inside You 03:52
******************************
Total playing time: 10:56

Register
(14) Alex5, andreikun, cuimit1349, Darkthronefoad, ddarkthrone, fishish, Hell_Is_Here, idrisnewacc, infiltrator, MeathookSeed, MEmethuselah, Skald_of_Death, varlam4, wreak,
Nov 10 2012, 22:56:48 Balvaz - Phlegm [demo] (1990)


*Artist: Balvaz
*Album: Phlegm [demo]
*Year: 1990
*Genre: Death Metal
*Country: Norway
*Format: mp3@CBR192kbps
*Size: 27MB

Tracklist:
1. Phlegmous 04:19
2. Fusion 03:16
3. Blemish 03:04
4. Freak 03:37
5. Contrafibularities 07:29
******************************
Total playing time: 21:45

Register
(12) Alex5, andreikun, Darkthronefoad, fishish, FrenzyMad, hellfarmer, infiltrator, MeathookSeed, potap03020100, Skald_of_Death, varlam4, wreak,
Oct 13 2012, 10:29:44 Utgard - Thrones And Dominions (2008)
Ну готово например.
(3) Blasphemer89, Blаckheart, Constantinus I,
Aug 31 2012, 19:20:54 Swedish Old School Death Metal
Назовите хоть одну группу шведского олдскул-дэта где поют на шведском. 15.gif
(1) Alex5,

19 Pages V   1 2 3 > » 
- Lo-Fi Version Support form
Copyrights and abuse reports form
Time is now: 20th September 2019 - 10:54:38