Welcome Guest ( Log In | Register )

История благодарностей участнику металлист ::: Спасибо сказали: 22253 раз(а)
Дата поста: В теме: За сообщение: Спасибо сказали:
Jul 18 2020, 18:47:37 Bodydrinkers - Bodydrinkers (2020)


*Artist: Bodydrinkers
*Album: Bodydrinkers
*Year: 2020
*Genre: Death/Black Metal
*Country: Ireland
*Format: mp3@CBR320kbps
*Size: 57MB

Tracklist:
01. Death Face Grin 01:59
02. Cocooning Nations 03:44
03. The Worms Of Mind Control 03:11
04. Pale Eyes In The Oysterman Marsh 03:56
05. An Muc 02:54
06. Primordial Psychotic Autopilot 03:45
07. Costa Del Disfiguration 04:41
******************************
Total playing time: 24:10




[more=Technical info]
Input File: 01 Death Face Grin.mp3
Channels : 2
Sample Rate : 44100
Precision : 16-bit
Duration : 00:01:57.45 = 5179677 samples = 8808.97 CDDA sectors
File Size : 4.77M
Bit Rate : 325k
Sample Encoding: MPEG audio (layer I, II or III)
Comments :
Title=Death Face Grin
Artist=Bodydrinkers
Album=Bodydrinkers
Tracknumber=1
Year=2020
Genre=Death/Black Metal

[/more]

Register
(14) atavist, grimoir, infiltrator, killingod, Lukittaz, Olethros, randumbum, Rosen, Shadechaser, SilentNidhogg, stub888, VALERY, vasiljev_sergej, Wail,
Jul 18 2020, 18:43:58 Disrotter - Plague [demo] (2020)


*Artist: Disrotter
*Album: Plague [demo]
*Year: 2020
*Genre: Death Metal/Grindcore
*Country: United States
*Format: mp3@CBR320kbps
*Size: 18MB

Tracklist:
01. Walking Plague 01:54
02. Turmoil Fixation 01:25
03. Unsoundness Of Mind 02:30
04. Storm Of Stress (Terrorizer Cover) 01:29
******************************
Total playing time: 7:18



[more=Technical info]
Input File: 01 Walking Plague.mp3
Channels : 2
Sample Rate : 44100
Precision : 16-bit
Duration : 00:01:54.63 = 5055227 samples = 8597.32 CDDA sectors
File Size : 4.74M
Bit Rate : 331k
Sample Encoding: MPEG audio (layer I, II or III)
Comments :
Title=Walking Plague
Artist=Disrotter
Album=Plague (Demo)
Tracknumber=1
Year=2020
Genre=Death Metal/Grindcore

[/more]

Register
(8) chipsgott, grimoir, infiltrator, killingod, Olethros, Rosen, sludge666, Wail,
Jul 18 2020, 18:40:25 Hornet Murmuration - Affirmation Of Antipathy [demo] (2020)


*Artist: Hornet Murmuration
*Album: Affirmation Of Antipathy [demo]
*Year: 2020
*Genre: Black Metal/Punk
*Country: United States
*Format: mp3@CBR320kbps
*Size: 36MB

Tracklist:
01. Fever Seize 02:18
02. Descent Into Megalomania 02:29
03. Trial 01:28
04. Conceived In Midnight 03:28
05. Zugzwang 02:00
******************************
Total playing time: 11:43



[more=Technical info]
Input File: 01 Fever Seize.mp3
Channels : 2
Sample Rate : 44100
Precision : 16-bit
Duration : 00:02:18.22 = 6095546 samples = 10366.6 CDDA sectors
File Size : 5.62M
Bit Rate : 326k
Sample Encoding: MPEG audio (layer I, II or III)
Comments :
Title=Fever Seize
Artist=Hornet Murmuration
Album=Affirmation Of Antipathy (Demo)
Tracknumber=1
Year=2020
Genre=Black Metal/Punk

[/more]

Register
(12) 1968_janeart, grimoir, HviteGuden, infiltrator, kim666, Olethros, Orkkh, randumbum, Rosen, stub888, vasiljev_sergej, Wail,
Jul 18 2020, 18:36:20 Kaoskraft - Cult Of Plagues [ep] (2020)


*Artist: Kaoskraft
*Album: Cult Of Plagues [ep]
*Year: 2020
*Genre: Black Metal
*Country: Spain
*Format: mp3@CBR320kbps
*Size: 41MB

Tracklist:
01. Intro 00:21
02. Shadows Of Tomorrow 04:45
03. Pentagram Worship Hellfire 04:42
04. Krieg 05:00
05. Night's Void 03:39
******************************
Total playing time: 18:27



[more=Technical info]
Input File: 02 Shadows of Tomorrow.mp3
Channels : 2
Sample Rate : 44100
Precision : 16-bit
Duration : 00:04:45.66 = 12597782 samples = 21424.8 CDDA sectors
File Size : 11.5M
Bit Rate : 321k
Sample Encoding: MPEG audio (layer I, II or III)
Comments :
Title=Shadows of Tomorrow
Artist=Kaoskraft
Album=Cult Of Plagues (EP)
Tracknumber=2
Year=2020
Genre=Black Metal

[/more]

Register
(14) 1968_janeart, infiltrator, kim666, Lukittaz, Mares, Olethros, randumbum, robertho777, Rosen, SilentNidhogg, stub888, VALERY, vasiljev_sergej, Wail,
Jul 18 2020, 18:32:48 Kurcum - Stereotipična Govna II (2020)


*Artist: Kurcum
*Album: Stereotipična Govna II
*Year: 2020
*Genre: Black/Thrash Metal
*Country: Serbia
*Format: mp3@CBR320kbps
*Size: 46MB

Tracklist:
01. Feministkinje 01:26
02. Pička Vam Materina Komunjarska 02:25
03. Liberali 01:38
04. Antifa Govnarija 01:40
05. Kolona Vilus 01:05
06. Imigrant 01:05
07. Karadjiću Vodi Srbe Svoje (Remove Kebab) 03:38
08. Serenada Breskvica 02:08
09. Tika I Djošina Pesma 03:58
******************************
Total playing time: 19:03




[more=Technical info]
Input File: 01 Feministkinje.mp3
Channels : 2
Sample Rate : 44100
Precision : 16-bit
Duration : 00:01:26.18 = 3800626 samples = 6463.65 CDDA sectors
File Size : 3.56M
Bit Rate : 331k
Sample Encoding: MPEG audio (layer I, II or III)
Comments :
Title=Feministkinje
Artist=Kurcum
Album=Stereotipicna Govna II
Tracknumber=1
Year=2020
Genre=Black/Thrash Metal

[/more]

Register
(15) Asketto, atavist, fuoco, infiltrator, Lukittaz, Olethros, randumbum, Rosen, SadistikSlayer, scorpionmk, sergsazan, SilentNidhogg, stumpheavyrock, vasiljev_sergej, wgs73,
Jul 18 2020, 18:28:26 Cyhiraeth & Wulfgraf - L'hiver Noire [split] (2020)


*Artist: Cyhiraeth & Wulfgraf
*Album: L'hiver Noire [split]
*Year: 2020
*Genre: Raw Black Metal | Black Metal
*Country: United States | United States
*Format: mp3@CBR320kbps
*Size: 35MB

Tracklist:
Cyhiraeth:
01. Eye Of Zaxzull 05:22
02. Drakul Yek 06:38

Wulfgraf:
03. Sleepless Spirits Unbound 03:18
******************************
Total playing time: 15:18




[more=Technical info]
Input File: 03 Wulfgraf - Sleepless Spirits Unbound.mp3
Channels : 2
Sample Rate : 44100
Precision : 16-bit
Duration : 00:03:18.10 = 8736078 samples = 14857.3 CDDA sectors
File Size : 8.09M
Bit Rate : 327k
Sample Encoding: MPEG audio (layer I, II or III)
Comments :
Title=Wulfgraf - Sleepless Spirits Unbound
Artist=Wulfgraf
Album=L'hiver Noire (Split)
Tracknumber=3
Year=2020
Genre=Black Metal

[/more]

Register
(12) 1968_janeart, infiltrator, kim666, Lukittaz, nemx, randumbum, Rosen, SilentNidhogg, stub888, VALERY, vasiljev_sergej, Wail,
Jul 18 2020, 18:19:57 Andurá - Dark Myths From Brazilian Forests [ep] (2020)


*Artist: Andurá
*Album: Dark Myths From Brazilian Forests [ep]
*Year: 2020
*Genre: Black Metal
*Country: Brazil
*Format: mp3@CBR320kbps
*Size: 30MB

Tracklist:
01. The Serpent And The Fire 06:45
02. Blood On The Forest Altar 06:05
******************************
Total playing time: 12:50





[more=Technical info]
Input File: 01 The Serpent and the Fire.mp3
Channels : 2
Sample Rate : 44100
Precision : 16-bit
Duration : 00:06:45.76 = 17893840 samples = 30431.7 CDDA sectors
File Size : 16.3M
Bit Rate : 322k
Sample Encoding: MPEG audio (layer I, II or III)
Comments :
Title=The Serpent and the Fire
Artist=Andurá
Album=Dark Myths From Brazilian Forests (EP)
Tracknumber=1
Year=2020
Genre=Black Metal

[/more]

Register
(10) 1968_janeart, infiltrator, Lukittaz, Olethros, randumbum, Rosen, SilentNidhogg, VALERY, vasiljev_sergej, Wail,
Jul 18 2020, 18:15:30 OmegaThrone - In Loving Memory Of Humankind (2020)


*Artist: OmegaThrone
*Album: In Loving Memory Of Humankind
*Year: 2020
*Genre: Blackened Death Metal
*Country: United Kingdom
*Format: mp3@CBR320kbps
*Size: 90MB

Tracklist:
01. Beginning Of The Fall Of Thy Kingdom 04:35
02. Casus Belli 03:33
03. Get Out Of the Dark To Take Your Light 04:42
04. Today We Are Going To Draw Death 04:24
05. Victim Complex 05:48
06. Greed Vs Greed 03:08
07. Token Of Perpetual Affliction 03:42
08. Damn You Abraham 04:18
09. Children Of Hitler 04:44
******************************
Total playing time: 38:54





[more=Technical info]
Input File: 01 Beginning Of The Fall Of Thy Kingdom.mp3
Channels : 2
Sample Rate : 44100
Precision : 16-bit
Duration : 00:04:35.95 = 12169219 samples = 20696 CDDA sectors
File Size : 11.1M
Bit Rate : 322k
Sample Encoding: MPEG audio (layer I, II or III)
Comments :
Title=Beginning Of The Fall Of Thy Kingdom
Artist=OmegaThrone
Album=In Loving Memory of Humankind
Tracknumber=1
Year=2020
Genre=Blackened Death Metal

[/more]

Register
(14) alikkon, atavist, infiltrator, killingod, Lukittaz, Mares, metala, multizwilling, Olethros, randumbum, Rosen, Shadechaser, SilentNidhogg, VALERY,
Jul 18 2020, 18:10:38 Throrne - 71 Paths To The Star (2020)


*Artist: Throrne
*Album: 71 Paths To The Star
*Year: 2020
*Genre: Black Metal
*Country: United Kingdom
*Format: mp3@CBR320kbps
*Size: 73MB

Tracklist:
01. Amalantrah 05:41
02. Locust Father 05:32
03. Antichthon I 07:46
04. Nocturnal Return Of The Seven Headed Snake God 00:53
05. Like Flies... 04:21
06. Antichthon II 06:53
******************************
Total playing time: 31:06



[more=Technical info]
Input File: 01 AMALANTRAH.mp3
Channels : 2
Sample Rate : 44100
Precision : 16-bit
Duration : 00:05:41.60 = 15064384 samples = 25619.7 CDDA sectors
File Size : 13.8M
Bit Rate : 323k
Sample Encoding: MPEG audio (layer I, II or III)
Comments :
Title=AMALANTRAH
Artist=Throrne
Album=71 Paths To The Star
Tracknumber=1
Year=2020
Genre=Black Metal

[/more]

Register
(18) 1968_janeart, AlexSmith, atavist, Bzth, grimoir, infiltrator, kim666, Lukittaz, Mares, multizwilling, Olethros, randumbum, robertho777, Rosen, SilentNidhogg, stub888, VALERY, vasiljev_sergej,
Jul 18 2020, 18:05:49 Pestilectomy - Ceremonial Abhorrence [ep] (2020)


*Artist: Pestilectomy
*Album: Ceremonial Abhorrence [ep]
*Year: 2020
*Genre: Brutal Death Metal
*Country: International
*Format: mp3@CBR320kbps
*Size: 40MB

Tracklist:
01. Mountainous Piles Of Putridity 04:13
02. Ceremonial Abhorrence 03:16
03. Fixating the Vermin-Infested Crumbling Remains Of The Exhumed Harlot 03:26
04. Cocaine Cashectomy 03:50
******************************
Total playing time: 14:45




[more=Extended info]Location: United States / Germany[/more]

[more=Technical info]
Input File: 01 Mountainous Piles of Putridity.mp3
Channels : 2
Sample Rate : 44100
Precision : 16-bit
Duration : 00:04:13.09 = 11161181 samples = 18981.6 CDDA sectors
File Size : 10.5M
Bit Rate : 331k
Sample Encoding: MPEG audio (layer I, II or III)
Comments :
Title=Mountainous Piles of Putridity
Artist=Pestilectomy
Album=Ceremonial Abhorrence
Tracknumber=1
Year=2020
Genre=Brutal Death Metal

[/more]

Register
(10) grimoir, Hell_Is_Here, infiltrator, killingod, Lukittaz, maochen, older68, Olethros, randumbum, sludge666,
Jul 5 2020, 17:12:37 Infernal Carnage - Malkuth Ov Death [demo] (2020)


*Artist: Infernal Carnage
*Album: Malkuth Ov Death [demo]
*Year: 2020
*Genre: Black Metal
*Country: Turkey
*Format: mp3@CBR320kbps
*Size: 37MB

Tracklist:
01. Feathered Serpent 04:24
02. Malkuth Ov Death 05:39
03. Perpetual Carnage And Fire 05:27
******************************
Total playing time: 15:30




[more=Technical info]
Input File: 01 Feathered Serpent.mp3
Channels : 2
Sample Rate : 44100
Precision : 16-bit
Duration : 00:04:24.58 = 11668066 samples = 19843.6 CDDA sectors
File Size : 10.8M
Bit Rate : 326k
Sample Encoding: MPEG audio (layer I, II or III)
Comments :
Title=Feathered Serpent
Artist=Infernal Carnage
Album=Malkuth Ov Death (Demo)
Tracknumber=1
Year=2020
Genre=Black Metal

[/more]

Register
(13) 1968_janeart, Gylve, Ildjarn, infiltrator, kim666, Olethros, randumbum, robertho777, Rosen, SilentNidhogg, VALERY, vasiljev_sergej, Wail,
Jul 5 2020, 17:03:45 Eradication - I. Neutralization Of Being (2020)


*Artist: Eradication
*Album: I. Neutralization Of Being
*Year: 2020
*Genre: Black Metal
*Country: Poland
*Format: mp3@CBR320kbps
*Size: 79MB

Tracklist:
01. Eradication 06:29
02. Neutralization Of Being 06:06
03. Stillness 07:25
04. Mirror 06:22
05. Misanthropy 07:29
******************************
Total playing time: 33:51



[more=Technical info]
Input File: 01 Eradication.mp3
Channels : 2
Sample Rate : 44100
Precision : 16-bit
Duration : 00:06:29.79 = 17189915 samples = 29234.5 CDDA sectors
File Size : 15.7M
Bit Rate : 322k
Sample Encoding: MPEG audio (layer I, II or III)
Comments :
Title=Eradication
Artist=Eradication
Album=I. Neutralization Of Being
Tracknumber=1
Year=2020
Genre=Black Metal

[/more]

Register
(20) 1968_janeart, alexxxandrougs, atavist, grimoir, infiltrator, kim666, Lukittaz, Mares, multizwilling, nemx, Olethros, randumbum, robertho777, Rosen, Sanctus, SilentNidhogg, supremo, Tyrone, VALERY, vasiljev_sergej,
Jul 5 2020, 16:57:02 Inveterate Extinction - Greed Machine [ep] (2020)


*Artist: Inveterate Extinction
*Album: Greed Machine [ep]
*Year: 2020
*Genre: Death Metal/Goregrind/Cybergrind
*Country: United States
*Format: mp3@CBR320kbps
*Size: 17MB

Tracklist:
01. Progression Through The Evolution Of Murder 01:41
02. Nuclear Cremation 01:32
03. Eradicated By Design 01:20
04. Those Made Of Metal Never Bleed 01:01
05. Paleolithic Pariah 00:44
******************************
Total playing time: 6:18



[more=Technical info]
Input File: 01 Progression Through The Evolution Of Murder.mp3
Channels : 2
Sample Rate : 44100
Precision : 16-bit
Duration : 00:01:42.01 = 4498773 samples = 7650.97 CDDA sectors
File Size : 4.23M
Bit Rate : 331k
Sample Encoding: MPEG audio (layer I, II or III)
Comments :
Title=Progression Through The Evolution Of Murder
Artist=Inveterate Extinction
Album=Greed Machine (EP)
Tracknumber=1
Year=2020
Genre=Death Metal/Goregrind/Cybergrind

[/more]

Register
(8) chipsgott, grimoir, infiltrator, killingod, Konungr, Lukittaz, Olethros, Rosen,
Jul 3 2020, 16:59:21 Atrocious Command - Atrocious Command [demo] (2020)


*Artist: Atrocious Command
*Album: Atrocious Command [demo]
*Year: 2020
*Genre: Black/Death Metal
*Country: Belgium
*Format: mp3@CBR320kbps
*Size: 18MB

Tracklist:
01. Extermination Crusade / Basilica Of The Holy Blood 02:54
02. Messalina 01:38
03. Death Command 02:31
******************************
Total playing time: 7:03



[more=Technical info]
Input File: 01 Extermination Crusade- Basilica of the Holy Blood.mp3
Channels : 2
Sample Rate : 44100
Precision : 16-bit
Duration : 00:02:54.90 = 7713046 samples = 13117.4 CDDA sectors
File Size : 7.12M
Bit Rate : 326k
Sample Encoding: MPEG audio (layer I, II or III)
Comments :
Title=Extermination Crusade/ Basilica of the Holy Blood
Artist=Atrocious Command
Album=Atrocious Command (Demo)
Tracknumber=1
Year=2020
Genre=Black/Death Metal

[/more]

Register
(12) grimoir, Hell_Is_Here, infiltrator, killingod, multizwilling, Olethros, randumbum, Rosen, SilentNidhogg, terron, vasiljev_sergej, Wail,
Jul 3 2020, 16:56:29 Subjugate - Fyrdman [demo] (2020)


*Artist: Subjugate
*Album: Fyrdman [demo]
*Year: 2020
*Genre: Raw Black Metal
*Country: Canada
*Format: mp3@CBR320kbps
*Size: 60MB

Tracklist:
01. Winter of Attrition 02:42
02. Encaustic Plague 01:51
03. Halls Of Ballistae 02:00
04. Tormentis Electi 02:22
05. Dynastic Kinslayer 01:52
06. Shield Of The Tundra 01:55
07. Sisebut 01:25
08. Fyrdman 02:18
09. Casus Belli 02:21
10. Fehdebrief 02:02
11. Edict Of Expulsion 01:41
12. Dacian Falx 02:21
******************************
Total playing time: 24:50




[more=Technical info]
Input File: 01 Winter of Attrition.mp3
Channels : 2
Sample Rate : 44100
Precision : 16-bit
Duration : 00:02:41.39 = 7117431 samples = 12104.5 CDDA sectors
File Size : 6.57M
Bit Rate : 326k
Sample Encoding: MPEG audio (layer I, II or III)
Comments :
Title=Winter of Attrition
Artist=Subjugate
Album=Fyrdman (Demo)
Tracknumber=1
Year=2020
Genre=Raw Black Metal

[/more]

Register
(11) 1968_janeart, grimoir, infiltrator, kim666, Olethros, randumbum, Rosen, SilentNidhogg, stub888, vasiljev_sergej, Wail,
Jul 3 2020, 16:52:19 Čiča Goreio - Goreski Vijenac (2020)


*Artist: Čiča Goreio
*Album: Goreski Vijenac
*Year: 2020
*Genre: Grindcore
*Country: Serbia
*Format: mp3@CBR320kbps
*Size: 50MB

Tracklist:
01. Kosti Tvoje 01:45
02. Šta Sam Jeo 01:27
03. Svinjkolj 01:00
04. Tu Noć Kad Si Se Udavila 00:29
05. Zašto Si Pišao Na Trafostanicu Kada Je Dalekovod Bio Slobodan 00:03
06. Teratom 00:31
07. Kičmena Smoždina 00:53
08. Blagoslovi Moje Grehe 01:12
09. Kiša Pada, Strava Raste 00:52
10. Gore Gore Gore Gore 00:13
11. Kafanska Tuča 01:19
12. Tvoj Kraj 01:17
13. Carski Rez Sultana Murata 01:13
14. Trulim Od Želje Da Ponovo Živim 00:59
15. Zemljom Hodaš I Ona Će Tobom 02:00
16. Strndž 00:40
17. Krv Pije Zmajeviću Vlado 01:00
18. Mama Voli Bebu 03:44
******************************
Total playing time: 20:37




[more=Technical info]
Input File: 01 Kosti Tvoje.mp3
Channels : 2
Sample Rate : 44100
Precision : 16-bit
Duration : 00:01:46.01 = 4675041 samples = 7950.75 CDDA sectors
File Size : 4.43M
Bit Rate : 334k
Sample Encoding: MPEG audio (layer I, II or III)
Comments :
Title=Kosti Tvoje
Artist=Čiča Goreio
Album=Goreski Vijenac
Tracknumber=1
Year=2020
Genre=Grindcore

[/more]

Register
(7) atavist, infiltrator, Lukittaz, Olethros, randumbum, Rosen, wgs73,
Jul 3 2020, 16:43:29 Blastocystia - Murder Circus [ep] (2020)


*Artist: Blastocystia
*Album: Murder Circus [ep]
*Year: 2020
*Genre: Brutal Death Metal/Goregrind
*Country: Germany
*Format: mp3@CBR320kbps
*Size: 39MB

Tracklist:
01. Bonesaw 03:20
02. Face Renewal 02:50
03. Murder Circus 02:48
04. Bloodsucker 03:01
05. Her Disposal 04:28
******************************
Total playing time: 16:27





[more=Technical info]
Input File: 01 Bonesaw.mp3
Channels : 2
Sample Rate : 44100
Precision : 16-bit
Duration : 00:03:20.55 = 8844387 samples = 15041.5 CDDA sectors
File Size : 8.20M
Bit Rate : 327k
Sample Encoding: MPEG audio (layer I, II or III)
Comments :
Title=Bonesaw
Artist=Blastocystia
Album=Murder Circus (EP)
Tracknumber=1
Year=2020
Genre=Brutal Death Metal/Goregrind

[/more]

Register
(6) infiltrator, killingod, Lukittaz, Olethros, randumbum, Rosen,
Jul 3 2020, 16:40:01 Axxmaxxius Devastruktor - Landscapes Of Putrid Ash [demo] (2020)


*Artist: Axxmaxxius Devastruktor
*Album: Landscapes Of Putrid Ash [demo]
*Year: 2020
*Genre: Black/Death Metal
*Country: Australia
*Format: mp3@CBR320kbps
*Size: 38MB

Tracklist:
01. Silent Depths Of Time 03:07
02. Wings Of Wormwood 03:55
03. Regaling The Chambers Of Death 05:17
04. The End And The Portal 03:06
******************************
Total playing time: 15:25



[more=Technical info]
Input File: 01 Silent Depths of Time.mp3
Channels : 2
Sample Rate : 44100
Precision : 16-bit
Duration : 00:03:07.28 = 8259136 samples = 14046.1 CDDA sectors
File Size : 7.58M
Bit Rate : 324k
Sample Encoding: MPEG audio (layer I, II or III)
Comments :
Title=Silent Depths of Time
Artist=Axxmaxxius Devastruktor
Album=Landscapes Of Putrid Ash (Demo)
Tracknumber=1
Year=2020
Genre=Black/Death Metal

[/more]

Register
(12) Hell_Is_Here, infiltrator, killingod, multizwilling, Olethros, randumbum, Rosen, SilentNidhogg, VALERY, vasiljev_sergej, Wail, Wolftribes,
Jul 3 2020, 16:36:06 Sutura Apparatus - Крой (2020)


*Artist: Sutura Apparatus
*Album: Крой
*Year: 2020
*Genre: Black Metal
*Country: Russian Federation
*Format: mp3@CBR320kbps
*Size: 80MB

Tracklist:
01. Волос 07:26
02. Сгораю 05:16
03. Утопленник 09:28
04. Сквозь боль и слёзы 08:56
******************************
Total playing time: 31:06



[more=Extended info]Female vocal[/more]

[more=Technical info]
Input File: 01 Волос.mp3
Channels : 2
Sample Rate : 44100
Precision : 16-bit
Duration : 00:07:26.09 = 19672613 samples = 33456.8 CDDA sectors
File Size : 17.9M
Bit Rate : 321k
Sample Encoding: MPEG audio (layer I, II or III)
Comments :
Title=Âîëîñ
Artist=Sutura Apparatus
Album=Êðîé
Tracknumber=1
Year=2020
Genre=Black Metal

[/more]

Register
(13) 1968_janeart, alikkon, infiltrator, Lukittaz, multizwilling, Olethros, randumbum, robertho777, Rosen, SilentNidhogg, VALERY, vasiljev_sergej, Сварог Барг,
Jul 3 2020, 16:30:55 Bognor - Brain Paralysis (2020)


*Artist: Bognor
*Album: Brain Paralysis
*Year: 2020
*Genre: Death Metal
*Country: Greece
*Format: mp3@CBR320kbps
*Size: 78MB

Tracklist:
01. Mass Abjection 05:08
02. Psychopompos 04:18
03. Social Abomination 04:09
04. Intoxicated Hypnosis 04:20
05. Disgust 03:39
06. Perverted Hate 04:00
07. Sirens Of Devastation 03:43
08. Obliterated Innocence 04:22
******************************
Total playing time: 33:39




[more=Technical info]
Input File: 01 Mass Abjection.mp3
Channels : 2
Sample Rate : 44100
Precision : 16-bit
Duration : 00:05:08.08 = 13586284 samples = 23105.9 CDDA sectors
File Size : 12.4M
Bit Rate : 322k
Sample Encoding: MPEG audio (layer I, II or III)
Comments :
Title=Mass Abjection
Artist=Bognor
Album=Brain Paralysis
Tracknumber=1
Year=2020
Genre=22

[/more]

Register
(20) alikkon, andreikun, atavist, chipsgott, El_Chibo, Hell_Is_Here, infiltrator, killingod, Lukittaz, Mares, metala, MMMMM, multizwilling, Occultas, Olethros, randumbum, Rosen, THROWER666, VALERY, vyacheslav,
Jul 3 2020, 16:26:33 Ergodic - Ergodic [ep] (2020)


*Artist: Ergodic
*Album: Ergodic [ep]
*Year: 2020
*Genre: Technical Death Metal
*Country: United States
*Format: mp3@CBR320kbps
*Size: 35MB

Tracklist:
01. Exalted Ignorance 04:42
02. Veil Of Dementia 05:08
03. Lashed To Control 04:41
******************************
Total playing time: 14:31





[more=Technical info]
Input File: 01 Exalted Ignorance.mp3
Channels : 2
Sample Rate : 44100
Precision : 16-bit
Duration : 00:04:42.69 = 12466453 samples = 21201.5 CDDA sectors
File Size : 11.5M
Bit Rate : 325k
Sample Encoding: MPEG audio (layer I, II or III)
Comments :
Title=Exalted Ignorance
Artist=Ergodic
Album=Ergodic (EP)
Tracknumber=1
Year=2020
Genre=Technical Death Metal

[/more]

Register
(22) Barlak, chipsgott, daemonarch, Dark Sage, Evilded, grimoir, hate_eternal, Hell_Is_Here, infiltrator, killingod, Lukittaz, Mares, metala, Olethros, Orgasmik, Rosen, SadistikSlayer, terron, VALERY, vyacheslav, yuratroll, Нигилист,
Jul 3 2020, 16:22:02 Vintermørke & The Kingdom Of Peace - Dead Woods [collaboration] (2020)


*Artist: Vintermørke & The Kingdom Of Peace
*Album: Dead Woods [collaboration]
*Year: 2020
*Genre: Depressive Black Metal | Blackened Doom Metal
*Country: Greece | Poland
*Format: mp3@CBR320kbps
*Size: 42MB

Tracklist:
01. Dead Woods 03:10
02. Dead Memories 11:56
03. Last Trip, Last Sip (Rehearsal) 02:41
******************************
Total playing time: 17:47







[more=Technical info]
Input File: 01 Dead Woods.mp3
Channels : 2
Sample Rate : 44100
Precision : 16-bit
Duration : 00:03:09.45 = 8354745 samples = 14208.7 CDDA sectors
File Size : 7.76M
Bit Rate : 328k
Sample Encoding: MPEG audio (layer I, II or III)
Comments :
Title=Dead Woods
Artist=Vintermørke & The Kingdom Of Peace
Album=Dead Woods (Collaboration)
Tracknumber=1
Year=2020
Genre=Depressive Black/Doom Metal

[/more]

Register
(17) 1968_janeart, grimoir, infiltrator, kim666, Ludwig Hagen, Lukittaz, Maximvs, Misanthrope@, randumbum, Rosen, senecazm, SilentNidhogg, supremo, umnaxtet, VALERY, vasiljev_sergej, Wail,
Jul 3 2020, 16:17:31 Graveripper - Complete Blinding Darkness [ep] (2020)


*Artist: Graveripper
*Album: Complete Blinding Darkness [ep]
*Year: 2020
*Genre: Black/Thrash/Speed Metal
*Country: United States
*Format: mp3@CBR320kbps
*Size: 26MB

Tracklist:
01. The One Reborn 04:00
02. A Swift Kick To The Teeth 03:02
03. Bite Of A Parasite 02:37
******************************
Total playing time: 9:39





[more=Technical info]
Input File: 01 The One Reborn.mp3
Channels : 2
Sample Rate : 44100
Precision : 16-bit
Duration : 00:04:00.47 = 10604727 samples = 18035.2 CDDA sectors
File Size : 9.70M
Bit Rate : 323k
Sample Encoding: MPEG audio (layer I, II or III)
Comments :
Title=The One Reborn
Artist=GraveRipper
Album=Complete Blinding Darkness (EP)
Tracknumber=1
Year=2020
Genre=Black/Thrash/Speed Metal

[/more]

Register
(16) Asketto, boby9052, Bzth, grimoir, infiltrator, Lukittaz, marilin, Olethros, randumbum, Rosen, sergsazan, stumpheavyrock, terron, vasiljev_sergej, Wail, wgs73,
Jun 28 2020, 18:19:17 Hatebound - Shades Of Madness (2020)


*Artist: Hatebound
*Album: Shades Of Madness
*Year: 2020
*Genre: Groove/Death Metal
*Country: Russian Federation
*Format: mp3@CBR320kbps
*Size: 106MB

Tracklist:
01. Black Sacrament 04:26
02. Price Of Truth 05:15
03. Old Scars 06:13
04. Holy Visions 04:40
05. Pain Dealer 04:37
06. Into The Abyss 05:15
07. Triumph Of Chaos 03:55
08. Forgotten Land 05:25
09. Winds 04:45
******************************
Total playing time: 44:31


Preview 2

[more=Technical info]
Input File: 01 Black Sacrament.mp3
Channels : 2
Sample Rate : 44100
Precision : 16-bit
Duration : 00:04:26.83 = 11767159 samples = 20012.2 CDDA sectors
File Size : 10.8M
Bit Rate : 325k
Sample Encoding: MPEG audio (layer I, II or III)
Comments :
Title=Black Sacrament
Artist=Hatebound
Album=Shades Of Madness
Tracknumber=1
Year=2020
Genre=Groove/Death Metal

[/more]

Register
(11) alikkon, atavist, chipsgott, infiltrator, Lukittaz, Olethros, Phlebotomized, Predatorux, Rosen, VALERY, varlam4,
Jun 28 2020, 18:14:42 Kannustaa - Kannustaa (2020)


*Artist: Kannustaa
*Album: Kannustaa
*Year: 2020
*Genre: Black Metal
*Country: International
*Format: mp3@CBR320kbps
*Size: 70MB

Tracklist:
01. To Give And Forget 04:15
02. Mother 04:22
03. Shadows In The Sky 03:21
04. Don't Leave Me 05:22
05. A Plea For Solitude 06:57
06. Encourage 06:10
******************************
Total playing time: 30:27




[more=Extended info]Serbia / United States[/more]

[more=Technical info]
Input File: 01 To Give and Forget.mp3
Channels : 2
Sample Rate : 44100
Precision : 16-bit
Duration : 00:04:15.91 = 11285587 samples = 19193.2 CDDA sectors
File Size : 10.3M
Bit Rate : 321k
Sample Encoding: MPEG audio (layer I, II or III)
Comments :
Title=To Give and Forget
Artist=Kannustaa
Album=Kannustaa
Tracknumber=1
Year=2020
Genre=Black Metal

[/more]

Register
(19) 1968_janeart, alikkon, atavist, bobo66, craP_cillA, grimoir, infiltrator, kim666, Mares, multizwilling, Olethros, randumbum, robertho777, Rosen, SilentNidhogg, supremo, VALERY, varlam4, vasiljev_sergej,

141 Pages V   1 2 3 > » 
- Lo-Fi Version Support form
Copyrights and abuse reports form
Time is now: 5th August 2020 - 20:30:18