Welcome Guest ( Log In | Register )

История благодарностей участнику металлист ::: Спасибо сказали: 22449 раз(а)
Дата поста: В теме: За сообщение: Спасибо сказали:
Sep 2 2020, 18:01:55 Urantia - Vermis (2020)


*Artist: Urantia
*Album: Vermis
*Year: 2020
*Genre: Post-Black Metal/Shoegaze
*Country: Colombia
*Format: mp3@CBR320kbps
*Size: 132MB

Tracklist:
01. Radiant Urban Lights 04:51
02. Ascia Crisálida 04:26
03. Blaze 08:51
04. Disappear 10:02
05. Melting Stars 09:16
06. Fading Into Grey Shifting Streets 08:39
07. As Dust Of Stars 10:41
******************************
Total playing time: 56:46





[more=Technical info]
Input File: 03 Blaze.mp3
Channels : 2
Sample Rate : 44100
Precision : 16-bit
Duration : 00:08:51.18 = 23424906 samples = 39838.3 CDDA sectors
File Size : 21.3M
Bit Rate : 321k
Sample Encoding: MPEG audio (layer I, II or III)
Comments :
Title=Blaze
Artist=Urantia
Album=Vermis
Tracknumber=3
Year=2020
Genre=Post-Black Metal/Shoegaze

[/more]

Register
(10) infiltrator, kim666, morve, Olethros, randumbum, Rosen, stone88, varlam4, vasiljev_sergej, wreak,
Sep 2 2020, 17:48:36 Consumer - Consumer [ep] (2020)


*Artist: Consumer
*Album: Consumer [ep]
*Year: 2020
*Genre: Sludge/Black Metal
*Country: Italy
*Format: mp3@CBR320kbps
*Size: 60MB

Tracklist:
01. Pray//Void 08:28
02. Witchslayer 08:34
03. Solicitous 07:30
******************************
Total playing time: 24:32




[more=Technical info]
Input File: 01 Pray-Void.mp3
Channels : 2
Sample Rate : 44100
Precision : 16-bit
Duration : 00:08:28.61 = 22429525 samples = 38145.5 CDDA sectors
File Size : 20.6M
Bit Rate : 324k
Sample Encoding: MPEG audio (layer I, II or III)
Comments :
Title=Pray//Void
Artist=Consumer
Album=Consumer
Tracknumber=1
Year=2020
Genre=Sludge/Black Metal

[/more]

Register
(13) 555, chickenfucker, infiltrator, Olethros, randumbum, robertho777, Rosen, sludge666, stub888, VALERY, varlam4, vasiljev_sergej, wreak,
Sep 2 2020, 17:44:48 Wretched Empires - Bloom [ep] (2020)


*Artist: Wretched Empires
*Album: Bloom [ep]
*Year: 2020
*Genre: Atmospheric Black Metal
*Country: United States
*Format: mp3@CBR320kbps
*Size: 48MB

Tracklist:
01. Ghosts 05:56
02. Bloom 04:05
03. Home? 02:10
04. Shadows 06:46
******************************
Total playing time: 18:57



[more=Technical info]
Input File: 01 Ghosts.mp3
Channels : 2
Sample Rate : 44100
Precision : 16-bit
Duration : 00:05:56.15 = 15706083 samples = 26711 CDDA sectors
File Size : 14.4M
Bit Rate : 323k
Sample Encoding: MPEG audio (layer I, II or III)
Comments :
Title=Ghosts
Artist=Wretched Empires
Album=Bloom
Tracknumber=1
Year=2020
Genre=Athmospheric Black Metal

[/more]

Register
(17) 1968_janeart, aleon, Dark Sage, infiltrator, kim666, Lukittaz, Olethros, randumbum, robertho777, Rosen, sergsazan, SilentNidhogg, stub888, VALERY, varlam4, vasiljev_sergej, wreak,
Sep 2 2020, 17:40:30 Deprived Existence - Demon Layers [ep] (2020)


*Artist: Deprived Existence
*Album: Demon Layers [ep]
*Year: 2020
*Genre: Brutal Death Metal/Grindcore
*Country: United States
*Format: mp3@CBR320kbps
*Size: 40MB

Tracklist:
01. Narcissistic Psychosis 01:32
02. Demonic Ingestion 02:49
03. Intestinal Pandemonium 02:06
04. Sever The Soul From The Flesh 01:49
05. Existential Putridity 03:18
06. Bleak Is The Blood 04:04
******************************
Total playing time: 15:38




[more=Technical info]
Input File: 02 Demonic Ingestion.mp3
Channels : 2
Sample Rate : 44100
Precision : 16-bit
Duration : 00:02:49.52 = 7475700 samples = 12713.8 CDDA sectors
File Size : 6.99M
Bit Rate : 330k
Sample Encoding: MPEG audio (layer I, II or III)
Comments :
Title=Demonic Ingestion
Artist=Deprived Existence
Album=Demon Layers
Tracknumber=2
Year=2020
Genre=Brutal Death Metal/Grindcore

[/more]

Register
(8) cesar, infiltrator, Olethros, Rosen, SadistikSlayer, varlam4, vyacheslav, wreak,
Sep 2 2020, 17:36:06 Noobsaibot - Sea Of Black [demo] (2020)


*Artist: Noobsaibot
*Album: Sea Of Black [demo]
*Year: 2020
*Genre: Atmospheric/Post-Black Metal
*Country: United States
*Format: mp3@CBR320kbps
*Size: 113MB

Tracklist:
01. Transmutation Furnace 12:27
02. Skin Eater 01:00
03. Flayed 08:51
04. Suborbital Winter 11:32
05. Reave 03:32
06. Red Bodies Sea Of Black 10:24
******************************
Total playing time: 47:46




[more=Technical info]
Input File: 03 Flayed.mp3
Channels : 2
Sample Rate : 44100
Precision : 16-bit
Duration : 00:08:51.12 = 23422568 samples = 39834.3 CDDA sectors
File Size : 21.4M
Bit Rate : 323k
Sample Encoding: MPEG audio (layer I, II or III)
Comments :
Title=Flayed
Artist=Noobsaibot
Album=Sea Of Black
Tracknumber=3
Year=2020
Genre=Atmospheric/Post-Black Metal

[/more]

Register
(12) 1968_janeart, aleon, infiltrator, kim666, Olethros, randumbum, robertho777, Rosen, VALERY, varlam4, vasiljev_sergej, wreak,
Sep 2 2020, 17:26:13 Mortemare - Moonlight Incantations [demo] (2020)


*Artist: Mortemare
*Album: Moonlight Incantations [demo]
*Year: 2020
*Genre: Symphonic Black Metal
*Country: France
*Format: mp3@CBR320kbps
*Size: 32MB

Tracklist:
01. The Self-Deceived 05:45
02. Upon The Crow's First Flight 07:55
******************************
Total playing time: 13:40






[more=Technical info]
Input File: 01 The Self-deceived.mp3
Channels : 2
Sample Rate : 44100
Precision : 16-bit
Duration : 00:05:47.00 = 15302832 samples = 26025.2 CDDA sectors
File Size : 14.0M
Bit Rate : 324k
Sample Encoding: MPEG audio (layer I, II or III)
Comments :
Title=The Self-deceived
Artist=Mortemare
Album=Moonlight Incantations
Tracknumber=1
Year=2020
Genre=Symphonic Black Metal

[/more]

Register
(18) 1968_janeart, Ildjarn, infiltrator, kim666, lldma, Lunaris, Mogozoz, Occultas, Olethros, randumbum, robertho777, Rosen, Shadechaser, VALERY, varlam4, vasiljev_sergej, wreak, zhol,
Sep 2 2020, 17:21:59 Rotten Brain & Casket Slime - Rotten Brain/Casket Slime [split] (2020)


*Artist: Rotten Brain & Casket Slime
*Album: Rotten Brain/Casket Slime [split]
*Year: 2020
*Genre: Death/Doom Metal | Death Metal/Grindcore
*Country: France | Canada
*Format: mp3@CBR320kbps
*Size: 59MB

Tracklist:
Rotten Brain:
1. Intro Living Dead 01:31
2. The Old Cemetery 03:33
3. Massive Grave Distribution 04:25
4. Crypt Keeper 03:24

Casket Slime:
5. Reggie Bannister 01:58
6. Worms Of Vanity 03:49
7. A Romance Beyond The Grave 03:07
8. Alice Broke The Mirror 03:02
******************************
Total playing time: 24:49





[more=Technical info]
Input File: 01 Intro Living Dead.mp3
Channels : 2
Sample Rate : 44100
Precision : 16-bit
Duration : 00:01:31.43 = 4032195 samples = 6857.47 CDDA sectors
File Size : 3.78M
Bit Rate : 331k
Sample Encoding: MPEG audio (layer I, II or III)
Comments :
Title=Intro Living Dead
Artist=Rotten Brain
Album=Rotten Brain & Casket Slime (Split)
Tracknumber=1
Year=2020
Genre=Death/Doom Metal

[/more]

Register
(6) infiltrator, MetallWarriorRus, Rosen, sergsazan, VALERY, wreak,
Sep 2 2020, 17:14:54 Scumeater - Scumeater [demo] (2020)


*Artist: Scumeater
*Album: Scumeater [demo]
*Year: 2020
*Genre: Grindcore
*Country: Poland
*Format: mp3@CBR320kbps
*Size: 21MB

Tracklist:
01. Not My Fault 01:12
02. Andrew Asscrack 00:59
03. Your Funeral 01:59
04. Meth 00:57
05. Chilli Con Carnage 00:51
06. HIV Fucktory 01:44
07. Verbal Diarrhea 01:12
******************************
Total playing time: 8:54





[more=Technical info]
Input File: 01 Not My Fault.mp3
Channels : 2
Sample Rate : 44100
Precision : 16-bit
Duration : 00:01:12.23 = 3185431 samples = 5417.4 CDDA sectors
File Size : 2.98M
Bit Rate : 330k
Sample Encoding: MPEG audio (layer I, II or III)
Comments :
Title=Not My Fault
Artist=Scumeater
Album=Scumeater
Tracknumber=1
Year=2020
Genre=Grindcore

[/more]

Register
(6) grimoir, infiltrator, Olethros, Rosen, varlam4, wreak,
Jul 18 2020, 18:47:37 Bodydrinkers - Bodydrinkers (2020)


*Artist: Bodydrinkers
*Album: Bodydrinkers
*Year: 2020
*Genre: Death/Black Metal
*Country: Ireland
*Format: mp3@CBR320kbps
*Size: 57MB

Tracklist:
01. Death Face Grin 01:59
02. Cocooning Nations 03:44
03. The Worms Of Mind Control 03:11
04. Pale Eyes In The Oysterman Marsh 03:56
05. An Muc 02:54
06. Primordial Psychotic Autopilot 03:45
07. Costa Del Disfiguration 04:41
******************************
Total playing time: 24:10




[more=Technical info]
Input File: 01 Death Face Grin.mp3
Channels : 2
Sample Rate : 44100
Precision : 16-bit
Duration : 00:01:57.45 = 5179677 samples = 8808.97 CDDA sectors
File Size : 4.77M
Bit Rate : 325k
Sample Encoding: MPEG audio (layer I, II or III)
Comments :
Title=Death Face Grin
Artist=Bodydrinkers
Album=Bodydrinkers
Tracknumber=1
Year=2020
Genre=Death/Black Metal

[/more]

Register
(16) atavist, grimoir, infiltrator, killingod, Lukittaz, Olethros, randumbum, Rosen, Shadechaser, SilentNidhogg, stub888, VALERY, varlam4, vasiljev_sergej, Wail, wreak,
Jul 18 2020, 18:43:58 Disrotter - Plague [demo] (2020)


*Artist: Disrotter
*Album: Plague [demo]
*Year: 2020
*Genre: Death Metal/Grindcore
*Country: United States
*Format: mp3@CBR320kbps
*Size: 18MB

Tracklist:
01. Walking Plague 01:54
02. Turmoil Fixation 01:25
03. Unsoundness Of Mind 02:30
04. Storm Of Stress (Terrorizer Cover) 01:29
******************************
Total playing time: 7:18



[more=Technical info]
Input File: 01 Walking Plague.mp3
Channels : 2
Sample Rate : 44100
Precision : 16-bit
Duration : 00:01:54.63 = 5055227 samples = 8597.32 CDDA sectors
File Size : 4.74M
Bit Rate : 331k
Sample Encoding: MPEG audio (layer I, II or III)
Comments :
Title=Walking Plague
Artist=Disrotter
Album=Plague (Demo)
Tracknumber=1
Year=2020
Genre=Death Metal/Grindcore

[/more]

Register
(10) chipsgott, grimoir, infiltrator, killingod, Olethros, Rosen, sludge666, varlam4, Wail, wreak,
Jul 18 2020, 18:40:25 Hornet Murmuration - Affirmation Of Antipathy [demo] (2020)


*Artist: Hornet Murmuration
*Album: Affirmation Of Antipathy [demo]
*Year: 2020
*Genre: Black Metal/Punk
*Country: United States
*Format: mp3@CBR320kbps
*Size: 36MB

Tracklist:
01. Fever Seize 02:18
02. Descent Into Megalomania 02:29
03. Trial 01:28
04. Conceived In Midnight 03:28
05. Zugzwang 02:00
******************************
Total playing time: 11:43



[more=Technical info]
Input File: 01 Fever Seize.mp3
Channels : 2
Sample Rate : 44100
Precision : 16-bit
Duration : 00:02:18.22 = 6095546 samples = 10366.6 CDDA sectors
File Size : 5.62M
Bit Rate : 326k
Sample Encoding: MPEG audio (layer I, II or III)
Comments :
Title=Fever Seize
Artist=Hornet Murmuration
Album=Affirmation Of Antipathy (Demo)
Tracknumber=1
Year=2020
Genre=Black Metal/Punk

[/more]

Register
(14) 1968_janeart, grimoir, HviteGuden, infiltrator, kim666, Olethros, Orkkh, randumbum, Rosen, stub888, varlam4, vasiljev_sergej, Wail, wreak,
Jul 18 2020, 18:36:20 Kaoskraft - Cult Of Plagues [ep] (2020)


*Artist: Kaoskraft
*Album: Cult Of Plagues [ep]
*Year: 2020
*Genre: Black Metal
*Country: Spain
*Format: mp3@CBR320kbps
*Size: 41MB

Tracklist:
01. Intro 00:21
02. Shadows Of Tomorrow 04:45
03. Pentagram Worship Hellfire 04:42
04. Krieg 05:00
05. Night's Void 03:39
******************************
Total playing time: 18:27



[more=Technical info]
Input File: 02 Shadows of Tomorrow.mp3
Channels : 2
Sample Rate : 44100
Precision : 16-bit
Duration : 00:04:45.66 = 12597782 samples = 21424.8 CDDA sectors
File Size : 11.5M
Bit Rate : 321k
Sample Encoding: MPEG audio (layer I, II or III)
Comments :
Title=Shadows of Tomorrow
Artist=Kaoskraft
Album=Cult Of Plagues (EP)
Tracknumber=2
Year=2020
Genre=Black Metal

[/more]

Register
(16) 1968_janeart, infiltrator, kim666, Lukittaz, Mares, Olethros, randumbum, robertho777, Rosen, SilentNidhogg, stub888, VALERY, varlam4, vasiljev_sergej, Wail, wreak,
Jul 18 2020, 18:32:48 Kurcum - Stereotipična Govna II (2020)


*Artist: Kurcum
*Album: Stereotipična Govna II
*Year: 2020
*Genre: Black/Thrash Metal
*Country: Serbia
*Format: mp3@CBR320kbps
*Size: 46MB

Tracklist:
01. Feministkinje 01:26
02. Pička Vam Materina Komunjarska 02:25
03. Liberali 01:38
04. Antifa Govnarija 01:40
05. Kolona Vilus 01:05
06. Imigrant 01:05
07. Karadjiću Vodi Srbe Svoje (Remove Kebab) 03:38
08. Serenada Breskvica 02:08
09. Tika I Djošina Pesma 03:58
******************************
Total playing time: 19:03




[more=Technical info]
Input File: 01 Feministkinje.mp3
Channels : 2
Sample Rate : 44100
Precision : 16-bit
Duration : 00:01:26.18 = 3800626 samples = 6463.65 CDDA sectors
File Size : 3.56M
Bit Rate : 331k
Sample Encoding: MPEG audio (layer I, II or III)
Comments :
Title=Feministkinje
Artist=Kurcum
Album=Stereotipicna Govna II
Tracknumber=1
Year=2020
Genre=Black/Thrash Metal

[/more]

Register
(17) Asketto, atavist, fuoco, infiltrator, Lukittaz, Olethros, randumbum, Rosen, SadistikSlayer, scorpionmk, sergsazan, SilentNidhogg, stumpheavyrock, varlam4, vasiljev_sergej, wgs73, wreak,
Jul 18 2020, 18:28:26 Cyhiraeth & Wulfgraf - L'hiver Noire [split] (2020)


*Artist: Cyhiraeth & Wulfgraf
*Album: L'hiver Noire [split]
*Year: 2020
*Genre: Raw Black Metal | Black Metal
*Country: United States | United States
*Format: mp3@CBR320kbps
*Size: 35MB

Tracklist:
Cyhiraeth:
01. Eye Of Zaxzull 05:22
02. Drakul Yek 06:38

Wulfgraf:
03. Sleepless Spirits Unbound 03:18
******************************
Total playing time: 15:18




[more=Technical info]
Input File: 03 Wulfgraf - Sleepless Spirits Unbound.mp3
Channels : 2
Sample Rate : 44100
Precision : 16-bit
Duration : 00:03:18.10 = 8736078 samples = 14857.3 CDDA sectors
File Size : 8.09M
Bit Rate : 327k
Sample Encoding: MPEG audio (layer I, II or III)
Comments :
Title=Wulfgraf - Sleepless Spirits Unbound
Artist=Wulfgraf
Album=L'hiver Noire (Split)
Tracknumber=3
Year=2020
Genre=Black Metal

[/more]

Register
(15) 1968_janeart, Ildjarn, infiltrator, kim666, Lukittaz, nemx, randumbum, Rosen, SilentNidhogg, stub888, VALERY, varlam4, vasiljev_sergej, Wail, wreak,
Jul 18 2020, 18:19:57 Andurá - Dark Myths From Brazilian Forests [ep] (2020)


*Artist: Andurá
*Album: Dark Myths From Brazilian Forests [ep]
*Year: 2020
*Genre: Black Metal
*Country: Brazil
*Format: mp3@CBR320kbps
*Size: 30MB

Tracklist:
01. The Serpent And The Fire 06:45
02. Blood On The Forest Altar 06:05
******************************
Total playing time: 12:50





[more=Technical info]
Input File: 01 The Serpent and the Fire.mp3
Channels : 2
Sample Rate : 44100
Precision : 16-bit
Duration : 00:06:45.76 = 17893840 samples = 30431.7 CDDA sectors
File Size : 16.3M
Bit Rate : 322k
Sample Encoding: MPEG audio (layer I, II or III)
Comments :
Title=The Serpent and the Fire
Artist=Andurá
Album=Dark Myths From Brazilian Forests (EP)
Tracknumber=1
Year=2020
Genre=Black Metal

[/more]

Register
(12) 1968_janeart, infiltrator, Lukittaz, Olethros, randumbum, Rosen, SilentNidhogg, VALERY, varlam4, vasiljev_sergej, Wail, wreak,
Jul 18 2020, 18:15:30 OmegaThrone - In Loving Memory Of Humankind (2020)


*Artist: OmegaThrone
*Album: In Loving Memory Of Humankind
*Year: 2020
*Genre: Blackened Death Metal
*Country: United Kingdom
*Format: mp3@CBR320kbps
*Size: 90MB

Tracklist:
01. Beginning Of The Fall Of Thy Kingdom 04:35
02. Casus Belli 03:33
03. Get Out Of the Dark To Take Your Light 04:42
04. Today We Are Going To Draw Death 04:24
05. Victim Complex 05:48
06. Greed Vs Greed 03:08
07. Token Of Perpetual Affliction 03:42
08. Damn You Abraham 04:18
09. Children Of Hitler 04:44
******************************
Total playing time: 38:54





[more=Technical info]
Input File: 01 Beginning Of The Fall Of Thy Kingdom.mp3
Channels : 2
Sample Rate : 44100
Precision : 16-bit
Duration : 00:04:35.95 = 12169219 samples = 20696 CDDA sectors
File Size : 11.1M
Bit Rate : 322k
Sample Encoding: MPEG audio (layer I, II or III)
Comments :
Title=Beginning Of The Fall Of Thy Kingdom
Artist=OmegaThrone
Album=In Loving Memory of Humankind
Tracknumber=1
Year=2020
Genre=Blackened Death Metal

[/more]

Register
(16) alikkon, atavist, infiltrator, killingod, Lukittaz, Mares, metala, multizwilling, Olethros, randumbum, Rosen, Shadechaser, SilentNidhogg, VALERY, varlam4, wreak,
Jul 18 2020, 18:10:38 Throrne - 71 Paths To The Star (2020)


*Artist: Throrne
*Album: 71 Paths To The Star
*Year: 2020
*Genre: Black Metal
*Country: United Kingdom
*Format: mp3@CBR320kbps
*Size: 73MB

Tracklist:
01. Amalantrah 05:41
02. Locust Father 05:32
03. Antichthon I 07:46
04. Nocturnal Return Of The Seven Headed Snake God 00:53
05. Like Flies... 04:21
06. Antichthon II 06:53
******************************
Total playing time: 31:06



[more=Technical info]
Input File: 01 AMALANTRAH.mp3
Channels : 2
Sample Rate : 44100
Precision : 16-bit
Duration : 00:05:41.60 = 15064384 samples = 25619.7 CDDA sectors
File Size : 13.8M
Bit Rate : 323k
Sample Encoding: MPEG audio (layer I, II or III)
Comments :
Title=AMALANTRAH
Artist=Throrne
Album=71 Paths To The Star
Tracknumber=1
Year=2020
Genre=Black Metal

[/more]

Register
(20) 1968_janeart, AlexSmith, atavist, Bzth, grimoir, infiltrator, kim666, Lukittaz, Mares, multizwilling, Olethros, randumbum, robertho777, Rosen, SilentNidhogg, stub888, VALERY, varlam4, vasiljev_sergej, wreak,
Jul 18 2020, 18:05:49 Pestilectomy - Ceremonial Abhorrence [ep] (2020)


*Artist: Pestilectomy
*Album: Ceremonial Abhorrence [ep]
*Year: 2020
*Genre: Brutal Death Metal
*Country: International
*Format: mp3@CBR320kbps
*Size: 40MB

Tracklist:
01. Mountainous Piles Of Putridity 04:13
02. Ceremonial Abhorrence 03:16
03. Fixating the Vermin-Infested Crumbling Remains Of The Exhumed Harlot 03:26
04. Cocaine Cashectomy 03:50
******************************
Total playing time: 14:45




[more=Extended info]Location: United States / Germany[/more]

[more=Technical info]
Input File: 01 Mountainous Piles of Putridity.mp3
Channels : 2
Sample Rate : 44100
Precision : 16-bit
Duration : 00:04:13.09 = 11161181 samples = 18981.6 CDDA sectors
File Size : 10.5M
Bit Rate : 331k
Sample Encoding: MPEG audio (layer I, II or III)
Comments :
Title=Mountainous Piles of Putridity
Artist=Pestilectomy
Album=Ceremonial Abhorrence
Tracknumber=1
Year=2020
Genre=Brutal Death Metal

[/more]

Register
(13) grimoir, Hell_Is_Here, infiltrator, killingod, Lukittaz, maochen, older68, Olethros, randumbum, sludge666, varlam4, vyacheslav, wreak,
Jul 5 2020, 17:12:37 Infernal Carnage - Malkuth Ov Death [demo] (2020)


*Artist: Infernal Carnage
*Album: Malkuth Ov Death [demo]
*Year: 2020
*Genre: Black Metal
*Country: Turkey
*Format: mp3@CBR320kbps
*Size: 37MB

Tracklist:
01. Feathered Serpent 04:24
02. Malkuth Ov Death 05:39
03. Perpetual Carnage And Fire 05:27
******************************
Total playing time: 15:30




[more=Technical info]
Input File: 01 Feathered Serpent.mp3
Channels : 2
Sample Rate : 44100
Precision : 16-bit
Duration : 00:04:24.58 = 11668066 samples = 19843.6 CDDA sectors
File Size : 10.8M
Bit Rate : 326k
Sample Encoding: MPEG audio (layer I, II or III)
Comments :
Title=Feathered Serpent
Artist=Infernal Carnage
Album=Malkuth Ov Death (Demo)
Tracknumber=1
Year=2020
Genre=Black Metal

[/more]

Register
(16) 1968_janeart, Driver999, Gylve, Ildjarn, infiltrator, kim666, Olethros, randumbum, robertho777, Rosen, SilentNidhogg, VALERY, varlam4, vasiljev_sergej, Wail, wreak,
Jul 5 2020, 17:03:45 Eradication - I. Neutralization Of Being (2020)


*Artist: Eradication
*Album: I. Neutralization Of Being
*Year: 2020
*Genre: Black Metal
*Country: Poland
*Format: mp3@CBR320kbps
*Size: 79MB

Tracklist:
01. Eradication 06:29
02. Neutralization Of Being 06:06
03. Stillness 07:25
04. Mirror 06:22
05. Misanthropy 07:29
******************************
Total playing time: 33:51



[more=Technical info]
Input File: 01 Eradication.mp3
Channels : 2
Sample Rate : 44100
Precision : 16-bit
Duration : 00:06:29.79 = 17189915 samples = 29234.5 CDDA sectors
File Size : 15.7M
Bit Rate : 322k
Sample Encoding: MPEG audio (layer I, II or III)
Comments :
Title=Eradication
Artist=Eradication
Album=I. Neutralization Of Being
Tracknumber=1
Year=2020
Genre=Black Metal

[/more]

Register
(22) 1968_janeart, alexxxandrougs, atavist, grimoir, infiltrator, kim666, Lukittaz, Mares, multizwilling, nemx, Olethros, randumbum, robertho777, Rosen, Sanctus, SilentNidhogg, supremo, Tyrone, VALERY, varlam4, vasiljev_sergej, wreak,
Jul 5 2020, 16:57:02 Inveterate Extinction - Greed Machine [ep] (2020)


*Artist: Inveterate Extinction
*Album: Greed Machine [ep]
*Year: 2020
*Genre: Death Metal/Goregrind/Cybergrind
*Country: United States
*Format: mp3@CBR320kbps
*Size: 17MB

Tracklist:
01. Progression Through The Evolution Of Murder 01:41
02. Nuclear Cremation 01:32
03. Eradicated By Design 01:20
04. Those Made Of Metal Never Bleed 01:01
05. Paleolithic Pariah 00:44
******************************
Total playing time: 6:18



[more=Technical info]
Input File: 01 Progression Through The Evolution Of Murder.mp3
Channels : 2
Sample Rate : 44100
Precision : 16-bit
Duration : 00:01:42.01 = 4498773 samples = 7650.97 CDDA sectors
File Size : 4.23M
Bit Rate : 331k
Sample Encoding: MPEG audio (layer I, II or III)
Comments :
Title=Progression Through The Evolution Of Murder
Artist=Inveterate Extinction
Album=Greed Machine (EP)
Tracknumber=1
Year=2020
Genre=Death Metal/Goregrind/Cybergrind

[/more]

Register
(10) chipsgott, grimoir, infiltrator, killingod, Konungr, Lukittaz, Olethros, Rosen, varlam4, wreak,
Jul 3 2020, 16:59:21 Atrocious Command - Atrocious Command [demo] (2020)


*Artist: Atrocious Command
*Album: Atrocious Command [demo]
*Year: 2020
*Genre: Black/Death Metal
*Country: Belgium
*Format: mp3@CBR320kbps
*Size: 18MB

Tracklist:
01. Extermination Crusade / Basilica Of The Holy Blood 02:54
02. Messalina 01:38
03. Death Command 02:31
******************************
Total playing time: 7:03



[more=Technical info]
Input File: 01 Extermination Crusade- Basilica of the Holy Blood.mp3
Channels : 2
Sample Rate : 44100
Precision : 16-bit
Duration : 00:02:54.90 = 7713046 samples = 13117.4 CDDA sectors
File Size : 7.12M
Bit Rate : 326k
Sample Encoding: MPEG audio (layer I, II or III)
Comments :
Title=Extermination Crusade/ Basilica of the Holy Blood
Artist=Atrocious Command
Album=Atrocious Command (Demo)
Tracknumber=1
Year=2020
Genre=Black/Death Metal

[/more]

Register
(14) grimoir, Hell_Is_Here, infiltrator, killingod, multizwilling, Olethros, randumbum, Rosen, SilentNidhogg, terron, varlam4, vasiljev_sergej, Wail, wreak,
Jul 3 2020, 16:56:29 Subjugate - Fyrdman [demo] (2020)


*Artist: Subjugate
*Album: Fyrdman [demo]
*Year: 2020
*Genre: Raw Black Metal
*Country: Canada
*Format: mp3@CBR320kbps
*Size: 60MB

Tracklist:
01. Winter of Attrition 02:42
02. Encaustic Plague 01:51
03. Halls Of Ballistae 02:00
04. Tormentis Electi 02:22
05. Dynastic Kinslayer 01:52
06. Shield Of The Tundra 01:55
07. Sisebut 01:25
08. Fyrdman 02:18
09. Casus Belli 02:21
10. Fehdebrief 02:02
11. Edict Of Expulsion 01:41
12. Dacian Falx 02:21
******************************
Total playing time: 24:50




[more=Technical info]
Input File: 01 Winter of Attrition.mp3
Channels : 2
Sample Rate : 44100
Precision : 16-bit
Duration : 00:02:41.39 = 7117431 samples = 12104.5 CDDA sectors
File Size : 6.57M
Bit Rate : 326k
Sample Encoding: MPEG audio (layer I, II or III)
Comments :
Title=Winter of Attrition
Artist=Subjugate
Album=Fyrdman (Demo)
Tracknumber=1
Year=2020
Genre=Raw Black Metal

[/more]

Register
(13) 1968_janeart, grimoir, infiltrator, kim666, Olethros, randumbum, Rosen, SilentNidhogg, stub888, varlam4, vasiljev_sergej, Wail, wreak,
Jul 3 2020, 16:52:19 Čiča Goreio - Goreski Vijenac (2020)


*Artist: Čiča Goreio
*Album: Goreski Vijenac
*Year: 2020
*Genre: Grindcore
*Country: Serbia
*Format: mp3@CBR320kbps
*Size: 50MB

Tracklist:
01. Kosti Tvoje 01:45
02. Šta Sam Jeo 01:27
03. Svinjkolj 01:00
04. Tu Noć Kad Si Se Udavila 00:29
05. Zašto Si Pišao Na Trafostanicu Kada Je Dalekovod Bio Slobodan 00:03
06. Teratom 00:31
07. Kičmena Smoždina 00:53
08. Blagoslovi Moje Grehe 01:12
09. Kiša Pada, Strava Raste 00:52
10. Gore Gore Gore Gore 00:13
11. Kafanska Tuča 01:19
12. Tvoj Kraj 01:17
13. Carski Rez Sultana Murata 01:13
14. Trulim Od Želje Da Ponovo Živim 00:59
15. Zemljom Hodaš I Ona Će Tobom 02:00
16. Strndž 00:40
17. Krv Pije Zmajeviću Vlado 01:00
18. Mama Voli Bebu 03:44
******************************
Total playing time: 20:37




[more=Technical info]
Input File: 01 Kosti Tvoje.mp3
Channels : 2
Sample Rate : 44100
Precision : 16-bit
Duration : 00:01:46.01 = 4675041 samples = 7950.75 CDDA sectors
File Size : 4.43M
Bit Rate : 334k
Sample Encoding: MPEG audio (layer I, II or III)
Comments :
Title=Kosti Tvoje
Artist=Čiča Goreio
Album=Goreski Vijenac
Tracknumber=1
Year=2020
Genre=Grindcore

[/more]

Register
(9) atavist, infiltrator, Lukittaz, Olethros, randumbum, Rosen, varlam4, wgs73, wreak,
Jul 3 2020, 16:43:29 Blastocystia - Murder Circus [ep] (2020)


*Artist: Blastocystia
*Album: Murder Circus [ep]
*Year: 2020
*Genre: Brutal Death Metal/Goregrind
*Country: Germany
*Format: mp3@CBR320kbps
*Size: 39MB

Tracklist:
01. Bonesaw 03:20
02. Face Renewal 02:50
03. Murder Circus 02:48
04. Bloodsucker 03:01
05. Her Disposal 04:28
******************************
Total playing time: 16:27





[more=Technical info]
Input File: 01 Bonesaw.mp3
Channels : 2
Sample Rate : 44100
Precision : 16-bit
Duration : 00:03:20.55 = 8844387 samples = 15041.5 CDDA sectors
File Size : 8.20M
Bit Rate : 327k
Sample Encoding: MPEG audio (layer I, II or III)
Comments :
Title=Bonesaw
Artist=Blastocystia
Album=Murder Circus (EP)
Tracknumber=1
Year=2020
Genre=Brutal Death Metal/Goregrind

[/more]

Register
(10) carnegrinder, infiltrator, killingod, Lukittaz, Olethros, randumbum, Rosen, satanist666, varlam4, wreak,

141 Pages V   1 2 3 > » 
- Lo-Fi Version Support form
Copyrights and abuse reports form
Time is now: 20th October 2020 - 21:19:58