Welcome Guest ( Log In | Register )

История благодарностей участнику металлист ::: Спасибо сказали: 21597 раз(а)
Дата поста: В теме: За сообщение: Спасибо сказали:
Jun 3 2019, 17:56:30 Blood On A Razorblade - Vergänglichkeit [demo] (2019)


*Artist: Blood On A Razorblade
*Album: Vergänglichkeit [demo]
*Year: 2019
*Genre: Atmospheric/Depressive Black Metal
*Country: Germany
*Format: mp3@CBR320kbps
*Size: 79MB

Tracklist:
01. Vergänglichkeit I - Distanz 07:07
02. Vergänglichkeit II - Endstation Existenz 07:49
03. Vergänglichkeit III - Ausstieg 08:38
04. Vergänglichkeit IV - Schattenhagel Meiner Galgenkunst 08:31
******************************
Total playing time: 32:05



[more=Technical info]
Input File: 01 Vergänglichkeit I - Distanz.mp3
Channels : 2
Sample Rate : 44100
Precision : 16-bit
Duration : 00:07:07.23 = 18840843 samples = 32042.2 CDDA sectors
File Size : 17.2M
Bit Rate : 322k
Sample Encoding: MPEG audio (layer I, II or III)
Comments :
Title=Vergänglichkeit I - Distanz
Artist=Blood on A Razorblade
Album=Vergänglichkeit Demo
Tracknumber=1
Year=2019
Genre=Atmospheric/Depressive Black Metal

[/more]

Register
(14) 1968_janeart, Alexis The Best, kim666, Krosis, Olethros, Rosen, satanist666, serach, SilentNidhogg, singrad, stub888, TAKATAEL, vasiljev_sergej, wreak,
Jun 3 2019, 17:40:38 Primal Holocaust - Demo Tapes [demo] (2019)


*Artist: Primal Holocaust
*Album: Demo Tapes [demo]
*Year: 2019
*Genre: Death/Black/Thrash Metal
*Country: United Kingdom
*Format: mp3@CBR320kbps
*Size: 19MB

Tracklist:
01. Kadath 03:47
02. Cliffs Of War (Feat Alexander Brizgalov) 04:04
******************************
Total playing time: 7:51




[more=Technical info]
Input File: 01 Kadath.mp3
Channels : 2
Sample Rate : 44100
Precision : 16-bit
Duration : 00:03:47.20 = 10019476 samples = 17039.9 CDDA sectors
File Size : 9.26M
Bit Rate : 326k
Sample Encoding: MPEG audio (layer I, II or III)
Comments :
Title=Kadath
Artist=Primal Holocaust
Album=Demo Tapes
Tracknumber=1
Year=2019
Genre=Death/Black/Thrash Metal

[/more]

Register
(12) BlazonStone, GorAtheist, METALHUNTER, Olethros, piledriver, Pinhead666, Rosen, satanist666, stumpheavyrock, vasiljev_sergej, wanderer73, wreak,
Jun 3 2019, 17:32:03 Naillung - Converge Revenge [demo] (2019)


*Artist: Naillung
*Album: Converge Revenge [demo]
*Year: 2019
*Genre: Death/Black Metal/Crust
*Country: Finland
*Format: mp3@CBR320kbps
*Size: 25MB

Tracklist:
01. Converge Revenge 03:29
02. Mass Pollution 02:56
03. Apostates Of "Humane" Consumption 02:38
04. Lewd.Foul.Scum. 01:28
******************************
Total playing time: 10:31



[more=Technical info]
Input File: 01 Converge Revenge.mp3
Channels : 2
Sample Rate : 44100
Precision : 16-bit
Duration : 00:03:29.51 = 9239523 samples = 15713.5 CDDA sectors
File Size : 8.56M
Bit Rate : 327k
Sample Encoding: MPEG audio (layer I, II or III)
Comments :
Title=Converge Revenge
Artist=Naillung
Album=Converge Revenge
Tracknumber=1
Year=2019
Genre=Black/Death Metal/Crust

[/more]

Register
(5) METALHUNTER, Olethros, Rosen, vasiljev_sergej, wreak,
Jun 3 2019, 17:24:10 Blood Countess - Blood Countess [demo] (2019)


*Artist: Blood Countess
*Album: Blood Countess [demo]
*Year: 2019
*Genre: Black Metal
*Country: United Kingdom
*Format: mp3@CBR320kbps
*Size: 27MB

Tracklist:
01. The Blood Countess 03:22
02. Goddess Of Pain 03:31
03. Sadistic Misandry 03:29
******************************
Total playing time: 10:22




[more=Technical info]
Input File: 01 The Blood Countess.mp3
Channels : 2
Sample Rate : 44100
Precision : 16-bit
Duration : 00:03:22.25 = 8919269 samples = 15168.8 CDDA sectors
File Size : 8.18M
Bit Rate : 323k
Sample Encoding: MPEG audio (layer I, II or III)
Comments :
Title=The Blood Countess
Artist=Blood Countess
Album=Blood Countess
Tracknumber=1
Year=2019
Genre=Black Metal

[/more]

Register
(12) 1968_janeart, ahp, GorAtheist, kim666, Olethros, Rosen, satanist666, SilentNidhogg, stub888, thenecromancer, vasiljev_sergej, wreak,
Jun 3 2019, 17:17:23 Vacant Body - Vacant Body [demo] (2019)


*Artist: Vacant Body
*Album: Vacant Body [demo]
*Year: 2019
*Genre: Black Metal
*Country: Australia
*Format: mp3@CBR320kbps
*Size: 21MB

Tracklist:
01. Infinite Leash 01:05
02. Spiralling Altar 03:20
03. Light That Never Prevails 04:16
******************************
Total playing time: 8:41




[more=Technical info]
Input File: 02 Spiralling Altar.mp3
Channels : 2
Sample Rate : 44100
Precision : 16-bit
Duration : 00:03:20.47 = 8840903 samples = 15035.5 CDDA sectors
File Size : 8.08M
Bit Rate : 323k
Sample Encoding: MPEG audio (layer I, II or III)
Comments :
Title=Spiralling Altar
Artist=Vacant Body
Album=Vacant Body
Tracknumber=2
Year=2019
Genre=Black Metal

[/more]

Register
(10) 1968_janeart, kim666, Olethros, robertho777, Rosen, satanist666, SilentNidhogg, stub888, vasiljev_sergej, wreak,
Jun 3 2019, 17:09:22 Bury Them Deep - No Sacrifice [ep] (2019)


*Artist: Bury Them Deep
*Album: No Sacrifice [ep]
*Year: 2019
*Genre: Thrash Metal/Crossover
*Country: United States
*Format: mp3@CBR320kbps
*Size: 34MB

Tracklist:
01. No Sacrifice 03:47
02. Nowhere Bound 03:13
03. Fixed Fate 03:42
04. Truth 03:26
******************************
Total playing time: 14:08





[more=Technical info]
Input File: 02 Nowhere Bound.mp3
Channels : 2
Sample Rate : 44100
Precision : 16-bit
Duration : 00:03:13.66 = 8540230 samples = 14524.2 CDDA sectors
File Size : 7.91M
Bit Rate : 327k
Sample Encoding: MPEG audio (layer I, II or III)
Comments :
Title=Nowhere Bound
Artist=Bury Them Deep
Album=No Sacrifice
Tracknumber=2
Year=2019
Genre=Thrash Metal/Crossover

[/more]

Register
(9) boby9052, GorAtheist, gwar, METALHUNTER, Necroeire, Rosen, stumpheavyrock, wgs73, wreak,
Jun 3 2019, 17:01:08 Erzoth - Demo 1 [demo] (2019)


*Artist: Erzoth
*Album: Demo 1 [demo]
*Year: 2019
*Genre: Raw Black Metal/Ambient
*Country: France
*Format: mp3@CBR320kbps
*Size: 41MB

Tracklist:
01. Prepare For Battle 02:02
02. Vengeful Madness 06:08
03. We Are The Sacrificed 09:01
******************************
Total playing time: 17:11





[more=Technical info]
Input File: 02 Vengeful Madness.mp3
Channels : 2
Sample Rate : 44100
Precision : 16-bit
Duration : 00:06:08.40 = 16246396 samples = 27629.9 CDDA sectors
File Size : 14.8M
Bit Rate : 322k
Sample Encoding: MPEG audio (layer I, II or III)
Comments :
Title=Vengeful Madness
Artist=Erzoth
Album=Demo 1
Tracknumber=2
Year=2019
Genre=Raw Black Metal/Ambient

[/more]

Register
(11) 1968_janeart, Alexis The Best, kim666, Olethros, Rosen, satanist666, SilentNidhogg, stub888, thenecromancer, vasiljev_sergej, wreak,
Jun 3 2019, 16:51:35 Throes - Throes MMXIX [demo] (2019)


*Artist: Throes
*Album: Throes MMXIX [demo]
*Year: 2019
*Genre: Black/Doom Metal
*Country: United States
*Format: mp3@CBR320kbps
*Size: 41MB

Tracklist:
01. Path To The Void 09:41
02. The Precipice And The Cynic 08:03
******************************
Total playing time: 17:44




[more=Technical info]
Input File: 02 The Precipice and the Cynic.mp3
Channels : 2
Sample Rate : 44100
Precision : 16-bit
Duration : 00:08:03.08 = 21303960 samples = 36231.2 CDDA sectors
File Size : 19.4M
Bit Rate : 321k
Sample Encoding: MPEG audio (layer I, II or III)
Comments :
Title=The Precipice and the Cynic
Artist=Throes
Album=Throes MMXIX
Tracknumber=2
Year=2019
Genre=Black/Doom Metal

[/more]

Register
(14) GorAtheist, kim666, Olethros, Precaria, robertho777, Rosen, satanist666, sergsazan, SilentNidhogg, singrad, stub888, thenecromancer, vasiljev_sergej, wreak,
Jun 3 2019, 16:41:39 Undarlih - Death Comes In Winter [demo] (2019)


*Artist: Undarlih
*Album: Death Comes In Winter [demo]
*Year: 2019
*Genre: Black Metal
*Country: Germany
*Format: mp3@CBR320kbps
*Size: 65MB

Tracklist:
01. Undarlih 05:06
02. Fear The Night 04:30
03. Wiedergänger Blues 04:11
04. Walking The Old Path 04:38
05. Death Comes In Winter 06:03
******************************
Total playing time: 24:28



[more=Technical info]
Input File: 03 Wiedergänger Blues.mp3
Channels : 2
Sample Rate : 44100
Precision : 16-bit
Duration : 00:04:11.57 = 11094369 samples = 18868 CDDA sectors
File Size : 10.2M
Bit Rate : 325k
Sample Encoding: MPEG audio (layer I, II or III)
Comments :
Title=Wiedergänger Blues
Artist=Undarlih
Album=Death comes in Winter
Tracknumber=3
Year=2019
Genre=Black Metal

[/more]

Register
(13) 1968_janeart, GorAtheist, Ildjarn, kim666, Olethros, robertho777, Rosen, satanist666, SilentNidhogg, stub888, vasiljev_sergej, Vitald, wreak,
Jun 3 2019, 16:30:55 Frost De Mexico - Frost De Mexico [demo] (2019)


*Artist: Frost De Mexico
*Album: Frost De Mexico [demo]
*Year: 2019
*Genre: Black/Doom Metal
*Country: France
*Format: mp3@CBR320kbps
*Size: 93MB

Tracklist:
01. Sunrise 04:44
02. The Released 03:57
03. Goat Cheese Attack 03:50
04. Jeanne Dark 05:04
05. Interlude 05:42
06. Jama Sarcelles 05:32
07. Gitanosaure 04:11
08. Cafe Del Sol 07:17
******************************
Total playing time: 40:17





[more=Technical info]
Input File: 03 Goat Cheese Attack.mp3
Channels : 2
Sample Rate : 44100
Precision : 16-bit
Duration : 00:03:50.83 = 10179603 samples = 17312.2 CDDA sectors
File Size : 9.28M
Bit Rate : 322k
Sample Encoding: MPEG audio (layer I, II or III)
Comments :
Title=Goat Cheese Attack
Artist=Frost de Mexico
Album=Frost de Mexico - Demo
Tracknumber=3
Year=2019
Genre=Black/Doom Metal

[/more]

Register
(13) GorAtheist, judaz, kim666, Olethros, Rosen, satanist666, sergsazan, SilentNidhogg, stub888, stumpheavyrock, thenecromancer, vasiljev_sergej, wreak,
May 10 2019, 18:30:37 Only Vendetta - Dehumanization Machine [ep] (2019)


*Artist: Only Vendetta
*Album: Dehumanization Machine [ep]
*Year: 2019
*Genre: Death Metal
*Country: Mexico
*Format: mp3@CBR320kbps
*Size: 43MB

Tracklist:
01. Cancer Of Life 04:16
02. Motherfucker 04:58
03. No Limits Fun 09:17
******************************
Total playing time: 18:31





[more=Technical info]
Input File: 01 Cancer Of Life.mp3
Channels : 2
Sample Rate : 44100
Precision : 16-bit
Duration : 00:04:16.43 = 11308651 samples = 19232.4 CDDA sectors
File Size : 10.4M
Bit Rate : 325k
Sample Encoding: MPEG audio (layer I, II or III)
Comments :
Title=Cancer Of Life
Artist=Only Vendetta
Album=Dehumanization Machine
Tracknumber=1
Year=2019
Genre=22

[/more]

Register
(5) infiltrator, Olethros, Razorbladeswaltz, Rosen, wreak,
May 10 2019, 18:17:05 Irrtum - 6010 [ep] (2019)


*Artist: Irrtum
*Album: 6010 [ep]
*Year: 2019
*Genre: Black/Death Metal
*Country: Serbia
*Format: mp3@CBR320kbps
*Size: 68MB

Tracklist:
01. 11 06:19
02. 22 03:37
03. 33 07:59
04. 44 07:29
******************************
Total playing time: 25:24






[more=Technical info]
Input File: 02 22.mp3
Channels : 2
Sample Rate : 44100
Precision : 16-bit
Duration : 00:03:37.69 = 9600129 samples = 16326.8 CDDA sectors
File Size : 8.81M
Bit Rate : 324k
Sample Encoding: MPEG audio (layer I, II or III)
Comments :
Title=22
Artist=Irrtum
Album=6010
Tracknumber=2
Year=2019
Genre=Black/Death Metal

[/more]

Register
(7) Modulator, Olethros, Rosen, SilentNidhogg, vasiljev_sergej, wreak, yuratroll,
May 10 2019, 18:01:03 Marw - Marw [demo] (2019)


*Artist: Marw
*Album: Marw [demo]
*Year: 2019
*Genre: Black Metal
*Country: United Kingdom
*Format: mp3@CBR320kbps
*Size: 38MB

Tracklist:
01. A Very Human Exit 03:42
02. Y Gân Marw 06:11
03. Propagation 06:11
******************************
Total playing time: 16:04




[more=Technical info]
Input File: 01 A Very Human Exit.mp3
Channels : 2
Sample Rate : 44100
Precision : 16-bit
Duration : 00:03:42.13 = 9795977 samples = 16659.8 CDDA sectors
File Size : 9.06M
Bit Rate : 326k
Sample Encoding: MPEG audio (layer I, II or III)
Comments :
Title=A Very Human Exit
Artist=Marw
Album=Marw
Tracknumber=1
Year=2019
Genre=Black Metal

[/more]

Register
(9) 1968_janeart, kim666, Olethros, robertho777, Rosen, SilentNidhogg, stub888, vasiljev_sergej, wreak,
May 10 2019, 17:48:50 Ardil - Colera Morbo [ep] (2019)


*Artist: Ardil
*Album: Colera Morbo [ep]
*Year: 2019
*Genre: Death Metal
*Country: Brazil
*Format: mp3@CBR320kbps
*Size: 50MB

Tracklist:
01. Colera Morbo 04:51
02. Enferma Possessão 05:05
03. Into The Hard Rain 05:01
04. The Day I Die I Hope You Laugh 05:44
******************************
Total playing time: 20:41





[more=Technical info]
Input File: 01 Colera Morbo.mp3
Channels : 2
Sample Rate : 44100
Precision : 16-bit
Duration : 00:04:51.99 = 12876583 samples = 21899 CDDA sectors
File Size : 11.8M
Bit Rate : 324k
Sample Encoding: MPEG audio (layer I, II or III)
Comments :
Title=Colera Morbo
Artist=Ardil
Album=Colera Morbo [EP]
Tracknumber=1
Year=2019
Genre=22

[/more]

Register
(4) Olethros, Rosen, vyacheslav, wreak,
May 10 2019, 17:37:39 Moeror - Sag [ep] (2019)


*Artist: Moeror
*Album: Sag [ep]
*Year: 2019
*Genre: Black Metal
*Country: Greece
*Format: mp3@CBR320kbps
*Size: 26MB

Tracklist:
01. Familiar Void 05:27
02. Sag 05:10
******************************
Total playing time: 10:37




[more=Technical info]
Input File: 01 Familiar Void.mp3
Channels : 2
Sample Rate : 44100
Precision : 16-bit
Duration : 00:05:27.33 = 14435341 samples = 24549.9 CDDA sectors
File Size : 13.2M
Bit Rate : 322k
Sample Encoding: MPEG audio (layer I, II or III)
Comments :
Title=Familiar Void
Artist=Moeror
Album=Sag
Tracknumber=1
Year=2019
Genre=Black Metal

[/more]

Register
(13) 1968_janeart, Emhyr var Emreis, Hell_Is_Here, infiltrator, kim666, Olethros, Razorbladeswaltz, robertho777, Rosen, SilentNidhogg, vasiljev_sergej, Wolftribes, wreak,
May 10 2019, 17:25:06 Lux Ferre - Lucem Ferre Dominus Sapientiae [demo] (2019)


*Artist: Lux Ferre
*Album: Lucem Ferre Dominus Sapientiae [demo]
*Year: 2019
*Genre: Black Metal
*Country: Colombia
*Format: mp3@CBR320kbps
*Size: 79MB

Tracklist:
01. Intro 02:24
02. She, The Dragon 07:42
03. Ritual Desecration Of The Catholic Bible 05:34
04. Apostasy 03:33
05. Nocturnal Hordes 06:28
06. The Wiseman's Grave Profanation 08:30
******************************
Total playing time: 34:11



[more=Technical info]
Input File: 04 Apostasy.mp3
Channels : 2
Sample Rate : 44100
Precision : 16-bit
Duration : 00:03:33.93 = 9434225 samples = 16044.6 CDDA sectors
File Size : 8.71M
Bit Rate : 326k
Sample Encoding: MPEG audio (layer I, II or III)
Comments :
Title=Apostasy
Artist=Lux Ferre
Album=Lucem Ferre Dominus Sapientiae
Tracknumber=4
Year=2019
Genre=Black Metal

[/more]

Register
(10) 1968_janeart, Ildjarn, kim666, Olethros, Razorbladeswaltz, Rosen, SilentNidhogg, thenecromancer, vasiljev_sergej, wreak,
May 10 2019, 17:16:46 Kalibur - Hyperborean Metal Black [ep] (2019)


*Artist: Kalibur
*Album: Hyperborean Metal Black [ep]
*Year: 2019
*Genre: Black Metal
*Country: Brazil
*Format: mp3@CBR320kbps
*Size: 62MB

Tracklist:
01. Battle Of The Kali Yuga 03:51
02. Kalibur, Frozen Stone Seed 05:19
03. With Blood 03:36
04. Inside Abyss 04:20
05. Sons Of Northen 03:53
06. Black Spell Of Destruction (Burzum cover) 05:55
******************************
Total playing time: 26:54





[more=Technical info]
Input File: 03 With Blood.mp3
Channels : 2
Sample Rate : 44100
Precision : 16-bit
Duration : 00:03:36.07 = 9528687 samples = 16205.2 CDDA sectors
File Size : 8.72M
Bit Rate : 323k
Sample Encoding: MPEG audio (layer I, II or III)
Comments :
Title=With Blood
Artist=Kalibur
Album=Hyperborean Metal Black
Tracknumber=3
Year=2019
Genre=Black Metal

[/more]

Register
(8) 1968_janeart, Ildjarn, kim666, Olethros, Rosen, SilentNidhogg, vasiljev_sergej, wreak,
May 10 2019, 17:05:16 Tiffo - Uni-Vos [ep] (2019)


*Artist: Tiffo
*Album: Uni-Vos [ep]
*Year: 2019
*Genre: Black Metal/Crust
*Country: Brazil
*Format: mp3@CBR320kbps
*Size: 29MB

Tracklist:
01. Pra Amar Vou Até Pra Guerra 04:34
02. Atolado Na Merda 02:37
03. Uni-vos 05:07
******************************
Total playing time: 12:18



[more=Technical info]
Input File: 02 Atolado na merda.mp3
Channels : 2
Sample Rate : 44100
Precision : 16-bit
Duration : 00:02:37.50 = 6945750 samples = 11812.5 CDDA sectors
File Size : 6.36M
Bit Rate : 323k
Sample Encoding: MPEG audio (layer I, II or III)
Comments :
Title=Atolado na merda
Artist=Tiffo
Album=Uni-vos
Tracknumber=2
Year=2019
Genre=Black Metal/Crust

[/more]

Register
(6) 1968_janeart, EvgeniusLongus, Olethros, Rosen, vasiljev_sergej, wreak,
May 10 2019, 16:57:15 Groza - Demo 2019 [demo] (2019)


*Artist: Groza
*Album: Demo 2019 [demo]
*Year: 2019
*Genre: Death Metal
*Country: Canada
*Format: mp3@CBR320kbps
*Size: 22MB

Tracklist:
01. Gavel 02:18
02. Discard 03:02
03. Blood Soaked Soil 03:57
******************************
Total playing time: 9:17



[more=Technical info]
Input File: 01.Gavel.mp3
Channels : 2
Sample Rate : 44100
Precision : 16-bit
Duration : 00:02:18.56 = 6110540 samples = 10392.1 CDDA sectors
File Size : 5.67M
Bit Rate : 328k
Sample Encoding: MPEG audio (layer I, II or III)
Comments :
Title=Gavel
Artist=Groza
Album=Demo 2019
Tracknumber=1
Year=2019
Genre=22

[/more]

Register
(4) METALHUNTER, Olethros, Rosen, wreak,
May 10 2019, 16:46:18 Valpurt - Zrozeni V Ohni [ep] (2019)


*Artist: Valpurt
*Album: Zrozeni V Ohni [ep]
*Year: 2019
*Genre: Death/Black Metal
*Country: Czech Republic
*Format: mp3@CBR320kbps
*Size: 46MB

Tracklist:
01. Zrozeni V Ohni 01:36
02. Mrakomor 04:18
03. Tmou Křídla Obvinuta 05:02
04. Železnej Kříž 04:16
05. Mistr Inkvizitor 03:28
******************************
Total playing time: 18:40




[more=Technical info]
Input File: 02 Mrakomor.mp3
Channels : 2
Sample Rate : 44100
Precision : 16-bit
Duration : 00:04:18.50 = 11399630 samples = 19387.1 CDDA sectors
File Size : 10.5M
Bit Rate : 323k
Sample Encoding: MPEG audio (layer I, II or III)
Comments :
Title=Mrakomor
Artist=Valpurt
Album=Zrozeni V Ohni
Tracknumber=2
Year=2019
Genre=Death/Black Metal

[/more]

Register
(5) Olethros, Rosen, SilentNidhogg, vasiljev_sergej, wreak,
Apr 19 2019, 15:56:19 Orbis Daemonium - Opus Contra Naturam [demo] (2019)


*Artist: Orbis Daemonium
*Album: Opus Contra Naturam [demo]
*Year: 2019
*Genre: Black Metal
*Country: Brazil
*Format: mp3@CBR320kbps
*Size: 62MB

Tracklist:
01. Prólogo 01:18
02. Hierofanias Saturnais 06:18
03. Invocatione Daemonum Orbis 06:24
04. A Carne Iniciática Dos Deuses 06:45
05. O Onirágrafo I: Ruínas Da Noite Arcaica 07:34
******************************
Total playing time: 28:19




[more=Technical info]
Input File: 02 Hierofanias Saturnais.mp3
Channels : 1
Sample Rate : 44100
Precision : 16-bit
Duration : 00:06:18.35 = 16685323 samples = 28376.4 CDDA sectors
File Size : 15.2M
Bit Rate : 321k
Sample Encoding: MPEG audio (layer I, II or III)
Comments :
Title=Hierofanias Saturnais
Artist=Orbis Daemonium
Album=Opus Contra Naturam
Tracknumber=2
Year=2019
Genre=Black Metal

[/more]

Register
(9) kim666, Olethros, Rosen, SilentNidhogg, smysl, thenecromancer, VALERY, vasiljev_sergej, vovenom,
Apr 19 2019, 15:42:13 Azagthoth & Asagrimmr - The Ancient Souls Of Sardinian Black Metal [split] (2019)


*Artist: Azagthoth & Asagrimmr
*Album: The Ancient Souls Of Sardinian Black Metal [split]
*Year: 2019
*Genre: Black Metal | Black Metal
*Country: Italy | Italy
*Format: mp3@CBR320kbps
*Size: 63MB

Tracklist:
Azagthoth:
01. Ode A Wotan 01:56
02. The Cold Pagan Mountains 03:56
03. In My Kingdom Cold 05:03

Asagrimmr:
04. Fenrir 07:31
05. Land 01:27
06. Pure Sun 06:51
******************************
Total playing time: 26:44




[more=Technical info]
Input File: 01 Ode A Wotan.mp3
Channels : 2
Sample Rate : 44100
Precision : 16-bit
Duration : 00:01:56.41 = 5133593 samples = 8730.6 CDDA sectors
File Size : 4.81M
Bit Rate : 331k
Sample Encoding: MPEG audio (layer I, II or III)
Comments :
Title=Ode A Wotan
Artist=Azagthoth
Album=The Ancient Souls Of Sardinian Black Metal
Tracknumber=1
Year=2019
Genre=Black Metal

[/more]

Register
(7) FUDEDOR, kim666, Rosen, SilentNidhogg, stub888, VALERY, vasiljev_sergej,
Apr 19 2019, 15:34:29 Inhale The Void - Step Into The Void (2019)


*Artist: Inhale The Void
*Album: Step Into The Void
*Year: 2019
*Genre: Melodic Death Metal/Metalcore
*Country: Germany
*Format: mp3@CBR320kbps
*Size: 63MB

Tracklist:
01. Intro 00:45
02. Within The Pond 04:45
03. Into The Woods 03:14
04. Sparkle 04:25
05. Ghosts Of Everyday 05:09
06. Merge 04:29
07. Stop 03:26
******************************
Total playing time: 26:13

Preview 1

[more=Technical info]
Input File: 03 Into The Woods.mp3
Channels : 2
Sample Rate : 44100
Precision : 16-bit
Duration : 00:03:14.13 = 8560957 samples = 14559.5 CDDA sectors
File Size : 7.91M
Bit Rate : 326k
Sample Encoding: MPEG audio (layer I, II or III)
Comments :
Title=Into The Woods
Artist=Inhale The Void
Album=Step Into The Void
Tracknumber=3
Year=2019
Genre=Melodic Death Metal/Metalcore

[/more]

Register
(5) Mogozoz, Olethros, Rosen, VALERY, zhol,
Apr 19 2019, 15:23:46 Extinctionism - Extinctionism [demo] (2019)


*Artist: Extinctionism
*Album: Extinctionism [demo]
*Year: 2019
*Genre: Death Metal
*Country: United States
*Format: mp3@CBR320kbps
*Size: 63MB

Tracklist:
01. A Vessel For Pain 05:00
02. Death Be His Welcome 03:37
03. Long In The Tooth 03:34
04. Kill One, Terrify A Thousand 03:37
05. Annihilation By Means Of War 03:21
06. Skin Prisons 04:32
******************************
Total playing time: 23:41




[more=Technical info]
Input File: 03 Long In The Tooth.mp3
Channels : 2
Sample Rate : 44100
Precision : 16-bit
Duration : 00:03:34.09 = 9441149 samples = 16056.4 CDDA sectors
File Size : 8.66M
Bit Rate : 323k
Sample Encoding: MPEG audio (layer I, II or III)
Comments :
Title=Long In The Tooth
Artist=Extinctionism
Album=Extinctionism
Tracknumber=3
Year=2019
Genre=22

[/more]

Register
(3) Olethros, Rosen, VALERY,
Apr 19 2019, 15:13:48 Knuckle Dragger - Ritual Abuse In The Godless South [ep] (2019)


*Artist: Knuckle Dragger
*Album: Ritual Abuse In The Godless South [ep]
*Year: 2019
*Genre: Death Metal/Grindcore/Powerviolence
*Country: United States
*Format: mp3@CBR320kbps
*Size: 34MB

Tracklist:
01. Ritual Abuse 01:38
02. The Devil's Driveway 01:49
03. Selbst Die Schonen Lieden 02:36
04. Necrobutcher 01:59
05. Biting Down On An Open Vein 01:26
06. Rise To Rot 04:40
******************************
Total playing time: 14:08




[more=Technical info]
Input File: 01 Ritual Abuse.mp3
Channels : 2
Sample Rate : 44100
Precision : 16-bit
Duration : 00:01:38.75 = 4354787 samples = 7406.1 CDDA sectors
File Size : 4.04M
Bit Rate : 327k
Sample Encoding: MPEG audio (layer I, II or III)
Comments :
Title=Ritual Abuse
Artist=Knuckle Dragger
Album=Ritual Abuse in the Godless South
Tracknumber=1
Year=2019
Genre=Death Metal/Grindcore/Powerviolence

[/more]

Register
(8) carnegrinder, METALHUNTER, Olethros, Ostinato, Rosen, wendigo, wgs73, Герб,

139 Pages V   1 2 3 > » 
- Lo-Fi Version Support form
Copyrights and abuse reports form
Time is now: 20th October 2019 - 22:49:58