Welcome Guest ( Log In | Register )

История благодарностей участнику folker ::: Спасибо сказали: 280 раз(а)
Дата поста: В теме: За сообщение: Спасибо сказали:
Nov 29 2020, 00:17:50 Burden Of Ymir - And Then Twilight Fell (2020)
Для ванменпроджекта совсем неплохо.
(1) avather,
Jul 4 2020, 00:19:45 Forod Lad - Chapter: Prologue (2020)
шлак smile2.gif
(1) RotAnus,
Mar 4 2020, 19:38:17 Tengger Cavalry - Northern Memory (Vol. 1) (2019)
ЦИТАТА(Borderline1991 @ Feb 27 2020, 14:54:13) *

гранд мерси!
(2) Borderline1991, Norge,
Jan 17 2020, 16:38:47 Evergrey - The Atlantic (2019)
Норм альбомчек, слушабельный для отдыха.
(1) Battaleon,
Oct 17 2019, 11:32:11 Borknagar - True North (2019)
ЦИТАТА(troll_swamp @ Oct 6 2019, 15:32:01) *
О! Как он поет! Как он поет! Он душу из меня вынимает Еще немножко и я не смогу его убить 25.gif
[youtube]9iATvWD2AtA[/youtube]
Simen Hestnæs шикарен если честно, что-то меня впёрло не по детски, говорите что хотите, но я в диком восторге от его вокальных дел. metaler.gif alkash.gif pray.gif


Так это не Симен, а Ларс тебя впер, да не по детски и в восторге ты от вокала Ларса smile1.gif Вообщем слушай Solefald, и будет тебе еще больше счастья smile1.gif
(2) infiltrator, troll_swamp,
Oct 1 2019, 09:38:38 Протидія - Тягар Страждання (2019)
Протидія так собі. Вистраждана smile1.gif
(1) UlvhedinGrom,
Sep 28 2019, 00:05:46 Soen - Lotus (2019)
Lascivious - мега хитяра!
(2) BleedingSun, infiltrator,
Sep 6 2019, 15:56:39 Týr - Hel (2019)
мега скукотище, ничего не запоминается, очень однотипно smile2.gif
(2) infiltrator, MeatWolf,
Jul 24 2019, 11:05:29 Eluveitie - Ategnatos (2019)
ЦИТАТА(Andrew @ Apr 7 2019, 16:08:11) *
Вот здесь с тобою согласен полностью. Так же группа никогда не вызывала позитивных эмоций. Уж слишком много флейт, сопилочек, чистого женского вокала...Не мое.


много флейт, сопилочек не бывает, если бы их не было, то никто Eluveitie и не заметил бы, растворилась бы эта команда в массе мдм вторсырья smile1.gif
(1) mittal,
Oct 23 2018, 21:03:39 Avatar - Avatar Country (2018)
раньше было круче, а сейчас уже не то
(1) Metalass,
Jul 25 2018, 20:29:06 Acherontas - Faustian Ethos (2018)
Звук лучше, мелодики больше, но не цепляет.
(1) Samogon,
Mar 9 2018, 17:54:56 Summoning - With Doom We Come (2018)
унылый подвальный dungeon...
(1) MeatWolf,
Nov 4 2017, 18:53:25 Limbonic Art - Spectre Abysm (2017)
нежданно оказалось значительно лучше, чем в 90-ые.
(1) babanguida,
Sep 5 2017, 22:45:22 Крада - Крысолов (2017)
добротно и напористо, но раньше было лучше.
(1) neoatheist,
Apr 14 2017, 00:52:55 Helengard - Firebird (2017)
ЦИТАТА(vasilisk @ Apr 14 2017, 00:40:47) *
facessspalm.png


Запиліть сюди новий альбум Ореста!:)
(2) kessler, woldemort,
Mar 26 2017, 19:33:43 Paganland - From Carpathian Land (2016)
ЦИТАТА(suseka @ Feb 1 2017, 10:20:24) *
В чем-то Бандера прав...


правий як мінімум на 90%! smile1.gif



Без чистого вокалу це музло геть однорідним стало (в одне вухо влетіло - в інше вилетіло). Розчарування smile2.gif
(1) Strid,
Mar 26 2017, 10:47:20 Древород - Я Клянусь, Что Вернусь Сюда (2016)
смакота! душевно!
(1) добрыйКот,
Feb 23 2017, 20:17:38 Sorrowful Land - Of Ruins... (2016)
так канонічно, що аж задрімав поки слухав smile1.gif однак всеодно краще, ніж Edenian.
(1) aserius,
Feb 19 2017, 23:38:10 Midgard - Wolf Clan (2016)
Якість запису порадувала, однак сам матеріал доволі вторинний та одноманітний.
(1) aserius,
Feb 15 2017, 07:59:51 Khanъ - Знамение (2016)
ЦИТАТА(DMIYUR @ Feb 14 2017, 23:22:21) *
Ссылки битые . 6.gif


вот еще пока
Register
(1) Aresson,
Jan 24 2017, 11:40:41 GreyAblaze - GreyAblaze (2016)
Типовий харківський атмоблек. Добротно, однак не чіпляє. Після кількох прослуховувань нічого не запам'яталося. smile2.gif
(1) krotovich,
Oct 25 2016, 20:34:07 Просто Горыныч - Горит Изба (2016)
ЦИТАТА(vosmidesijatye @ Oct 25 2016, 22:05:37) *
Как и 90% фолк метала.


ммм, думаю не больше 80% smile1.gif
(1) vosmidesijatye,
Oct 20 2016, 00:55:37 Ancient - Back To The Land Of The Dead (2016)
так себе возрождение
(1) vosmidesijatye,
Oct 10 2016, 23:50:52 Skinhate - НеЯкУсі (2016)


*Artist: Skinhate
*Album: НеЯкУсі
*Year: 2016
*Genre: Hardcore
*Country: Ukraine
*Format: mp3@CBR320kbps
*Size: 95MB

Tracklist:
1-32
2-Як Усі
3-Саме Зараз
4-Здатен
5-НеЯкУсі
6-Братан
7-Не Треба
8-Війна - ІІІ
9-Гасло
10-Що Дня
11-Вона (ft. Yuri, Эbola)
12-ЯZИЧNИК (Бонус Трек)
******************************
Total playing time: 55:13



[more=Technical info]
Input File: 01. 32.mp3
Channels : 2
Sample Rate : 44100
Precision : 16-bit
Duration : 00:04:15.27 = 11257319 samples = 19145.1 CDDA sectors
File Size : 10.3M
Bit Rate : 323k
Sample Encoding: MPEG audio (layer I, II or III)
Comments :
Title=32
Artist=Skinhate
Album=НеЯкУсі
Tracknumber=1
Year=2016
Genre=9

[/more]

Register
(1) Konst,
Oct 10 2016, 12:32:27 Svirnath - Il Regno Della Natura (2016)
обложка красивая, а музыка без откровений.
(1) Razorbladeswaltz,

7 Pages V   1 2 3 > » 
- Lo-Fi Version Support form
Copyrights and abuse reports form
Time is now: 3rd December 2020 - 12:14:09