Welcome Guest ( Log In | Register )

История благодарностей участнику urdung ::: Спасибо сказали: 13805 раз(а)
Дата поста: В теме: За сообщение: Спасибо сказали:
Dec 20 2016, 12:47:49 Wineta - Zanim Wstanie Dzień/Reh.’93 (2015)
320 kbps + CD & tape scans
Register
(23) artscald, Borderline1991, Darkthronefoad, dermarsoran, El_Chibo, Evilded, gena, Goatrex, Ildjarn, Legacy100, Moonshtook, morbidangelo, rom666, RUSP73, Skog1349, templ, thenecromancer, the_cleanser, toly1917, UlvhedinGrom, vasiljev_sergej, Velkaarn, wolverine,
Dec 20 2016, 08:50:07 Wineta - Zanim Wstanie Dzień/Reh.’93 (2015)


*Artist: Wineta
*Album: Zanim Wstanie Dzień/Reh.’93
*Year: 2015
*Genre: Black Metal
*Country: Poland
*Format: mp3@CBR320kbps
*Size: 40MB

Tracklist:
1. Wspomnienie
2. Krzyk Wilczych Dusz
3. We Śnie
4. Zanim Wstanie Świt
5. Track 1 (Reh.’93)
6. Track 2 (Reh.’93)
******************************
Total playing time: 17:06

[more=Technical info]
Input File: 03 - We Snie.mp3
Channels : 2
Sample Rate : 44100
Precision : 16-bit
Duration : 00:02:34.04 = 6792944 samples = 11552.6 CDDA sectors
File Size : 6.25M
Bit Rate : 325k
Sample Encoding: MPEG audio (layer I, II or III)
Comments :
Title=We ВЊnie
Artist=Wineta
Album=Zanim Wstanie DzieГ±/Reh.'93
Tracknumber=3
Year=2015
Genre=Black Metal

[/more]

Register
(10) Borderline1991, Darkthronefoad, Goatrex, kim666, morbidangelo, Rosen, the_cleanser, tont, varlam4, YDV.SVARTVIND,
Dec 19 2016, 14:09:28 Miloš Dodo Doležal - Ohněm (2016)


*Artist: Miloš Dodo Doležal
*Album: Ohněm
*Year: 2016
*Genre: Heavy Metal/Hard Rock
*Country: Czech Republic
*Format: mp3@CBR320kbps
*Size: 108MB

Tracklist:
01. Ohněm
02. Nesmíš Se Vzdát
03. Bílá Zář
04. Blaf (Slova Plynou)
05. Tvá Stopa
06. Hra
07. Eso A Král
08. Velkej Zeppelin
09. Spin
10. Dýchej
11. Viny
******************************
Total playing time: 46:14

[more=Technical info]
Input File: 06 - Hra.mp3
Channels : 2
Sample Rate : 44100
Precision : 16-bit
Duration : 00:04:10.65 = 11053533 samples = 18798.5 CDDA sectors
File Size : 10.1M
Bit Rate : 323k
Sample Encoding: MPEG audio (layer I, II or III)
Comments :
Title=Hra
Artist=MiloЕЎ Dodo DoleЕѕal
Album=OhnД›m
Tracknumber=6/11
Year=2016
Genre=Heavy Metal/Hard Rock

[/more]

Register
(6) kauyumari, METALHUNTER, Rosen, senecazm, varlam4, watasan,
Dec 19 2016, 13:57:46 Titanic - Metalovej Svátek Živě (2016)


*Artist: Titanic
*Album: Metalovej Svátek Živě
*Year: 2016
*Genre: Heavy Metal
*Country: Czech Republic
*Format: mp3@CBR320kbps
*Size: 175MB

Tracklist:
01. Ďábelská Mumie
02. Mistr Čas
03. Chaos 20. Století
04. Netvor AIDS
05. Figurína
06. Hráč
07. Zrcadlo
08. Chlapi Sobě
09. Ábel
10. Tchýně
11. Démon
12. Bludný Kruh
13. Železná Panna
14. Simulant
15. Metalový Svátek
******************************
Total playing time: 1:15:01



[more=Technical info]
Input File: 12 - Bludnej Kruh.mp3
Channels : 2
Sample Rate : 44100
Precision : 16-bit
Duration : 00:05:13.71 = 13834479 samples = 23528 CDDA sectors
File Size : 12.6M
Bit Rate : 322k
Sample Encoding: MPEG audio (layer I, II or III)
Comments :
Title=Bludnej kruh
Artist=Titanic
Album=Metalovej SvГЎtek ЕЅivД›
Tracknumber=12/15
Year=2016

[/more]

Register
(9) infiltrator, kauyumari, METALHUNTER, Mogozoz, MеtalHead, Rosen, senecazm, varlam4, watasan,
Dec 19 2016, 13:37:36 Citron - Rebelie Rebelů (2016)


*Artist: Citron
*Album: Rebelie Rebelů
*Year: 2016
*Genre: Heavy Metal
*Country: Czech Republic
*Format: mp3@CBR320kbps
*Size: 107MB

Tracklist:
01. Intro
02. Rebelie Rebelů
03. Kain A Ábel
04. Jednou
05. Píseň Ztracených
06. V Řetězech Spoutaní
07. C'mon
08. Na Křídlech Andělů
09. Hodina Dvanáctá
10. Schoulená
11. KarmaGetOn
12. Má Spověď
13. Supi Se Slétají
******************************
Total playing time: 45:49

[more=Technical info]
Input File: 06 - V Retezech Spoutani.mp3
Channels : 2
Sample Rate : 44100
Precision : 16-bit
Duration : 00:03:58.92 = 10536372 samples = 17919 CDDA sectors
File Size : 9.64M
Bit Rate : 323k
Sample Encoding: MPEG audio (layer I, II or III)
Comments :
Title=V retezech spoutani
Artist=Citron
Album=Rebelie RebelЕЇ
Tracknumber=06
Year=2016
Genre=Heavy Metal

[/more]

Register
(13) Buregon, ChrisK, csgmnk, djsema4, FILDV, kauyumari, Mogozoz, MеtalHead, popen13, rabindranad, Rosen, senecazm, watasan,
Dec 18 2016, 13:32:39 Diabolizm - Голод [single] (2016)


*Artist: Diabolizm
*Album: Голод [single]
*Year: 2016
*Genre: Black Metal
*Country: Belarus
*Format: mp3@CBR320kbps
*Size: 17MB

Tracklist:
1. Голод
******************************
Total playing time: 7:17

[more=Technical info]
Input File: 01 - Golod.mp3
Channels : 2
Sample Rate : 44100
Precision : 16-bit
Duration : 00:07:13.34 = 19110118 samples = 32500.2 CDDA sectors
File Size : 17.4M
Bit Rate : 322k
Sample Encoding: MPEG audio (layer I, II or III)
Comments :
Title=Голод
Artist=Diabolizm
Album=Golod
Tracknumber=1
Year=2016
Genre=Black Metal

[/more]

Register

Register
(15) Aresson, artscald, blacky66, Darkthronefoad, Goatrex, morbidangelo, Precaria, Rosen, satanist666, templ, tont, varg-38ru, varlam4, vasiljev_sergej, Wotanwatch,
Dec 15 2016, 20:13:30 Wotanorden - Legends Of The Valourous Fallen (2016)
320 kbps + scans
Register
(23) AndreFrancis, Angeldemon617, dasreichss, Druidir, Egoist7, Froster, Fryz, Goatrex, Ildjarn, Jurmagund, Korpse, Oldskulthrasher, Ostinato, rammmirez, rom666, RUSP73, satanist666, Scuns, suseka, thenecromancer, vader9, waldemardr, ZA670,
Dec 15 2016, 18:30:59 Wotanorden - Legends Of The Valourous Fallen (2016)


*Artist: Wotanorden
*Album: Legends Of The Valourous Fallen
*Year: 2016
*Genre: Pagan Black Metal
*Country: United States
*Format: mp3@CBR320kbps
*Size: 141MB

Tracklist:
1. A Journey Into The Nine Worlds
2. Ascension To Walhalla
3. Into The Forest Unknown
4. Summoning The Beast Within
5. Hugin And Munin
6. An Ode To The Fallen
7. What Once Was Shall Be Again
******************************
Total playing time: 1:00:21



[more=Technical info]
Input File: 05 - Hugin And Munin.mp3
Channels : 2
Sample Rate : 44100
Precision : 16-bit
Duration : 00:10:17.91 = 27249787 samples = 46343.2 CDDA sectors
File Size : 24.8M
Bit Rate : 321k
Sample Encoding: MPEG audio (layer I, II or III)
Comments :
Title=Hugin And Munin
Artist=Wotanorden
Album=Legends Of The Valorous Fallen
Tracknumber=5
Year=2016
Genre=Black Metal

[/more]

Register
(24) Buregon, DarkHorde, Goatrex, Indamage, Kehl05, kim666, LEGION69, morbidangelo, Nordavind, Old Vyaine, rammmirez, Rosen, RUDACHUR, satanist666, stone88, stub888, suseka, templ, tont, VALERY, varg-38ru, waldemardr, Wotanwatch, Абигор,
Dec 10 2016, 20:12:22 Graveland - 1050 Years Of Pagan Cult [compilation] (2016)


*Artist: Graveland
*Album: 1050 Years Of Pagan Cult [compilation]
*Year: 2016
*Genre: Pagan Black Metal
*Country: Poland
*Format: mp3@CBR320kbps
*Size: 112MB

Tracklist:
01. The Night Of Fullmoon
02. At The Pagan Samhain Night
03. Born For War
04. The Gates Of Kingdom Of Darkness
05. Hordes Of Empire
06. Thurisaz
07. For Pagan And Heretic's Blood
08. Thousand Swords
09. Black Metal War!
******************************
Total playing time: 47:56



[more=Technical info]
Input File: 06 - Thurisaz.mp3
Channels : 2
Sample Rate : 44100
Precision : 16-bit
Duration : 00:08:22.08 = 22141508 samples = 37655.6 CDDA sectors
File Size : 20.2M
Bit Rate : 321k
Sample Encoding: MPEG audio (layer I, II or III)
Comments :
Title=Thurisaz
Artist=Graveland
Album=1050 Years Of Pagan Cult
Tracknumber=06
Year=2016
Genre=Pagan Black Metal

[/more]

Register

Register
(7) fabriziomagno, lucifix, recber, rom666, soulskinner681, varg-38ru, WarmasterChorus,
Nov 29 2016, 17:33:15 Encircling Wolves - Propaganda Demo 2016 [demo] (2016)
320 kbps
Register
(4) artscald, kim666, Satanon666, stub888,
Nov 29 2016, 07:36:35 Seed Of Eden - Seed Of Eden: Act I [demo] (2016)


*Artist: Seed Of Eden
*Album: Seed Of Eden: Act I [demo]
*Year: 2016
*Genre: Black Metal
*Country: United States
*Format: mp3@CBR320kbps
*Size: 63MB

Tracklist:
1. Desolate Winter (Scene I: Desert, Scene II: Frost, Scene III: Power)
2. Onward We Ride
3. Hollow Is Thy Name
4. War Of God And Man
5. Blind Path
6. Whore Of Hell
7. Outro (Scene IV: Esoteric Experimentation)
******************************
Total playing time: 27:00

[more=Technical info]
Input File: 05 - Blind Path.mp3
Channels : 2
Sample Rate : 44100
Precision : 16-bit
Duration : 00:05:59.30 = 15845042 samples = 26947.4 CDDA sectors
File Size : 14.5M
Bit Rate : 322k
Sample Encoding: MPEG audio (layer I, II or III)
Comments :
Title=Blind Path
Artist=Seed Of Eden
Album=Seed Of Eden: Act I
Tracknumber=5
Year=2016
Genre=Black Metal

[/more]

Register
(12) Darkthronefoad, ddarkthrone, Ildjarn, kim666, Ostinato, rom666, Rosen, RUSP73, stub888, tont, VALERY, vasiljev_sergej,
Nov 29 2016, 07:32:32 Seed Of Eden - Existential Darkness [ep] (2016)


*Artist: Seed Of Eden
*Album: Existential Darkness [ep]
*Year: 2016
*Genre: Black Metal
*Country: United States
*Format: mp3@CBR320kbps
*Size: 66MB

Tracklist:
1. Eternal
2. Inferior Blood
3. Drought
4. God
5. Reality Paralysis
6. Engel
******************************
Total playing time: 28:13

[more=Technical info]
Input File: 02 - Onward We Ride.mp3
Channels : 2
Sample Rate : 44100
Precision : 16-bit
Duration : 00:01:45.26 = 4641966 samples = 7894.5 CDDA sectors
File Size : 4.30M
Bit Rate : 327k
Sample Encoding: MPEG audio (layer I, II or III)
Comments :
Title=Onward We Ride
Artist=Seed Of Eden
Album=Seed Of Eden: Act I
Tracknumber=2
Year=2016
Genre=Black Metal

[/more]

Register
(14) Buregon, ddarkthrone, Ildjarn, kim666, Razorbladeswaltz, rom666, Rosen, RUSP73, stub888, tont, VALERY, varg-38ru, varlam4, vasiljev_sergej,
Nov 27 2016, 16:17:18 Scanya - Final Solution [demo] (2015)
320 kbps + scans
Register
(6) Darkthronefoad, ddarkthrone, Ildjarn, morbidangelo, satanist666, vasiljev_sergej,
Nov 27 2016, 16:16:51 Scanya - Monopolium [demo] (2014)
320 kbps + scans
Register
(6) Darkthronefoad, ddarkthrone, Ildjarn, morbidangelo, satanist666, vasiljev_sergej,
Nov 27 2016, 16:16:16 Scanya - Totalitarianism [demo] (2013)
320 kbps + scans
Register
(6) Darkthronefoad, ddarkthrone, Ildjarn, morbidangelo, satanist666, vasiljev_sergej,
Nov 27 2016, 11:09:27 Scanya - Final Solution [demo] (2015)


*Artist: Scanya
*Album: Final Solution [demo]
*Year: 2015
*Genre: Black Metal
*Country: Brazil
*Format: mp3@CBR320kbps
*Size: 48MB

Tracklist:
1. Monopolium
2. Retaliation
3. Genocide
4. Total Peace
5. Infinite United Legions
6. Eternal Glory And Immortality
******************************
Total playing time: 20:32

[more=Technical info]
Input File: 03 - Air Bombing.mp3
Channels : 2
Sample Rate : 44100
Precision : 16-bit
Duration : 00:04:53.31 = 12934839 samples = 21998 CDDA sectors
File Size : 11.8M
Bit Rate : 322k
Sample Encoding: MPEG audio (layer I, II or III)
Comments :
Title=Air Bombing
Artist=Scanya
Album=Final Solution
Tracknumber=3
Year=2015
Genre=Black Metal

[/more]

Register
(6) Darkthronefoad, kim666, morbidangelo, Rosen, tont, varg-38ru,
Nov 27 2016, 11:06:11 Scanya - Monopolium [demo] (2014)


*Artist: Scanya
*Album: Monopolium [demo]
*Year: 2014
*Genre: Black Metal
*Country: Brazil
*Format: mp3@CBR320kbps
*Size: 37MB

Tracklist:
1. Monopolium
2. Retaliation
3. Genocide
4. Total Peace
5. Infinite United Legions
6. Eternal Glory And Immortality
******************************
Total playing time: 15:51

[more=Technical info]
Input File: 03 - Genocide.mp3
Channels : 2
Sample Rate : 44100
Precision : 16-bit
Duration : 00:03:38.25 = 9624825 samples = 16368.8 CDDA sectors
File Size : 8.82M
Bit Rate : 323k
Sample Encoding: MPEG audio (layer I, II or III)
Comments :
Title=Genocide
Artist=Scanya
Album=Monopolium
Tracknumber=3
Year=2014
Genre=Black Metal

[/more]

Register
(6) Darkthronefoad, kim666, Rosen, satanist666, tont, varg-38ru,
Nov 27 2016, 11:02:16 Scanya - Totalitarianism [demo] (2013)


*Artist: Scanya
*Album: Totalitarianism [demo]
*Year: 2013
*Genre: Black Metal
*Country: Brazil
*Format: mp3@CBR320kbps
*Size: 46MB

Tracklist:
1. Order Of Priority
2. Nuclear Warheads
3. Infinite Strenght
4. Totalitarianism
5. Triumph
6. Final Solution
******************************
Total playing time: 19:42

[more=Technical info]
Input File: 05 - Triumph.mp3
Channels : 2
Sample Rate : 44100
Precision : 16-bit
Duration : 00:02:15.59 = 5979563 samples = 10169.3 CDDA sectors
File Size : 5.51M
Bit Rate : 325k
Sample Encoding: MPEG audio (layer I, II or III)
Comments :
Title=Triumph
Artist=Scanya
Album=Totalitarianism
Tracknumber=5
Year=2013
Genre=Black Metal

[/more]

Register
(6) Darkthronefoad, kim666, Rosen, satanist666, tont, varg-38ru,
Nov 26 2016, 09:12:27 Nokturnal Warfare - Bronze Hate Insurgency [ep] (2013)
320 kbps
Register
(4) Hell_Is_Here, Ildjarn, rebornflms95, RUSP73,
Nov 25 2016, 14:09:32 Einherjar - Bearers Of The Valknut [demo] (2015)
320 kbps
Register
(2) Goatrex, rebornflms95,
Nov 25 2016, 14:08:47 Iscariota - Upadłe Królestwo (2016)
320 kbps
Register
(2) AHBAnep, Buregon,
Nov 25 2016, 12:22:15 Einherjar - We Struck With Our Swords [demo] (2015)


*Artist: Einherjar
*Album: We Struck With Our Swords [demo]
*Year: 2015
*Genre: Black/Death Metal
*Country: United States
*Format: mp3@CBR320kbps
*Size: 16MB

Tracklist:
1. We Struck With Our Swords
******************************
Total playing time: 6:51

[more=Technical info]
Input File: 01 - We Struck With Our Swords.mp3
Channels : 2
Sample Rate : 44100
Precision : 16-bit
Duration : 00:06:48.94 = 18034078 samples = 30670.2 CDDA sectors
File Size : 16.4M
Bit Rate : 322k
Sample Encoding: MPEG audio (layer I, II or III)
Comments :
Title=We Struck With Our Swords
Artist=Einherjar
Album=We Struck With Our Swords
Tracknumber=1
Year=2015
Genre=Black Metal

[/more]

Register
(2) Goatrex, Rosen,
Nov 25 2016, 12:19:36 Einherjar - Holocaustic Church Devastation [demo] (2015)


*Artist: Einherjar
*Album: Holocaustic Church Devastation [demo]
*Year: 2015
*Genre: Black/Death Metal
*Country: United States
*Format: mp3@CBR320kbps
*Size: 8MB

Tracklist:
1. Holocaustic Church Devastation
******************************
Total playing time: 3:26

[more=Technical info]
Input File: 01 - Holocaustic Church Devastation (Black Witchery Cover).mp3
Channels : 2
Sample Rate : 44100
Precision : 16-bit
Duration : 00:03:34.33 = 9451997 samples = 16074.8 CDDA sectors
File Size : 8.66M
Bit Rate : 323k
Sample Encoding: MPEG audio (layer I, II or III)
Comments :
Title=Holocaustic Church Devastation (Black Witchery Cover)
Artist=Einherjar
Album=Holocaustic Church Devastation (Black Witchery Cover)
Tracknumber=1
Year=2015
Genre=Black Metal

[/more]

Register
(2) Goatrex, Rosen,
Nov 25 2016, 12:16:12 Einherjar - Bearers Of The Valknut [demo] (2015)


*Artist: Einherjar
*Album: Bearers Of The Valknut [demo]
*Year: 2015
*Genre: Black/Death Metal
*Country: United States
*Format: mp3@CBR320kbps
*Size: 24MB

Tracklist:
1. March Of The Barbarians
2. Onward To Valhalla
3. Blood Eagle
4. Valkyrie
5. Feasting On A Giant
******************************
Total playing time: 10:16

[more=Technical info]
Input File: 02 - Onward To Valhalla.mp3
Channels : 2
Sample Rate : 44100
Precision : 16-bit
Duration : 00:02:44.43 = 7251495 samples = 12332.5 CDDA sectors
File Size : 6.67M
Bit Rate : 324k
Sample Encoding: MPEG audio (layer I, II or III)
Comments :
Title=Onward to Valhalla
Artist=Einherjar
Album=Bearers Of The Valknut
Tracknumber=2
Year=2015
Genre=Black Metal

[/more]

Register
(2) Goatrex, Rosen,
Nov 25 2016, 10:53:21 Iscariota - Upadłe Królestwo (2016)


*Artist: Iscariota
*Album: Upadłe Królestwo
*Year: 2016
*Genre: Heavy/Thrash Metal
*Country: Poland
*Format: mp3@CBR320kbps
*Size: 83MB

Tracklist:
1. Fora Ze Dwora!
2. Judasz (Iscariota)
3. Sny O Potędze
4. Koleżanka Szklanka
5. Płonę
6. Bastion
7. Martwi Bogowie Miasta
8. Upadłe Królestwo
******************************
Total playing time: 35:35

[more=Technical info]
Input File: 05 - Plone.mp3
Channels : 2
Sample Rate : 44100
Precision : 16-bit
Duration : 00:04:28.12 = 11824180 samples = 20109.1 CDDA sectors
File Size : 10.8M
Bit Rate : 323k
Sample Encoding: MPEG audio (layer I, II or III)
Comments :
Title=PЕ‚onД™
Artist=Iscariota
Album=UpadЕ‚e KrГіlestwo
Tracknumber=05/08
Year=2016
Genre=Thhrash/Heavy Metal

[/more]

Register
(5) Buregon, METALHUNTER, morbidangelo, Rosen, SymbyoticEntity,

62 Pages V   1 2 3 > » 
- Lo-Fi Version Support form
Copyrights and abuse reports form
Time is now: 22nd August 2019 - 15:33:22