Welcome Guest ( Log In | Register )

История благодарностей участнику as71 ::: Спасибо сказали: 3201 раз(а)
Дата поста: В теме: За сообщение: Спасибо сказали:
May 27 2022, 17:50:36 Kajkyt - Krst (2010)
ЦИТАТА(vosmidesijatye @ 27th May 2022 - 19:13:15) *
Что есть такое иллбиент?

Больной эмбиент, если прямо переводить, а вот что на эту тему примерно написано в сети:
Стиль illbient это четко выраженная и сознательно создаваемая городская форма электронной музыки, стремящаяся выразить культурное разнообразие и серый упадок всего окружающего. Поэтому переигранные DJ Spooky (музыкант, определяющий этот стиль), электронные попурри в стиле Illbient в большинстве берут начало из музыки ambient, но могут включать ( в основном) dub, hip-hop и drum'n'bass, плюс иногда этническую музыку, которая может смешиваться со всеми музыкальными стилями и направлениями. Соответствуя настроениям, распространенным в среде развития этого стиля, illbient может быть мрачным и немного зловещим или непредсказуемым и погруженным в шум. Но почти всегда сохраняется его размеренный ритм и минорные вибрации.
В тех релизах, которые выкладывал я, этим тэгом описывается тяжелый, вязкий и мрачный индустриальный даб.
(1) vosmidesijatye,
May 26 2022, 17:53:03 Kajkyt - Krst (2010)


*Artist: Kajkyt
*Album: Krst
*Year: 2010
*Genre: Illbient/Dub/Experimental/Industrial
*Country: Austria
*Format: mp3@CBR320kbps
*Size: 170MB

Tracklist:
01. ...1... 20:53
02. ...2... 23:26
03. ...3... 19:30
04. ...4... 11:50
******************************
Total playing time: 1:15:39



[more=Extended info]Personal purchase[/more]

[more=Technical info]
Input File: 04 - ...4....mp3
Channels : 2
Sample Rate : 44100
Precision : 16-bit
Duration : 00:11:50.18 = 31318982 samples = 53263.6 CDDA sectors
File Size : 28.4M
Bit Rate : 320k
Sample Encoding: MPEG audio (layer I, II or III)
Comments :
Title=...4...
Artist=kajkyt
Album=Krst
Tracknumber=04
Year=2010
Genre=Illbient/Dub

[/more]

Register
(1) Infidel,
May 26 2022, 17:42:13 SIMM - Too Late To Dream (2021)


*Artist: SIMM
*Album: Too Late To Dream
*Year: 2021
*Genre: Illbient/Dub/Industrial
*Country: Italy
*Format: mp3@CBR320kbps
*Size: 103MB

Tracklist:
01. Boxed 04:19
02. Civil War (feat. Flowdan) 02:56
03. Mangled 04:56
04. Too Late To Dream (feat. Flowdan) 03:18
05. Butterfly (feat. Flowdan) 02:55
06. Gqom Squbulo (feat. Phelimuncasi) 04:03
07. The Space I Left 04:51
08. Knives Path (feat. Flowdan) 03:17
09. Too Late To Dream 04:38
10. A Loud Darkness 05:17
11. Hope Spectre 04:17
******************************
Total playing time: 44:47



[more=Technical info]
Input File: 01 - Boxed.mp3
Channels : 2
Sample Rate : 44100
Precision : 16-bit
Duration : 00:04:19.57 = 11447037 samples = 19467.8 CDDA sectors
File Size : 10.5M
Bit Rate : 323k
Sample Encoding: MPEG audio (layer I, II or III)
Comments :
Title=Boxed
Artist=SIMM
Album=Too Late To Dream
Tracknumber=01
Year=2021
Genre=Illbient/Dub/Industrial

[/more]

Register
(3) DJAHAN, Infidel, Xor,
May 25 2022, 18:33:54 Mercyful Fate - Don't Break The Oath (1984)
Non-remastered CD (1984, USA, Roadrunner Records, RR 9835-2), DR11
Register
(1) Occultas,
May 23 2022, 12:59:31 Sadist - Firescorched (2022)
ЦИТАТА(maxmagmas @ 23rd May 2022 - 14:06:37) *
Оккультизм, сатанизм, антихристианство и прочее подобное. С относительно недавних пор для меня такое слушать и поддерживать стало неприемлемо. Многие группы, в том числе культовые и любимые более 30 лет, посыпались.

Позиция вызывает уважение, но ведь если ей жестко следовать, то мало чего из метал-репертуара останется для прослушивания, 2/3 отвалится, особенно из дэта, блэка.
(1) BleedingSun,
May 23 2022, 12:49:02 Septicflesh - Modern Primitive (2022)
ЦИТАТА(BleedingSun @ 23rd May 2022 - 13:50:21) *
По большому счету - все, что вы написали о сабже - можете применить к любому альбому, начиная с 2008 года.
Вот. Этот альбом как раз очень сильно напомнил мне Комьюнион - все так же красиво, целостно и мощно. И хочется слушать ещё и ещё. Невероятный поток энергии.
Возможно - просто не ваш тип музыки.
Имеете право

Сперва не понял даже, к кому именно ты обращаешься - на "вы" то не надо, я ж еще не настолько стар smile1.gif.
Мне у Септиков нравились Ophidian Wheel и Sumerian Daemons, поменьше Revolution DNA, ну и The Great Mass/Titan чем-то необычным для меня в свое время были. А сейчас я все эти симфонизмы с трудом стал переваривать, что в блэке, что в дэте, что в думе.
(1) BleedingSun,
May 23 2022, 11:45:55 Septicflesh - Modern Primitive (2022)
BleedingSun, вот уж действительно вштырило тебя не по-детски, мне даже как-то неловко свой отзыв после таких восторгов оставлять, но ничего не поделаешь.
Наверное, худшее из прослушанного мной за этот год. Не то, чтобы я чего-то особенного от них ожидал, поэтому к разочарованиям альбом не отнесу, но по факту имеем: невразумительный, вторичный по отношению к самим же себе материал, полное отсутствие свежих идей, зато сверх всякой меры пафоса и напыщенности, вдобавок какие-то совершенно отвратительные блеющие вокалы то тут то там, да еще и записано с чудовищным закомпрессированным звуком. Ужас.
(1) vpetrov,
May 21 2022, 00:24:03 Gardenian - Soulburner (1999)
Gardenian - 1999 Soulburner FLAC (image+cue+scans)
Register
(1) Deni,
May 20 2022, 13:34:11 Sadist - Firescorched (2022)
ЦИТАТА(BleedingSun @ 20th May 2022 - 14:54:48) *
Ну так Садистов старпераами ваще назвать язык не поворачиваеца, ни один альбом не звучит пенсионна и вымученна.

Как раз после выхода предыдущего альбома начали появляться такие мысли и если бы на новом группа продолжила двигаться по нисходящей, то можно было сказать о явном творческом кризисе. Но нет, могут еще, собрались и выдали отличный материал. Хотя я-то вообще ничего хорошего не ждал - посмотрел клип какой-то, он мне не понравился, думал, и альбом будет проходной, а тут сюрприз.
(1) BleedingSun,
May 20 2022, 12:46:31 Sadist - Firescorched (2022)
ЦИТАТА(BleedingSun @ 20th May 2022 - 14:19:29) *
А то что-то местные "корифеи" обе новинки разом "обложили", что Септиков, что сабж hmm.gif

Не читай ты мнения корифеев этих, а лучше послушай сам альбом.
Непосредственно по сабжу: альбом хорош, как говорится - зачот! Специально, дабы оценить его в некоторой ретроспективе, прослушал в один присест 4 крайних альбома Садиста, начиная с весьма понравившегося мне в свое время Season Of Silence (Hyaena и Spellbound не оставили заметных следов в памяти, помню только, что слушал их).
Так вот, скажу, что Hyaena в целом вполне на уровне SIS, может, лишь немного ему уступает, не так изящно звучит и звук похуже, более зажатый. Spellbound - этот уже послабее будет, грубоват для Садиста, как по материалу, так и по звуку, но тоже отнюдь не провальный. Ну а новый неожиданно порадовал - прослушал его, правда, всего один раз, но на данный момент из всей четверки мне лучше всего зашел именно он. То ли новые участники свою роль сыграли, то ли еще что, но звучит не вымученно, как это часто у старперов бывает, а, наоборот, очень свежо. Явно один из лучших альбомов года.
(2) BleedingSun, vosmidesijatye,
May 18 2022, 13:54:08 Golgothan Remains - Adorned In Ruin (2022)
Чисто по-человечески твоя зависть вполне понятна. Нет сомнений, что ты сумел справиться с элементарными математическими расчетами и теперь недоумеваешь, почему при вдвое большем количестве сообщений у тебя в три раза меньше спасибок. Не расстраивайся - усерднее работай над собой, развивайся, и все придет! Удачи!
(1) WOLAND,
May 18 2022, 11:22:31 Golgothan Remains - Adorned In Ruin (2022)
ЦИТАТА(WOLAND @ 9th April 2022 - 14:54:22) *
Заметил у групп в названиях которых есть слово ,,Remains,, нет плохого материала.

Думаю, это опрометчивое утверждение. Вот сколько групп со словом Remains в названии из 131-й по данным МА ты слышал? Я навскидку вспомнил только две: Vital Remains и Skeletal Remains и как минимум у второй, если и не самого плохого, то уж совершенно проходного материала - вагон с верхом, собственно, это вся их дискография, за исключением дебютного альбома. Но этих я послушаю.
(1) Occultas,
May 18 2022, 06:20:53 Blut Aus Nord - Disharmonium - Undreamable Abysses (2022)
ЦИТАТА(AHBAnep @ 17th May 2022 - 22:03:07) *
И кто доказал, что поток хуже звучит, чем флак?
Если и тащу что получше, то чисто ради того, чтоб сомнения не было. Максимализм, мать его.

Вот как раз из-за максимализма я альбом и не послушал, подожду пока. Нонешний рип, несмотря на честные 320, закодирован Xing-ом, а тот, кто давно занимается оцифровкой, знает, что это самый наихудший mp3-кодировщик из всех возможных. Лучший - Lame, затем Fraunghofer, были ещё всякие Gogo, Blade, ну и на последнем месте по всем тестам всегда был Xing, я уж давно не встречал его, но оказалось, до сих пор кто-то пользуется.
(1) Occultas,
May 17 2022, 13:59:42 Blut Aus Nord - Disharmonium - Undreamable Abysses (2022)
Да не услышит обычный человек 20 КГц ни в попе, ни в роке, ни в метале, тем более в том возрасте, в котором пребывает большая часть юзеров МА - если кто-то слышит 16 КГц, то уже респект ему. Настоящий слепой тест все провалят, если только феномен какой-нибудь не отыщется, поэтому не надо переживать на этот счет. А насчет ступеньки на 16-ти интересная информация, но не уверен - посмотрю дома, что-то мне помнится, что я и на проверенных рипах такое встречал.
(1) AHBAnep,
May 11 2022, 07:44:20 Suffocation - Breeding The Spawn (1993)
ЦИТАТА(gobblin @ 9th May 2022 - 17:13:36) *
Переиздание (возможно, неофициальное, не знаю чьё) с самым вменяемым звуком - мощным и читаемым, можно расслышать все детали, все мелочи, участвующие в формировании неповторимости этого альбома, который на порядок сложнее дебютника и лишь немного уступает в изяществе Pierced From Within, хотя и злее их обоих. Чё-то в последнее время в основном его только и слушаю.

Хотел было подвергнуть такой ремастринг жесткой критике за более чем двукратное сужение динамического диапазона в сравнении с исходником, но послушал и... пожалуй, соглашусь с автором - в данном конкретном случае именно такой звук предпочтительнее пересушенного оригинала, альбом зазвучал не в пример жирнее, мясистее и правильнее для этой стилистики.
Непонятно, что это за ремастер: на МА и Дискогсе значится, что в 2018 г. альбом был переиздан только на виниле, плюс на Дискогсе упоминается еще российская реплика и на этом все. А частота дискретизации (48 КГц) соответствует не CD, а винилу или хай-резу, но на винил это точно не похоже, значит, какой-то цифровой вариант.
(2) gobblin, Occultas,
May 9 2022, 22:12:24 Rhys Fulber - Collapsing Empires (2022)


*Artist: Rhys Fulber
*Album: Collapsing Empires
*Year: 2022
*Genre: Industrial/Techno
*Country: Canada
*Format: mp3@CBR320kbps
*Size: 126MB

Tracklist:
01. Concrete Cogitation 05:46
02. Collapsing Empires 07:09
03. Dead Reckon 04:58
04. Glory To Labour 07:30
05. Transfiguration 04:48
06. As Far As Dreams 07:02
07. Dronegail 03:38
08. Palace Of Pioneers 06:23
09. Empire Collapse 06:26
******************************
Total playing time: 53:40



[more=Technical info]
Input File: 01 - Concrete Cogitation.mp3
Channels : 2
Sample Rate : 44100
Precision : 16-bit
Duration : 00:05:46.30 = 15271874 samples = 25972.6 CDDA sectors
File Size : 13.9M
Bit Rate : 320k
Sample Encoding: MPEG audio (layer I, II or III)
Comments :
Title=Concrete Cogitation
Artist=￾Rhys Fulber
Album=Collapsing Empires
Tracknumber=01
Year=2022
Genre=Industrial/Techno

[/more]

Register
(7) BERZERK, Dragonballz, gwar, Haunting, Hell_Is_Here, Jackyl, spazm,
May 5 2022, 07:31:46 Rammstein - Zeit (2022)
ЦИТАТА(Ghostb @ 4th May 2022 - 21:26:40) *
Да что-то ругают сильно его, слушабельно? SPECTRE - последний, что мне понравился.

Ругать-то его не за что, это ведь концептуальная работа, в которой смысловое содержание не менее важно, чем музыкальная составляющая. Для меня как раз гораздо привлекательнее их более доступные для восприятия работы - тот же Spectre, WAT, Jesus Christ Superstars, Volk, NATO и т.п., и слушать их крайний альбом, особенно в качестве противопоставления сабжу, я тебе не посоветую, вряд ли понравится.
(1) Ghostb,
May 4 2022, 18:58:35 Anaal Nathrakh - Endarkenment (2020)
CD-rip mp3@320 с японского издания с бонус-трэком (который, к слову, ничего интересного из себя не представляет, т.к. не сильно отличается от оригинала):
Register
(1) Occultas,
May 3 2022, 23:42:27 Metaorganism - I:Baphomet (2008)


*Artist: Metaorganism
*Album: I:Baphomet
*Year: 2008
*Genre: Dark Ambient/Industrial
*Country: Finland
*Format: mp3@CBR320kbps
*Size: 147MB

Tracklist:
01. I:I 13:08
02. I:II 03:24
03. I:III 11:15
04. I:IV 09:40
05. I:V 11:42
06. I:VI 15:19
******************************
Total playing time: 1:04:28



[more=Extended info]Единственный альбом сольного эмбиентно-индустриального проекта вокалиста/клавишника Thergothon.
Рип с оригинального CDR, спектры - уж какие есть, в этом жанре такое не редкость.[/more]

[more=Technical info]
Input File: 04 - I-IV.mp3
Channels : 2
Sample Rate : 44100
Precision : 16-bit
Duration : 00:09:39.61 = 25560977 samples = 43471 CDDA sectors
File Size : 23.2M
Bit Rate : 320k
Sample Encoding: MPEG audio (layer I, II or III)
Comments :
Title=I:IV
Artist=Metaorganism
Album=I:Baphomet
Tracknumber=04
Year=2008
Genre=Dark Ambient/Industrial

[/more]

Register
(1) Hell_Is_Here,
May 1 2022, 20:47:16 At The Gates - The Nightmare Of Being (2021)
Для тех, кто не выносит сиплый вокал Томаса Линдберга - инструментальная версия альбома, бонусный CD к делюксовому изданию:
Register
(1) Emm Human,
Apr 29 2022, 16:32:16 Lusca - Broken Colossus (2018)


*Artist: Lusca
*Album: Broken Colossus
*Year: 2018
*Genre: Industrial Doom Metal
*Country: Germany
*Format: mp3@CBR320kbps
*Size: 109MB

Tracklist:
01. Broken Colossus 05:12
02. The Promise Of Sleep 05:35
03. Between Storm And Salt 05:39
04. Light Vessel Automaton 10:15
05. Procession Of Bleeding Hands 06:06
06. Kraton 06:20
07. Apeiron 07:16
******************************
Total playing time: 46:25



[more=Technical info]
Input File: 03 - Between Storm And Salt.mp3
Channels : 2
Sample Rate : 44100
Precision : 16-bit
Duration : 00:05:39.22 = 14959646 samples = 25441.6 CDDA sectors
File Size : 13.7M
Bit Rate : 323k
Sample Encoding: MPEG audio (layer I, II or III)
Comments :
Title=Between Storm And Salt
Artist=Lusca
Album=Broken Colossus
Tracknumber=03
Year=2018
Genre=Industrial Doom Metal

[/more]

Register
(16) Alextoner, artscald, caro, gwar, Hell_Is_Here, HMHamster, khestanow3001, Olethros, quarantine, Reverend, Shadechaser, supremo, VALERY, varlam4, vlad74, Wail,
Apr 29 2022, 16:25:56 Lusca - Exodus (2011)


*Artist: Lusca
*Album: Exodus
*Year: 2011
*Genre: Industrial Doom Metal
*Country: Germany
*Format: mp3@CBR320kbps
*Size: 151MB

Tracklist:
01. The Sleeping Fields 07:36
02. A Kingdom Torn Asunder 07:40
03. Lead Into Gold 06:28
04. Last Miles Of The Road 07:39
05. Pilgrim 10:11
06. Ghost Net 07:53
07. Exodus 16:06
******************************
Total playing time: 1:03:33



[more=Technical info]
Input File: 01 - The Sleeping Fields.mp3
Channels : 2
Sample Rate : 44100
Precision : 16-bit
Duration : 00:07:36.05 = 20111717 samples = 34203.6 CDDA sectors
File Size : 18.5M
Bit Rate : 324k
Sample Encoding: MPEG audio (layer I, II or III)
Comments :
Title=The Sleeping Fields
Artist=Lusca
Album=Exodus
Tracknumber=01
Year=2011
Genre=Industrial Doom Metal

[/more]

Register
(15) artscald, caro, gwar, Hell_Is_Here, HMHamster, khestanow3001, metala, Olethros, quarantine, Reverend, Shadechaser, supremo, VALERY, varlam4, Wail,
Apr 29 2022, 11:11:52 The Gathering - Beautiful Distortion (2022)
ЦИТАТА(6666666 @ 29th April 2022 - 12:51:58) *
Похоже на первые два?

Не похоже и разве были какие-то предпосылки к этому? Вероятность возврата к истокам у этой группы вряд ли намного выше чем, скажем, у Ульвера.
(1) Ghostb,
Apr 28 2022, 20:46:35 Dying Of The Light - Dying Of The Light [ep] (2010)


*Artist: Dying Of The Light
*Album: Dying Of The Light [ep]
*Year: 2010
*Genre: Industrial/Doom Metal
*Country: New Zealand
*Format: mp3@CBR320kbps
*Size: 40MB

Tracklist:
01. Suffer The Fall 04:56
02. Hegemony 04:20
03. Skyscraper Blues 02:23
04. Initiation+Sacrifice 04:04
******************************
Total playing time: 15:44



[more=Technical info]
Input File: 01 - Suffer The Fall.mp3
Channels : 2
Sample Rate : 44100
Precision : 16-bit
Duration : 00:04:56.48 = 13074900 samples = 22236.2 CDDA sectors
File Size : 12.0M
Bit Rate : 324k
Sample Encoding: MPEG audio (layer I, II or III)
Comments :
Title=Suffer The Fall
Artist=Dying Of The Light
Album=Dying Of The Light (EP)
Tracknumber=01
Year=2010
Genre=Industrial/Doom Metal

[/more]

Register
(15) artscald, caro, chipsgott, Dante_D, gwar, Hell_Is_Here, HMHamster, metala, Olethros, quarantine, Shadechaser, VALERY, varlam4, Vitald, Wail,
Apr 25 2022, 11:23:22 Celestial Season - Mysterium I (2022)
Я про мужа впервые сейчас прочитал, пришлось даже на MA посмотреть, что это за перец такой. Впрочем, это неважно, вот Jason Kohnen - фигура действительно примечательная и очень плодовитая, задействованная не в одном десятки разнообразных проектов, по большей части не имеющих отношения к метал-сцене. Помимо TKDE, есть у него еще, например, очень известный jungle/raggacore/breakcore проект Bong-Ra (который почему-то присутствует в базе MA несмотря на косвенное отношение к металлу).
(1) Ghostb,

21 Pages V   1 2 3 > » 
- Lo-Fi Version Support form
Copyrights and abuse reports form
Time is now: 29th May 2022 - 07:27:51