Welcome Guest ( Log In | Register )

История благодарностей участнику as71 ::: Спасибо сказали: 493 раз(а)
Дата поста: В теме: За сообщение: Спасибо сказали:
Yesterday, 23:31:36 Mlada Fronta - No Trespassing (2018)


*Artist: Mlada Fronta
*Album: No Trespassing
*Year: 2018
*Genre: Synthwave/Retrowave/Dark Synth
*Country: France
*Format: mp3@CBR320kbps
*Size: 104MB

Tracklist:
01. Deathdreams 04:01
02. The Warriors 04:57
03. No Trespassing 04:35
04. Magnus The Avenger 05:12
05. From Hell 04:08
06. Faceless Man 04:45
07. Arcade Rider 04:50
08. The Night Hunter 04:33
09. Dead Or Alive 04:23
10. Imminent Danger 03:36
******************************
Total playing time: 45:01



[more=Extended info]Remy Pelleschi aka Mlada Fronta на стыке тысячелетий выпустил несколько отличных электро-индустриальных альбомов, а несколько лет назад внезапно сменил стилистику и заиграл набиравший популярность синтвейв.[/more]

[more=Technical info]
Input File: 01 - Deathdreams.mp3
Channels : 2
Sample Rate : 44100
Precision : 16-bit
Duration : 00:04:01.57 = 10653237 samples = 18117.8 CDDA sectors
File Size : 9.66M
Bit Rate : 320k
Sample Encoding: MPEG audio (layer I, II or III)
Comments :
Title=Deathdreams
Artist=Mlada Fronta
Album=No Trespassing
Tracknumber=01
Year=2018
Genre=Electro/Synthwave/Dark Synth

[/more]

Register
(5) acerbus, Brann, FUDEDOR, gwar, Olethros,
Yesterday, 18:59:36 Bogus Blimp - Cords.Wires (2000)


*Artist: Bogus Blimp
*Album: Cords.Wires
*Year: 2000
*Genre: Experimental/Noir/Rock
*Country: Norway
*Format: mp3@CBR320kbps
*Size: 108MB

Tracklist:
01. Hello World 00:50
02. Brothers Of Space 04:01
03. No Cords. No Wires 03:40
04. Marching To Rome 00:38
05. By Five O'Clock Tea 02:58
06. King Inst. King 04:48
07. The End Of The World 03:18
08. Under The Sea 05:23
09. Oxygen XX 01:21
10. Sugar And Fear 03:20
11. Making Room For God 05:48
12. Flight To The Future 08:02
13. Things To Come 03:11
******************************
Total playing time: 47:19



[more=Extended info]Норвежская экспериментальная группа, давно уже не существующая, выпустила три альбома на лейбле Kristoffer-а Rygg-а, Jester Records; это ее второй альбом. Музыка очень странная, не знаю даже, с чем сравнить можно, иногда вроде что-то похожее на ульверовские эксперименты проскакивает, но только на уровне ощущений, музыка разная.[/more]

[more=Technical info]
Input File: 02 - Brothers Of Space.mp3
Channels : 2
Sample Rate : 44100
Precision : 16-bit
Duration : 00:04:01.44 = 10647504 samples = 18108 CDDA sectors
File Size : 9.66M
Bit Rate : 320k
Sample Encoding: MPEG audio (layer I, II or III)
Comments :
Title=Brothers Of Space
Artist=Bogus Blimp
Album=Cords.wires
Tracknumber=02
Year=2000
Genre=Experimental/Noir/Rock

[/more]

Register
(6) atom72, Daale, infiltrator, metala, Olethros, Rosen,
Feb 19 2020, 18:04:08 Ulver - Russian Doll [single] (2020)
Конечно, не синтвейв это, ну а если кто вдруг еще не слышал, как звучит синтвейв с ульверовским вокалом, но хочет услышать, то сейчас на модерации как раз лежит альбом Carpenter Brut, так там на втором треке Гарм поет. Послушайте и сравните.
(3) Baudolino, Daale, infiltrator,
Feb 19 2020, 17:56:08 Carpenter Brut - Leather Teeth (2018)


*Artist: Carpenter Brut
*Album: Leather Teeth
*Year: 2018
*Genre: Synthwave/Retrowave/Dark Synth
*Country: France
*Format: mp3@CBR320kbps
*Size: 79MB

Tracklist:
01. Leather Teeth 03:53
02. Cheerleader Effect (feat. Kristoffer Rygg) 03:38
03. Sunday Lunch 03:15
04. Monday Hunt 02:56
05. Inferno Galore 03:49
06. Beware The Beast (feat. Mat McNerney) 03:46
07. Hairspray Hurricane 05:32
08. End Titles 05:23
******************************
Total playing time: 32:12



[more=Technical info]
Input File: 01 - Leather Teeth.mp3
Channels : 2
Sample Rate : 44100
Precision : 16-bit
Duration : 00:03:53.03 = 10276535 samples = 17477.1 CDDA sectors
File Size : 9.32M
Bit Rate : 320k
Sample Encoding: MPEG audio (layer I, II or III)
Comments :
Title=Leather Teeth
Artist=Carpenter Brut
Album=Leather Teeth
Tracknumber=01
Year=2018
Genre=Synthwave/Retrowave/Dark Synth

[/more]

Register
(8) Brann, Daale, Dragonballz, FUDEDOR, gwar, Olethros, plfan93, xska,
Feb 19 2020, 17:49:11 Sigillum S - Astronomic Horror (2016)


*Artist: Sigillum S
*Album: Astronomic Horror
*Year: 2016
*Genre: Industrial/Dark Ambient/Noise/Experimental
*Country: Italy
*Format: mp3@CBR320kbps
*Size: 87MB

Tracklist:
01. Flawless Brothels Behind Fake Moon Crust 03:34
02. Illogical Punishment From Universal Laws 04:05
03. Do They Reap Dissected Bodies On Aborted Space Missions 02:59
04. A Liquefied Craft Crossing Occult Land Among Dimensions 03:39
05. Resonating On Black Death Teeth 04:35
06. Angels Burning Wings On Mercury's White Side 04:44
07. Erogenous Vacuum In Heretic Sciences 04:08
08. Pathological Particles Through Infected Planets 03:36
09. Re-Arranged Futures And Geography From Exploded Systems 02:52
10. Inorganica Suprema 02:52
******************************
Total playing time: 37:05

[more=Technical info]
Input File: 02 - Illogical Punishment From Universal Laws.mp3
Channels : 2
Sample Rate : 48000
Precision : 16-bit
Duration : 00:04:05.33 = 11775888 samples ~ 18399.8 CDDA sectors
File Size : 9.95M
Bit Rate : 325k
Sample Encoding: MPEG audio (layer I, II or III)
Comments :
Title=Illogical Punishment From Universal Laws
Artist=Sigillum S
Album=Astronomic Horror
Tracknumber=02
Year=2016
Genre=Industrial/Dark Ambient/Noise/Experimental

[/more]

Register
(3) Angry_Chair, FUDEDOR, Olethros,
Feb 18 2020, 22:21:04 Sigillum S - The Irresistible Art Of Space Colonization And Its Mutation Implications (2018)


*Artist: Sigillum S
*Album: The Irresistible Art Of Space Colonization And Its Mutation Implications
*Year: 2018
*Genre: Industrial/Electronic/Dark Ambient/Experimental
*Country: Italy
*Format: mp3@CBR320kbps
*Size: 111MB

Tracklist:
01. Occult Storage For Pan-Dronic Glossalia 04:05
02. Wrong Proto - Matter Gravitation 04:56
03. Genetically-Engineered Insects 06:46
04. When Comets Become Organic Households 04:36
05. Through The Endless Streams Of Satellite Euphoria 07:27
06. Immortality 04:26
07. Deep Void Plantations 04:33
08. Let Ghosts And Floating Bodies Invade You 03:28
09. Celestial Heliocentric Cultures 07:41
******************************
Total playing time: 47:58



[more=Extended info]Крайний альбом заслуженного итальянского индустриального коллектива. В составе многостаночник Eraldo Bernocchi (SIMM, Equations Of Eternity, Ashes, Metallic Taste Of Blood, Obake, Black Engine, etc.).[/more]

[more=Technical info]
Input File: 02 - Wrong Proto - Matter Gravitation.mp3
Channels : 2
Sample Rate : 44100
Precision : 16-bit
Duration : 00:04:56.42 = 13072078 samples = 22231.4 CDDA sectors
File Size : 11.9M
Bit Rate : 320k
Sample Encoding: MPEG audio (layer I, II or III)
Comments :
Title=Wrong Proto - Matter Gravitation
Artist=Sigillum S
Album=The Irresistible Art Of Space Colonization And Its Mutation Implications
Tracknumber=02
Year=2018
Genre=Industrial/Electronic/Dark Ambient/Experimental

[/more]

Register
(6) Angry_Chair, FUDEDOR, Infidel, Olethros, popen13, thenecromancer,
Feb 17 2020, 20:13:24 Vatican Shadow - American Flesh For Violence (2019)


*Artist: Vatican Shadow
*Album: American Flesh For Violence
*Year: 2019
*Genre: Techno/Industrial/Experimental
*Country: United States
*Format: mp3@CBR320kbps
*Size: 138MB

Tracklist:
01. The Base In The Land Of The Two Rivers (Al Farooq) 05:43
02. Hardened Garage (The Have And Have Nots) 04:41
03. Inherit The Ruins 05:03
04. Desert Father (Return To Desert Storm) 06:07
05. Peace Means Violence 03:55
06. They Always Fight The Last War 03:57
07. Unknown To The Peacock The Serpent And Scorpion Conspire (Alessandro Cortini Remix) 05:06
08. Take Vows (Ancient Methods Remix) 05:12
09. The House Of The Followers (JK Flesh) 05:41
10. Jordanian Descent (Sharia Law) (CUB Remix) 14:38
******************************
Total playing time: 1:00:04



[more=Extended info]As part of the series of the 9th anniversary of the project arrives "American Flesh For Violence", featuring both moody and dense unreleased tracks from the archives as well as a companion of remixes throughout the projects history featuring: Alessandro Cortini, Ancient Methods, CUB, and JK Flesh.[/more]

[more=Technical info]
Input File: 01 - The Base In The Land Of The Two Rivers (Al Farooq).mp3
Channels : 2
Sample Rate : 44100
Precision : 16-bit
Duration : 00:05:43.51 = 15148615 samples = 25763 CDDA sectors
File Size : 13.9M
Bit Rate : 324k
Sample Encoding: MPEG audio (layer I, II or III)
Comments :
Title=The Base In The Land Of The Two Rivers (Al Farooq)
Artist=Vatican Shadow
Album=American Flesh For Violence
Tracknumber=01
Year=2019
Genre=Techno/Industrial/Experimental

[/more]

Register
(8) abob, Angry_Chair, Der_Hexer, FUDEDOR, Infidel, Olethros, popen13, xska,
Feb 15 2020, 00:10:43 Ulver - Russian Doll [single] (2020)


*Artist: Ulver
*Album: Russian Doll [single]
*Year: 2020
*Genre: Synthpop
*Country: Norway
*Format: mp3@CBR320kbps
*Size: 9MB

Tracklist:
01. Russian Doll 03:57
******************************
Total playing time: 3:57



[more=Technical info]
Input File: 01 - Russian Doll.mp3
Channels : 2
Sample Rate : 44100
Precision : 16-bit
Duration : 00:03:57.08 = 10455096 samples = 17780.8 CDDA sectors
File Size : 9.51M
Bit Rate : 321k
Sample Encoding: MPEG audio (layer I, II or III)
Comments :
Title=Russian Doll
Artist=Ulver
Album=Russian Doll (single)
Tracknumber=01
Year=2020
Genre=Synthpop

[/more]

Register
(17) Aresson, atom72, DarkYantar, FUDEDOR, gena, Grev, gwar, hellbibber, helvetestoner, infiltrator, mad, nadin85, Olethros, Sylvi, Thunderbird, wtk.412, xska,
Feb 14 2020, 21:12:21 300 000 V.K. - Peter Paradox (2019)


*Artist: 300 000 V.K.
*Album: Peter Paradox
*Year: 2019
*Genre: Industrial/Electronic/Experimental
*Country: Slovenia
*Format: mp3@CBR320kbps
*Size: 98MB

Tracklist:
01. Das Schöne, Das Gute, Das Wahre 03:20
02. Paradosso Misterioso 04:30
03. S+C 06:19
04. La Consolazione 04:33
05. Smisel 05:36
06. Carnales Nihilismus 04:07
07. Zona Erogena 03:26
08. Beyond Death 05:47
09. Dobro 04:50
******************************
Total playing time: 42:29



[more=Extended info]Новый альбом проекта Dejan Knez, бывшего участника Laibach, первый после 14-летнего перерыва. В отличие от предыдущих записей, местами как раз Laibach и напоминает.[/more]

[more=Technical info]
Input File: 02 - Paradosso Misterioso.mp3
Channels : 2
Sample Rate : 44100
Precision : 16-bit
Duration : 00:04:30.25 = 11918201 samples = 20269 CDDA sectors
File Size : 10.8M
Bit Rate : 320k
Sample Encoding: MPEG audio (layer I, II or III)
Comments :
Title=Paradosso Misterioso
Artist=300 000 V.K.
Album=Peter Paradox
Tracknumber=02
Year=2019
Genre=Industrial/Electronic

[/more]

Register
(4) lucifix, Olethros, popen13, wtk.412,
Feb 14 2020, 20:53:22 Ordo Rosarius Equilibrio - Let's Play (Two Girls & A Goat) (2019)


*Artist: Ordo Rosarius Equilibrio
*Album: Let's Play (Two Girls & A Goat)
*Year: 2019
*Genre: Neofolk
*Country: Sweden
*Format: mp3@CBR320kbps
*Size: 139MB

Tracklist:
01. Forty Years After Null (There's No Answer To The Riddle) 03:13
02. Two Girls And A Goat (I Never Knew…) 05:37
03. Evil Wears A Mask With Your Name 04:19
04. I Met Jesus In A Dream (Till Illusions Fall Apart) 05:27
05. Let's Play Said The Rose To The Goat 03:32
06. This Is Life This Is War (Let's Play And Make Believe) 04:58
07. This Knife Will Steal Your Heart - Let's Waken The Judas In You 05:13
08. There's No Pride Love Is Dead (Kiss My Eyes And Crush My Head) 06:00
09. Anoint Me With Vomit, And Desecrate My Beliefs 04:28
10. There's A Chalice With My Semen (And Another With My Blood) 04:07
11. [Social Darwinist Contortion] Who Is Born To Rule The World? 03:28
12. Ménage À Trois - There Is Nothing To Regret 04:41
13. The Hierophant & The Devil (You Taste Like Innocence, And Broken Dreams) 04:32
******************************
Total playing time: 59:35



[more=Technical info]
Input File: 01 - Forty Years After Null (There\'s No Answer To The Riddle).mp3
Channels : 2
Sample Rate : 44100
Precision : 16-bit
Duration : 00:03:12.93 = 8508125 samples = 14469.6 CDDA sectors
File Size : 8.20M
Bit Rate : 340k
Sample Encoding: MPEG audio (layer I, II or III)
Comments :
Title=Forty Years After Null (There's No Answer To The Riddle)
Artist=Ordo Rosarius Equilibrio
Album=Let's Play (Two Girls & A Goat)
Tracknumber=01
Year=2019
Genre=Neofolk

[/more]

Register
(13) Angry_Chair, Cartman223, Der_Hexer, Druidir, Evjenne, FUDEDOR, gwar, Infidel, Irimias, Konst, leks, Olethros, wtk.412,
Feb 12 2020, 20:18:07 Оцепеневшие - Разрыв Связи [compilation] (2017)


*Artist: Оцепеневшие
*Album: Разрыв Связи [compilation]
*Year: 2017
*Genre: Doom Metal/Doomgaze/Drone/Industrial
*Country: Russian Federation
*Format: mp3@CBR320kbps
*Size: 340MB

Tracklist:
01. 24 212 дней 09:19
02. 23 000 23:14
03. L.B.C.E.S.B. 15:15
04. Противление 09:44
05. Enter The Void 13:52
06. ДАЕРММУАЗУАЯ 13:47
07. Sonne Der Toten 08:46
08. Zun 08:13
09. Scotobasis (feat. Circle Of Unexisted) 09:51
10. На Западном фронте (Nichts Neues Rework of Банда Четырёх) 07:55
11. The Unknown Kadath In The Cold Waste (Nightmare Edit of Thergothon) 07:59
12. The Black (Septic Version of ВИРЬ) 07:41
13. Ce Qui Ne Trompe Pas (feat. Вирь, live @ Шоколадная Фабрика, 18.10.2014) 09:32
******************************
Total playing time: 2:25:09



[more=Extended info]Personal purchaise[/more]

[more=Technical info]
Input File: 01 - 24 212 дней.mp3
Channels : 2
Sample Rate : 44100
Precision : 16-bit
Duration : 00:09:19.19 = 24660059 samples = 41938.9 CDDA sectors
File Size : 22.4M
Bit Rate : 320k
Sample Encoding: MPEG audio (layer I, II or III)
Comments :
Title=24 212 дней
Artist=Оцепеневшие
Album=Разрыв связи (compilation)
Tracknumber=01
Year=2017
Genre=Doom Metal/Doomgaze/Drone/Industrial

[/more]

Register
(8) ASkyThatBurns, infiltrator, Olethros, Ostin Devil, oversorrow, Rosen, stub888, VALERY,
Feb 8 2020, 00:03:07 Вирь / Александр Кибанов - В Конце Ноября (2017)


*Artist: Вирь / Александр Кибанов
*Album: В Конце Ноября
*Year: 2017
*Genre: Sludge/Drone/Experimental
*Country: Russian Federation
*Format: mp3@CBR320kbps
*Size: 92MB

Tracklist:
01. Golem 03:17
02. Marceline 03:36
03. Leviathan 09:14
04. Mårran 04:09
05. Nummulite 06:57
06. Kraken 11:17
******************************
Total playing time: 38:30



[more=Extended info]Personal purchaise[/more]

[more=Technical info]
Input File: 02 - Marceline.mp3
Channels : 2
Sample Rate : 44100
Precision : 16-bit
Duration : 00:03:36.47 = 9546107 samples = 16234.9 CDDA sectors
File Size : 8.81M
Bit Rate : 326k
Sample Encoding: MPEG audio (layer I, II or III)
Comments :
Title=Marceline
Artist=ВИРЬ/Александр Кибанов
Album=В конце ноября
Tracknumber=02
Year=2017
Genre=Sludge/Drone/Experimental

[/more]

Register
(9) ASkyThatBurns, Boozer, Infidel, infiltrator, Olethros, Rosen, tamerz, Un4given, VALERY,
Feb 2 2020, 20:29:45 Nordvargr - Daath (2019) (2) Hell_Is_Here, NOMIDIMON,
Jan 31 2020, 09:17:53 Tiamat - The Scarred People (2012)
ЦИТАТА(Exorcist @ 31st January 2020 - 10:40:31) *
Эдлунду хорошо. Эдлунд в зоне комфорта. Плохо мне. Ибо я раз за разом получаю альбомы Tiamat, несколько не дотягивающие до того уровня, который я жду от Эдлунда.

Странная какая-то постановка вопроса... это что же получается, он должен такую музыку сочинять, чтобы тебе было хорошо, а ему плохо и некомфортно? Зачем ему-то это надо?
ЦИТАТА(Exorcist @ 31st January 2020 - 10:40:31) *
Такой Tiamat нам не нужен.

Непонятные обобщения какие-то... кому это "нам"? Мне вот альбом очень нравится, думаю, что и не мне одному.
(1) nekroport,
Jan 26 2020, 21:08:05 Various Artists - Metalwave Compilation - Altars Of Synthness [compilation] (2014)


*Artist: Various Artists
*Album: Metalwave Compilation - Altars Of Synthness [compilation]
*Year: 2014
*Genre: Synthwave/Retrowave
*Country: Many
*Format: mp3@CBR320kbps
*Size: 185MB

Tracklist:
01. Dan Terminus - Call From The Grave (Bathory) 04:11
02. Vincenzo Salvia - Dirge For November (Opeth) 06:49
03. Fixions - Under The Surface (Morgoth) 04:36
04. Beatbox Machinery - The Gate Of Inanna (Beherit) 04:36
05. Antroid Aubroid - Nostalgia (Gorguts) 06:32
06. Nitelight - Crystal Mountain (Death) 04:26
07. Mach Rider - Dead Skin Mask (Slayer) 05:00
08. Dan Terminus - Genital Grinder II (Carcass) 02:52
09. The Deathless - Raining Blood (Slayer) 03:46
10. Fixions - Tomhet (Burzum) 05:52
11. A Space Love Adventure - Transilvanian Hunger (Darkthrone) 05:04
12. Drifting Dreamer - Freezing Moon (Mayhem) 03:54
13. Denovomutans - The Cry Of Mankind (My Dying Bride) 04:49
14. Hydraulic Anus - You Suffer (Napalm Death) 00:05
******************************
Total playing time: 1:02:52



[more=Extended info]+ scans[/more]

[more=Technical info]
Input File: 01 - Dan Terminus - Call From The Grave (Bathory).mp3
Channels : 2
Sample Rate : 44100
Precision : 16-bit
Duration : 00:04:11.16 = 11076068 samples = 18836.9 CDDA sectors
File Size : 10.3M
Bit Rate : 327k
Sample Encoding: MPEG audio (layer I, II or III)
Comments :
Title=Dan Terminus: Call From The Grave (Bathory)
Artist=Compilation
Album=Metalwave Compilation - Altars Of Synthness
Tracknumber=01
Year=2014
Genre=Synthwave/Retrowave

[/more]

Register
(6) Cartman223, emogrinder, Evilded, KKK1488, popen13, wtk.412,
Jan 25 2020, 11:35:35 Stillife - XX - Live [live] (2018)


*Artist: Stillife
*Album: XX - Live [live]
*Year: 2018
*Genre: Gothic Rock/Darkwave
*Country: Russian Federation
*Format: mp3@VBR243kbps
*Size: 126MB

Tracklist:
01. When Lights Go Outside... 03:28
02. Last Hope 04:43
03. The Wait 04:22
04. Fragile 03:39
05. Remember Me 04:30
06. In Memory 03:13
07. Relief 03:54
08. Destiny 04:36
09. Living For You 04:38
10. Never Crossing Lines 05:08
11. Black Lambs Three 03:49
12. In The Hut 04:36
13. Ongoing Overrides 04:17
14. Shattered 04:52
15. Timeless 04:34
16. Only Silence MMXVIII 06:13
******************************
Total playing time: 1:10:32

Preview 1

[more=Technical info]
Input File: 02 - Last Hope.mp3
Channels : 2
Sample Rate : 44100
Precision : 16-bit
Duration : 00:04:42.52 = 12459132 samples = 21189 CDDA sectors
File Size : 8.93M
Bit Rate : 253k
Sample Encoding: MPEG audio (layer I, II or III)
Comments :
Title=Last Hope
Artist=Stillife
Album=XX - Live
Tracknumber=02
Year=2018
Genre=Darkwave

[/more]

Register
(3) A.L.Rapsod, Cartman223, Olethros,
Jan 24 2020, 23:58:35 Bohren & Der Club Of Gore - Patchouli Blue (2020)


*Artist: Bohren & Der Club Of Gore
*Album: Patchouli Blue
*Year: 2020
*Genre: Dark Jazz
*Country: Germany
*Format: mp3@CBR320kbps
*Size: 140MB

Tracklist:
01. Total Falsch 07:18
02. Verwirrung Am Strand 05:15
03. Glaub Mir Kein Wort 05:10
04. Patchouli Blue 09:07
05. Deine Kusine 03:15
06. Vergessen & Vorbei 05:22
07. Sollen Es Doch Alle Wissen 03:34
08. Tief Gesunken 04:15
09. Zwei Herzen Aus Gold 03:14
10. Sag Mir, Wie Lang 07:39
11. Meine Welt Ist Schön 05:15
******************************
Total playing time: 59:25



[more=Technical info]
Input File: 01 - Total Falsch.mp3
Channels : 2
Sample Rate : 44100
Precision : 16-bit
Duration : 00:07:18.39 = 19332911 samples = 32879.1 CDDA sectors
File Size : 17.5M
Bit Rate : 320k
Sample Encoding: MPEG audio (layer I, II or III)
Comments :
Title=Total Falsch
Artist=Bohren & Der Club Of Gore
Album=Patchouli Blue
Tracknumber=01
Year=2020-20-20
Genre=Dark Jazz

[/more]

Register
(34) Battaleon, BERZERK, Branis, comradEnemy, denvist, DMIYUR, Evilded, Fryz, garmonbozia, gena, gwar, Hell_Is_Here, Infidel, judaz, Konst, LazarShadow, Lord Noctua, lucifix, marilin, milosdjor, mirotvorets, nadin85, Old Vyaine, Peikko, ripper33, SatanicPanzer, Shadechaser, Shure, Sjelekval, spazm, Sphinx7, tOmV, Un4given, Герб,
Jan 24 2020, 19:13:23 Various Artists - All For None, None For All: A Tribute To Peter Steele [compilation] (2011)


*Artist: Various Artists
*Album: All For None, None For All: A Tribute To Peter Steele [compilation]
*Year: 2011
*Genre: Death/Black Metal
*Country: International
*Format: mp3@CBR320kbps
*Size: 141MB

Tracklist:
01. Auvernia - I Don't Wanna Be Me 03:40
02. Faitytale Abuse - Black No, 1 (Little Miss Scare-All) 04:41
03. Stabbingback - Halloween In Heaven 05:05
04. Emancer - My Girlfriend's Girlfriend 04:14
05. Dead Shape Figure - Dead Again 04:24
06. Enthrope - Wolf Moon (Including Zoanthropic Paranoia) 05:54
07. Dark Hound - Life Is Killing Me 06:07
08. A Band Of Orcs - Green Man 05:05
09. In.Verno - Everything Dies 04:47
10. Blind Greed - Christian Woman 07:58
11. Revilement - Sex And Violence 03:22
12. Autumn Eyes - Love You To Death 07:40
******************************
Total playing time: 1:02:57



[more=Extended info]+ booklet & wallpapers
codec - Fraunhofer[/more]

[more=Technical info]
Input File: 01 - Auvernia - I Don't Wanna Be Me.mp3
Channels : 2
Sample Rate : 44100
Precision : 16-bit
Duration : 00:03:40.05 = 9704381 samples = 16504 CDDA sectors
File Size : 8.80M
Bit Rate : 320k
Sample Encoding: MPEG audio (layer I, II or III)
Comments :
Title=Auvernia: I Don't Wanna Be Me
Artist=Compilation
Album=All For None, None For All: A Tribute To Peter Steele
Tracknumber=01
Year=2011
Genre=Death Metal/Black Metal

[/more]

Register
(18) Battaleon, caro, chipsgott, cist, craP_cillA, Grev, Hell_Is_Here, infiltrator, kluval, legion01, marilin, morbidangelo, multizwilling, robertho777, Rosen, skinnyboo, VALERY, vasiljev_sergej,
Jan 22 2020, 20:34:52 Various Artists - Godflesh Streetcleaner: The Cvlt Nation Sessions [compilation] (2019)


*Artist: Various Artists
*Album: Godflesh Streetcleaner: The Cvlt Nation Sessions [compilation]
*Year: 2019
*Genre: Industrial Metal/Industrial/Noise
*Country: Many
*Format: mp3@CBR320kbps
*Size: 133MB

Tracklist:
01. Street Sects - Like Rats 04:23
02. American - Christbait Rising 08:57
03. Lunacy - Pulp 04:33
04. At The Heart Of The World - Dream Long Dead 04:49
05. Treha Sektori - Head Dirt 04:31
06. Many Blessings - Devastator / Mighty Trust Krusher 10:17
07. Hissing - Life Is Easy 07:39
08. Statiqbloom - Streetcleaner 06:52
09. Atriarch - Locust Furnace 04:34
******************************
Total playing time: 56:34



[more=Extended info]Средний паршивости трибьют на культовый альбом. Только для упертых фанатов и коллекционеров.[/more]

[more=Technical info]
Input File: 01 - Street Sects - Like Rats.mp3
Channels : 2
Sample Rate : 44100
Precision : 16-bit
Duration : 00:04:23.46 = 11618674 samples = 19759.6 CDDA sectors
File Size : 10.5M
Bit Rate : 320k
Sample Encoding: MPEG audio (layer I, II or III)
Comments :
Title=Street Sects: Like Rats
Artist=Compilation
Album=GODFLESH Streetcleaner: The CVLT Nation Sessions
Tracknumber=01
Year=2019
Genre=Industrial Metal/Industrial/Noise

[/more]

Register
(6) Cartman223, Hell_Is_Here, marilin, Occultas, wendigo, wtk.412,
Jan 22 2020, 05:34:22 Oceansize - Effloresce (2003)
ЦИТАТА(Ghostb @ 22nd January 2020 - 02:58:48) *
Здесь и прогрессивные моменты имеются. Приятный диск, лучший у группы. Длинные треки ближе к концу особенно нравятся.

Всё так. Приобрел себе этот альбом и следующий, так тот вообще ни о чём, а этот очень понравился.
(1) Ghostb,
Jan 15 2020, 21:00:34 Distel - Wapens (2018)


*Artist: Distel
*Album: Wapens
*Year: 2018
*Genre: Industrial/Experimental/Angst Pop/Power Electronics
*Country: Netherlands
*Format: mp3@CBR320kbps
*Size: 102MB

Tracklist:
01. Alpha 03:57
02. Wapens 04:20
03. Majestik 03:18
04. Anima 04:17
05. Ultra 03:55
06. Creole 03:48
07. Adem 04:22
08. Nachtland 06:55
09. Maskers 03:44
10. Advent 05:28
******************************
Total playing time: 44:04




[more=Extended info]"...Мистическая шумовая электроника, базирующаяся на минималистичных структурах, приглушённый зловещий вокал, атмосфера чего-то необъяснимо тревожного, парадоксального и инопланетного. Проект примечателен тем, что избегая экстремальных приёмов в плане саунда и визуальной эстетики, создает уникальный психоделический образ, в котором чувствуется особенное, только самим авторам до конца понятное отчаяние. Их последний релиз "Wapens", изданный культовым немецким лейблом Ant-Zen, не стал исключением из общего правила; напротив, оригинальная сюрреал-стилистика, присутствовавшая на предыдущих альбомах, в контексте актуального материала оказалась отшлифована до блеска, если так можно говорить о жанре ангст-поп..."

Из ближайших ориентиров, наверное, Haus Arafna.[/more]

[more=Technical info]
Input File: 01 - Alpha.mp3
Channels : 2
Sample Rate : 44100
Precision : 16-bit
Duration : 00:03:57.65 = 10480453 samples = 17823.9 CDDA sectors
File Size : 9.51M
Bit Rate : 320k
Sample Encoding: MPEG audio (layer I, II or III)
Comments :
Title=Alpha
Artist=Distel
Album=Wapens
Tracknumber=01
Year=2018
Genre=Industrial/Experimental/Angst Pop/Power Electronics

[/more]

Register
(4) Angry_Chair, DJAHAN, garmonbozia, Olethros,
Jan 14 2020, 19:22:15 Neutral - The World Of Disbelief (2019)


*Artist: Neutral
*Album: The World Of Disbelief
*Year: 2019
*Genre: Dark Folk
*Country: Russian Federation
*Format: mp3@VBR261kbps
*Size: 82MB

Tracklist:
01. The World Of Disbelief 05:50
02. Ghost Of All Wars 03:58
03. In The Wastelands Of Mine 04:43
04. Carvings In Stone 05:53
05. Beyond The Emptiness (Playroom II) 05:19
06. Bury 04:44
07. Unholy Day 06:08
08. When The Story Ends 05:57
******************************
Total playing time: 42:33



[more=Extended info]Не очень много альбомов слушал в данном стиле, а понравилось так и совсем мало что, но вот этот недавно прослушанный альбом как-то сразу зацепил.[/more]

[more=Technical info]
Input File: 01 - The World Of Disbelief.mp3
Channels : 2
Sample Rate : 44100
Precision : 16-bit
Duration : 00:05:50.43 = 15454051 samples = 26282.4 CDDA sectors
File Size : 11.4M
Bit Rate : 261k
Sample Encoding: MPEG audio (layer I, II or III)
Comments :
Title=The World Of Disbelief
Artist=Neutral
Album=The World Of Disbelief
Tracknumber=01
Year=2019
Genre=Dark Folk

[/more]

Register
(9) A.L.Rapsod, atom72, Cartman223, Druidir, gwar, lucifix, oldvarg, Olethros, tOmV,
Jan 12 2020, 18:41:36 Oceansize - Effloresce (2003)


*Artist: Oceansize
*Album: Effloresce
*Year: 2003
*Genre: Alternative Rock
*Country: United Kingdom
*Format: mp3@CBR320kbps
*Size: 173MB

Tracklist:
01. I Am The Morning 04:18
02. Catalyst 06:40
03. One Day All This Could Be Yours 04:20
04. Massive Bereavement 09:59
05. Rinsed 03:58
06. You Wish 06:00
07. Remember Where You Are 05:22
08. Amputee 05:33
09. Unravel 02:50
10. Women Who Love Men Who Love Drugs 08:30
11. Saturday Morning Breakfast Show 09:04
12. Long Forgotten 08:58
******************************
Total playing time: 1:15:32



[more=Extended info]Не знаю, как правильно определить стиль, в котором играет группа, есть и весьма тяжелые фрагменты, а местами похоже на пост-рок... пусть будет альтернативный рок. Альбом отличный.[/more]

[more=Technical info]
Input File: 02 - Catalyst.mp3
Channels : 2
Sample Rate : 44100
Precision : 16-bit
Duration : 00:06:40.12 = 17645116 samples = 30008.7 CDDA sectors
File Size : 16.0M
Bit Rate : 320k
Sample Encoding: MPEG audio (layer I, II or III)
Comments :
Title=Catalyst
Artist=Oceansize
Album=Effloresce (Russian edition)
Tracknumber=02
Year=2003
Genre=Alternative Rock

[/more]

Register
(2) Ghostb, Olethros,
Jan 12 2020, 17:37:01 Depressor - Burn The Illusion [demo] (1996)
Спасибо за наводку, по ссылке на бэндкампе качнул альбом и сборник. Люблю такие окологодфлешевские вещи, а вот этой команды не знал.
(2) infiltrator, Proteus_666,
Jan 12 2020, 17:24:30 Nordvargr - Daath (2019)


*Artist: Nordvargr
*Album: Daath
*Year: 2019
*Genre: Industrial/Dark Ambient
*Country: Sweden
*Format: mp3@CBR320kbps
*Size: 85MB

Tracklist:
01. Inner Monarch Awakened 02:40
02. The Horsemen Ride Out On Foaming Steeds 04:41
03. Tabernakelvisa - The Redeemer And The Secret 03:49
04. Death Closes The Gates Of Time And Opens Those Of Eternity 04:38
05. Invocation Of The Unseen 04:20
06. As King, As Queen - When Kingdom Collide 05:13
07. The Light Of The Lord And The Black Sun Behind The Sun 06:16
08. Where There Is Word There Is Enlightenment 05:25
******************************
Total playing time: 37:01



[more=Technical info]
Input File: 02 - The Horsemen Ride Out On Foaming Steeds.mp3
Channels : 2
Sample Rate : 44100
Precision : 16-bit
Duration : 00:04:40.73 = 12380193 samples = 21054.8 CDDA sectors
File Size : 12.6M
Bit Rate : 360k
Sample Encoding: MPEG audio (layer I, II or III)
Comments :
Title=The Horsemen Ride Out On Foaming Steeds
Artist=Nordvargr
Album=Daath
Tracknumber=02
Year=2019
Genre=Industrial/Dark Ambient

[/more]

Register
(14) emogrinder, FUDEDOR, gena, Infidel, mirotvorets, NOMIDIMON, Olethros, RUSP73, sethurius, stone88, thenecromancer, tOmV, wolverine, wtk.412,

4 Pages V   1 2 3 > » 
- Lo-Fi Version Support form
Copyrights and abuse reports form
Time is now: 21st February 2020 - 23:13:21