Welcome Guest ( Log In | Register )

История благодарностей участнику Лицемер ::: Спасибо сказали: 846 раз(а)
Дата поста: В теме: За сообщение: Спасибо сказали:
Jan 8 2018, 20:09:49 Mortum Demonstro - Паноптикум (2017)


*Artist: Mortum Demonstro
*Album: Паноптикум
*Year: 2017
*Genre: Symphonic Black/Death Metal
*Country: Russian Federation
*Format: mp3@CBR320kbps
*Size: 74MB

Tracklist:
01. Ступи В Паноптикум 1:51
02. Тёмная Сторона Красоты 3:03
03. Рождённый Из Хаоса 3:46
04. Мёртвый Легион 3:42
05. Предтеча Великого Уравнителя 3:48
06. Парадокс 4:18
07. Мистерия 1:13
08. Некромантика 3:18
09. Философия Упадка 3:34
10. Разрушитель Миров 3:35
11. Зеркала 3:40
12. Перекрёстки Миров 1:13
******************************
Total playing time: 37:01



[more=Extended info]3ий студийник one-man-band, созданный Lord Mictian'ом (Оренбург).
Стафф стал более музыкальным, насыщенным, продуманным и емким как в плане музыки, так и текстов.[/more]

[more=Technical info]
Input File: 02 - Тёмная Сторона Красоты.mp3
Channels : 2
Sample Rate : 44100
Precision : 16-bit
Duration : 00:03:03.14 = 8076650 samples = 13735.8 CDDA sectors
File Size : 7.32M
Bit Rate : 320k
Sample Encoding: MPEG audio (layer I, II or III)
Comments :
Title=Тёмная Сторона Красоты
Artist=Mortum Demonstro
Album=Паноптикум
Tracknumber=2
Year=2017
Genre=Symphonic Black/Death

[/more]

Register
(8) kimkayoung, Ludwig Hagen, Mogozoz, Rosen, SymbyoticEntity, VALERY, varlam4, vasiljev_sergej,
Dec 18 2016, 17:23:25 Exegutor & Sagotorium - Standart [split] (2016)


*Artist: Exegutor & Sagotorium
*Album: Standart [split]
*Year: 2016
*Genre: Grindcore | Industrial Grindcore
*Country: Belarus | Belarus
*Format: mp3@CBR320kbps
*Size: 60MB

Tracklist:
Sagotorium:
01. Бойся 2:39
02. Потом И Кровью 1:43
03. Черные Жирафы 1:52
04. Синяя Исповедь 2:18
05. Не Лай 2:01
06. Сквозь Пальцы 1:49
Exegutor:
07. Грайндкор Антыхалiфат 2:42
08. Г.Р.А.Д. 2:14
09. Ради Своей Бабы 3:22
10. Постхардкор 2:49
11. Ваенкаматы [Deviation Cover] 3:38
******************************
Total playing time: 27:07



[more=Technical info]
Input File: 01 - Sagotorium - Бойся.mp3
Channels : 2
Sample Rate : 44100
Precision : 16-bit
Duration : 00:02:38.97 = 7010709 samples = 11923 CDDA sectors
File Size : 6.49M
Bit Rate : 327k
Sample Encoding: MPEG audio (layer I, II or III)
Comments :
Title=Бойся
Artist=Sagotorium
Album=Standart (Sagotorium & Exegutor Split)
Tracknumber=1
Year=2016
Genre=Grindcore

[/more]

Register
(8) dm_372761, Hell_Is_Here, Lanceatum, Moonshtook, morbidangelo, Rosen, satanist666, Tular,
Sep 23 2016, 18:15:20 Domination Through Impurity - Essence Of Brutality (2005)
mp3@320kbps (CD-rip):
Register
(1) grinderrr,
Apr 27 2016, 13:47:54 Various Artists - Play Fast Or Don't (Czech Extreme HC Compilation) [compilation] (2008)


*Artist: Various Artists
*Album: Play Fast Or Don't (Czech Extreme HC Compilation) [compilation]
*Year: 2008
*Genre: Grindcore/Punk/Fastcore/Hardcore/Powerviolence
*Country: Czech Republic
*Format: mp3@CBR160kbps
*Size: 49MB

Tracklist:
01. Lahar - Prazdne Oci 1:21
02. Lahar - Skladanka 1:10
03. Lahar - Deciever (Napalm Death) 0:42
04. Saywhy - Chranit A Pomahat 1:09
05. Saywhy - Nezvany Host 1:21
06. Sheeva Yoga - Navnada 0:52
07. Sheeva Yoga - Boj Za Cistou Mysl Chemickymi Zbranemi 1:05
08. Sheeva Yoga - Vokuhila 0:19
09. Needful Things - Narrator 0:30
10. Needful Things - One Day Hero 1:35
11. Prumyslova Smrt - Vsichni Jedne Krve 0:40
12. Prumyslova Smrt - Znameni Smrti 0:49
13. Prumyslova Smrt - Amerika Fuck 0:57
14. Prumyslova Smrt - Pripravte Se 0:57
15. Hibakusha - Pozledni Az 2:05
16. Hibakusha - Bez Milosti 0:58
17. Gride - O Nicem 1:11
18. Gride - Instinct Of Survival [Napalm Death Cover] 2:28
19. Kobrall - 1 1:09
20. Kobrall - 2 1:08
21. Lycanthrophy - Greasy Machinery 0:47
22. Lycanthrophy - The Mask Of Arrogance 1:17
23. Rabies - Proc 0:31
24. Rabies - Neni To Hra 0:43
25. Rabies - Zijes Jenom Jednou 0:48
26. Rabies - Zmena 0:35
27. Rabies - Dropdead Cover 1:01
28. Scarto - Rychle A Rychleji 0:27
29. Scarto - Brno Mesto Pozeru 0:44
30. Scarto - Fabrika 2:17
31. Grex - Form With No Substantiality 0:59
32. Grex - Dead Planet 1:20
33. Grex - Propagation 0:28
34. Depresy Mouse - Navzdy Spoutan 0:52
35. Depresy Mouse - Vykupne 1:33
36. Depresy Mouse - Legionar 0:38
******************************
Total playing time: 37:26

Register
(3) Rosen, varlam4, Герб,
Apr 27 2016, 12:37:29 Gride & Disturbio & Račak & Malignant Tumour - Gride/Disturbio/Račak/Malignant Tumour [split] (2004)


*Artist: Gride & Disturbio & Račak & Malignant Tumour
*Album: Gride/Disturbio/Račak/Malignant Tumour [split]
*Year: 2004
*Genre: Grindcore/Crust/Fastcore | Grindcore | Grindcore | Grindcore/Goregrind
*Country: Czech Republic | Mexico | Spain | Czech Republic
*Format: mp3@CBR192kbps
*Size: 86MB

Tracklist:
Gride:
01. Kudykam 1:16
02. Znovu A Opet Znovu 0:37
03. Modkitba Politickecho Sadomasochismu 0:49
04. Made In Hell 1:01
05. Die Kunst Ist Tot 1:50
06. Echelon 0:32
07. Dness Jiz Vime Vse 1:10
08. Nadeje V Mijeni 1:19
09. Blu 0:36
10. Geometrie Radu 1:06
11. Tanec Blaznu 1:13
12. Headfirst 0:20
Disturbio:
13. Basta Ya 1:46
14. Asesinos Y Dementes 1:47
15. Palestina Libre 1:11
16. Calles 0:57
17. Alzate 1:13
18. Raza Existente 2:30
19. Vida Misma 1:26
20. Gentes Condenadas 1:32
21. Obrero Campesino 1:21
22. Putrefaccion 1:56
23. Muerte A Nazis 1:20
24. Suda America 3:00
Racak:
25. Haare Sind Wichtiger Als Attitude 2:32
26. Flucht Aus Dem Asyl 1:58
27. In Ketten 1:55
28. Fragen Bber Fragen 1:43
29. Guess Who I Am 1:39
30. Marktschreier 1:56
31. Wohlstandsinsel 2:19
32. Racak 2:38
33. Langstreckenlaufer 2:18
Malignant Tumour:
34. Fuck The Nato 1:25
35. Industrial Intellect 0:52
36. We're Missing A Liberty 1:16
37. Animal As A Present 1:13
38. Razor Sharp Daggers 0:43
39. Hypocritical Scene 2:05
40. Cartoon Violence 1:24
41. Grindcore God 1:10
42. Bad Core 1:31
43. Why Animal Rights 1:14
44. Instant Girl 1:13
******************************
Total playing time: 1:04:52

Register
(7) ddarkthrone, Hell_Is_Here, Lanceatum, morbidangelo, Rosen, varlam4, Герб,
Apr 27 2016, 12:23:12 Gride & See You In Hell - Tour Split [split] (2003)


*Artist: Gride & See You In Hell
*Album: Tour Split [split]
*Year: 2003
*Genre: Grindcore/Crust/Fastcore | Hardcore/Thrash Metal
*Country: Czech Republic | Czech Republic
*Format: mp3@CBR192kbps
*Size: 63MB

Tracklist:
Gride:
01. Lobotomy By A Belief 1:06
02. The Possibility Of Choice 0:19
03. In The Shadows 2:06
04. I (Bringer Of Destruction) [Rupture Cover] 0:40
05. The Rightful System 1:45
06. Tradition 2:01
07. Insanity 1:33
08. Firm Wall Of Normalization 1:21
09. Fools Dance 1:38
10. A Necessity 3:33
11. Words 0:52
12. The Story With An Open End 1:56
13. Arrogance Of Power 1:13
14. Argument 1:34
See You In Hell:
15. Pochod Teroru 1:09
16. Alberts Gotta Gun 3:20
17. Kolektivni Deprese 1:08
18. Rezignace 0:26
19. Ve Strachu 0:57
20. Narod Spalovacu Mrtvol (Verze 2002) 1:30
21. Ausgebombt [Sodom Cover] 2:04
22. Maso Jako Maso 2:18
23. Muj Tatinek Pracuje V Koncentraku 1:34
24. Site Kontroly 1:52
25. Robot 1:02
26. Seance Masove Hypnozy 1:40
27. Zadratovany Svet 1:28
28. Violent Pacification [D.R.I. Cover] 2:32
29. The Few The Proud [Negative Fx Cover] 0:42
30. Na Konci Provazu 1:19
******************************
Total playing time: 46:38

Register
(6) ddarkthrone, Lanceatum, morbidangelo, Rosen, varlam4, Герб,
Apr 27 2016, 11:58:48 Gride - Faster Than Death - Harder Than Life [1997-2009 Antologie Rychlosti Teroru] [compilation] (2010)


*Artist: Gride
*Album: Faster Than Death - Harder Than Life [1997-2009 Antologie Rychlosti Teroru] [compilation]
*Year: 2010
*Genre: Grindcore/Crust/Fastcore
*Country: Czech Republic
*Format: mp3@CBR320kbps
*Size: 169MB

Tracklist:
01. Pod Povrchem 1:43
02. Kolik Visni, Tolik Tresni 0:36
03. Na Jatka Uz Nastoupila Nocni Smena 1:21
04. Kafe, Noviny A Rohlik S Maslem 1:07
05. I Na Barikady Z Popelnic Prsi Tekuta Modernita 1:26
06. Horizont Udalosti 1:23
07. Nekdo Tu Byl 2:43
08. Nenapande, Bez Ramusu 1:18
09. 38 Ve Stinu 1:22
10. Variete Apokalypsa 1:02
11. Plan B 1:19
12. Volani Divociny 2:52
13. Neurorevolution 1:00
14. 0 Nicem 1:12
15. Instict Of Survival [Napalm Death Cover] 2:31
16. V Kunde Panny Marie 1:57
17. Zavody Chrtu 0:49
18. Jacoby Nic 1:11
19. Nenavist 1:03
20. Skripot 1:23
21. Lidi, Deti, Kanibaly [Telex Cover] 1:22
22. Nejsme Vy [Lahar Cover] 0:28
23. Inverze [Uchazim Cover] 1:35
24. Az Najdou Svuj Stred – Bude Mir! [Serious Music Cover] 1:57
25. Kudykam 1:14
26. Opet A Opet Znovu 0:35
27. Made In Hell 0:59
28. Die Kunst Ist Tot 1:49
29. Dnes Jiz Vime Vse 1:08
30. Nadeje V Mijeni 1:17
31. Blu-82B 0:35
32. Geometrie Radu 1:05
33. Tanec Blaznu 1:11
34. Headfirst [Infest Cover] 0:18
35. Nutnost 3:27
36. Slova 0:49
37. Ve Stinu 2:01
38. Hranice 1:20
39. Commercial Shitty Music 0:35
40. Agrument 1:36
41. Manipulace 1:41
42. Moznost Volby 0:19
43. Posedlost 0:34
44. Lobotomie Virou 1:07
45. Amnezie 1:35
46. Arogance Moci 1:14
47. Pribeh S Otevrenym Koncem 1:58
48. Spravedlivy System 1:45
49. Parlamentni Utopie 3:06
50. Trapped [Health Hazard Cover] 1:02
51. Inside 1:58
52. Uniforma 1:19
53. Vysat A Zahodit 1:15
54. Moderni Spolecnost 1997 2:11
******************************
Total playing time: 1:15:43

[more=Technical info]
Input File: 01 - Pod Povrchem.mp3
Channels : 2
Sample Rate : 44100
Precision : 16-bit
Duration : 00:01:42.93 = 4538993 samples = 7719.38 CDDA sectors
File Size : 4.12M
Bit Rate : 320k
Sample Encoding: MPEG audio (layer I, II or III)
Comments :
Title=Pod Povrchem
Artist=Gride
Album=Faster Than Death - Harder Than Life [1997-2009 Antologie Rychlosti Teroru] [Comp]
Tracknumber=01
Year=2010
Genre=Grindcore/Crust/Fastcore

[/more]

Register
(7) ddarkthrone, morbidangelo, Rosen, SadistikSlayer, sperminator, varlam4, Герб,
Apr 27 2016, 11:54:15 Gride - Moznost Volby [demo] (1998)


*Artist: Gride
*Album: Moznost Volby [demo]
*Year: 1998
*Genre: Grindcore/Crust/Fastcore
*Country: Czech Republic
*Format: mp3@CBR192kbps
*Size: 29MB

Tracklist:
01. Argument 01:36
02. Manipulace 01:41
03. Moznost Volby 00:20
04. Tradice 02:02
05. Posedlost 00:35
06. Lobotomie Virou 01:07
07. Pevne Hradby Normalizace 01:23
08. Amnezie 01:35
09. Arogance Moci 01:14
10. Pribeh S Otvorenim Koncem 01:58
11. Volte Boha (Mrtva Budoucnost Cover) 01:01
12. Spravedlivy System 01:45
13. Parlamentni Utopie 03:06
******************************
Total playing time: 19:23

Register
(5) morbidangelo, Rosen, sperminator, varlam4, Герб,
Apr 27 2016, 11:26:58 Abortion & Čad - Salieme Vsetci - Sukromna Vojna [split] (2012)


*Artist: Abortion & Čad
*Album: Salieme Vsetci - Sukromna Vojna [split]
*Year: 2012
*Genre: Death Metal/Crust/Grindcore | Death Metal/Crust/Grindcore
*Country: Slovakia | Slovakia
*Format: mp3@ABR144kbps
*Size: 58MB

Tracklist:
Abortion:
01. Salieme Vsetci (Madness All) 01:55
02. Musis Zomriet (You Have To Die) 01:19
03. Posledne Slovo (Last Word) 01:52
04. Tvoje Cislo Je Nula (Your Number Is Zero) 01:28
05. Otraveny Bud Naveky (Either Poisoned Forever) 01:48
06. Koniec Evolucie (End Of Evolution) 01:25
07. Kriza Mozgu (Crisis Brain) 01:09
08. Nitramat 01:07
09. Tu Sme Doma (Here We Are At Home) 02:30
10. Len Nic (Just Nothing) 01:16
11. Lacny Zalm (Cheap Psalm) 01:10
12. Nasa Etika (Our Etic) 02:48
Cad:
13. Moji Bratia 02:13
14. Sukromna Vojna 01:46
15. Sekery A Buzogane 02:41
16. Mesta Horia 02:07
17. Konflikty 02:01
18. Labyrint 02:26
19. Zly 02:20
20. Vystrelit Ich Do Pice! 01:36
21. Varic Pika 02:15
22. Po Pouziti Skrc Ma! 02:14
23. Ako Vlci 01:58
24. Tiene 04:38
******************************
Total playing time: 48:02

Register
(4) Lanceatum, Rosen, varlam4, Герб,
Apr 19 2016, 09:09:45 Čad - Psia Krv (2006)


*Artist: Čad
*Album: Psia Krv
*Year: 2006
*Genre: Death Metal/Crust/Grindcore
*Country: Slovakia
*Format: mp3@VBR130kbps
*Size: 25MB

Tracklist:
01. Krik Obesenych 1:10
02. Cudzinci Obliehaju Mesto 1:21
03. Clovek - Nie 1:53
04. Rabovacka 1:57
05. Zrely Na Samovrazdu 2:12
06. Pohreb 1:57
07. Mercedes (Tvoji Ludia) 2:24
08. Pice Idu Do Polusu 1:18
09. Stena 1:56
10. Nezmenim Sa! 1:47
11. Psia Krv 3:40
******************************
Total playing time: 21:35

Register
(4) BRUTAL06, infiltrator, Rosen, varlam4,
Apr 19 2016, 09:04:21 Čad & Grossmember - Untitled & Life Like A Nightmare [split] (2003) (3) infiltrator, satanist666, varlam4,
Apr 19 2016, 09:02:28 Čad - Deadnation (2000)


*Artist: Čad
*Album: Deadnation
*Year: 2000
*Genre: Death Metal/Crust/Grindcore
*Country: Slovakia
*Format: mp3@CBR320kbps
*Size: 107MB

Tracklist:
01. Attack 2:03
02. Chess Figurine 1:58
03. Destroy Nato Bastards 1:39
04. On Your Heads 1:28
05. Cigarettes? - No Thanx 1:55
06. Deadnation 1:29
07. No! 2:07
08. Punk As Piss 1:27
09. The Beginning Of The End 2:09
10. Hamburger Woman 1:32
11. Working Class 2:05
12. Just Let Me Rot 1:06
13. Solitude 2:53
14. Greeting From Hiroshima 0:58
15. Blood On The Clay 1:53
16. Mcamerican Shit 1:14
17. Requiem For Tarkan 0:21
18. March Of Machines 6:13
19. Gundown 3:18
20. Sallieri 2:14
21. Anxiety 2:30
22. Revolt 2:16
23. I'm Bad 2:36
******************************
Total playing time: 47:24

[more=Technical info]
Input File: 01 - Attack.mp3
Channels : 2
Sample Rate : 44100
Precision : 16-bit
Duration : 00:02:02.58 = 5405822 samples = 9193.57 CDDA sectors
File Size : 4.91M
Bit Rate : 320k
Sample Encoding: MPEG audio (layer I, II or III)
Comments :
Title=Attack
Artist=Cad
Album=Deadnation
Tracknumber=1/23
Year=2000
Genre=Death/Crust/Grindcore

[/more]

Register
(9) BRUTAL06, Buregon, DarkHorde, Evilded, infiltrator, morbidangelo, Rosen, varlam4, Герб,
Apr 14 2016, 15:33:48 Turbolax - Уличный Бой - TurboLax [best of/compilation] (2006)


*Artist: Turbolax
*Album: Уличный Бой - TurboLax [best of/compilation]
*Year: 2006
*Genre: Hardcore/Street Punk
*Country: Russian Federation
*Format: mp3@CBR320kbps
*Size: 140MB

Tracklist:
01. Ночной Бродяга 3:05
02. Уличный Бой 2:31
03. Пить Гулять 3:10
04. Чужой 2:32
05. Война 2:21
06. XXXI 3:30
07. Религия 1:46
08. Алкоголь 4:16
09. Out Of Order 3:08
10. Felo De Se 2:07
11. Earth Scum 2:57
12. Brand 2:28
13. Fright Night Carnage 1:38
14. Criminal Madness 3:18
15. Inevitability 2:24
16. Ratsbane 2:21
17. Mighty Boy Casualities 2:12
18. Bitch 1:04
******************************
Total playing time: 46:48

[more=Extended info]Компиляция из двух альбомов: Turbolax (1999) и Уличный Бой (2003)
Диск достался от барабанщика Виннера "как есть" (без задней обложки, которая пошла на автографы Septic Flesh в Самаре в 2015г.)[/more]

[more=Technical info]
Input File: 01 - Ночной Бродяга.mp3
Channels : 2
Sample Rate : 44100
Precision : 16-bit
Duration : 00:03:04.81 = 8150121 samples = 13860.8 CDDA sectors
File Size : 7.39M
Bit Rate : 320k
Sample Encoding: MPEG audio (layer I, II or III)
Comments :
Title=Ночной Бродяга
Artist=Turbolax
Album=Уличный Бой / TurboLax [comp]
Tracknumber=1/18
Year=2006
Genre=Hardcore/Street Punk

[/more]

Register
(1) DarkHorde,
Apr 14 2016, 15:17:10 Malignant Defecation - Defecation Propaganda (2015)


*Artist: Malignant Defecation
*Album: Defecation Propaganda
*Year: 2015
*Genre: Grindcore
*Country: Italy
*Format: mp3@CBR320kbps
*Size: 139MB

Tracklist:
01. Coffee Clister Defecation 3:24
02. Shit Fighters 2:16
03. Worm Disney Sickness 3:33
04. Bidibibodibidet 3:44
05. Prepare Your Anus (Assholo) 3:58
06. Cricket Colony 2:57
07. Habemus Pig 2:22
08. Malignant Rave Gore 1:36
09. Hulk Hogan Make's Me Crazy! 1:42
10. I Kill Everything I Fuck (GG Allin Cover) 2:46
11. Fart Sniffer Kamikatze 2:25
12. Gore Busters 2:51
13. Sterco (Fecal Sun Decomposition) 1:58
******************************
Total playing time: 35:32

[more=Technical info]
Input File: 01 - Coffee Clister Defecation.mp3
Channels : 2
Sample Rate : 44100
Precision : 16-bit
Duration : 00:03:23.86 = 8990006 samples = 15289.1 CDDA sectors
File Size : 8.16M
Bit Rate : 320k
Sample Encoding: MPEG audio (layer I, II or III)
Comments :
Title=Coffee Clister Defecation
Artist=Malignant Defecation
Album=Defecation Propaganda
Tracknumber=1/13
Year=2015
Genre=Grindcore

[/more]

Register
(7) andreikun, Hell_Is_Here, morbidangelo, Rosen, satanist666, varlam4, Герб,
Apr 12 2016, 18:38:29 The Dystonia - Наш путь [single] (2016)


*Artist: The Dystonia
*Album: Наш путь [single]
*Year: 2016
*Genre: Djent/Deathcore/Groove Metal
*Country: Russian Federation
*Format: mp3@CBR320kbps
*Size: 8MB

Tracklist:
01. Наш путь 3:49
******************************
Total playing time: 3:49

Берлога

[more=Extended info]г. Оренбург
Проба пера[/more]

[more=Technical info]
Input File: 01 - Наш путь.mp3
Channels : 2
Sample Rate : 44100
Precision : 16-bit
Duration : 00:03:49.83 = 10135415 samples = 17237.1 CDDA sectors
File Size : 9.19M
Bit Rate : 320k
Sample Encoding: MPEG audio (layer I, II or III)
Comment : 'Genre=Other'

[/more]

Register
(2) Rosen, varlam4,
Mar 11 2016, 16:43:23 Fleshgore - Denial Of The Scriptures (2016)


*Artist: Fleshgore
*Album: Denial Of The Scriptures
*Year: 2016
*Genre: Technical Brutal Death Metal/Deathcore
*Country: Ukraine
*Format: mp3@CBR320kbps
*Size: 90MB

Tracklist:
01. Talk To Me About God 4:23
02. Inception Of Incursion 3:39
03. Stop The Possessor 3:01
04. Killing Relapse 4:36
05. Forgotten Knowledge 3:04
06. Bloody Hands Of Aggressor 3:57
07. New Ordeal Comes Into The World 5:24
08. Numinosum 2:39
09. Denial Of The Scriptures 5:49
10. Gorging On Mucus And Bile (Pyaemia Cover) 2:46
******************************
Total playing time: 39:18

[more=Technical info]
Input File: 01 - Talk To Me About God.mp3
Channels : 2
Sample Rate : 44100
Precision : 16-bit
Duration : 00:04:23.50 = 11620262 samples = 19762.4 CDDA sectors
File Size : 10.5M
Bit Rate : 320k
Sample Encoding: MPEG audio (layer I, II or III)
Comments :
Title=Talk To Me About God
Artist=Fleshgore
Album=Denial Of The Scriptures
Tracknumber=1
Year=2016
Genre=Technical Brutal Death/Deathcore

[/more]

Register
(20) cesar, coldcorpse, Konst, Korpse, maochen, metala, Moonshtook, neoatheist, Paradayz, Rosen, samokot, Sarcis, satanist666, sperminator, troll_swamp, varlam4, wreak, yuratroll, Герб, Луч,
Mar 11 2016, 16:40:16 Fleshgore - Ministry Of Fear [single] (2013)


*Artist: Fleshgore
*Album: Ministry Of Fear [single]
*Year: 2013
*Genre: Brutal Deathcore
*Country: Ukraine
*Format: mp3@CBR320kbps
*Size: 7MB

Tracklist:
01. Ministry Of Fear 3:21
******************************
Total playing time: 3:21

[more=Technical info]
Input File: 01 - Ministry Of Fear.mp3
Channels : 2
Sample Rate : 44100
Precision : 16-bit
Duration : 00:03:20.94 = 8861278 samples = 15070.2 CDDA sectors
File Size : 8.04M
Bit Rate : 320k
Sample Encoding: MPEG audio (layer I, II or III)
Comments :
Title=Ministry Of Fear
Artist=Fleshgore
Album=Ministry Of Fear (Single)
Tracknumber=1
Year=2013
Genre=Brutal Deathcore

[/more]

Register
(4) Rosen, varlam4, wreak, Герб,
Mar 11 2016, 16:39:12 Fleshgore - Defiance To Evil (2012)


*Artist: Fleshgore
*Album: Defiance To Evil
*Year: 2012
*Genre: Thrash/Groove Metal
*Country: Ukraine
*Format: mp3@CBR320kbps
*Size: 74MB

Tracklist:
01. Terrorist 2:49
02. Dr. Shipman 4:05
03. Disaster Like Brand 4:57
04. This Is Your Fear 3:52
05. War 5:11
06. Black True Story 4:51
07. Ordeal For Progress 4:07
08. Fight For Justice 2:52
******************************
Total playing time: 32:44

[more=Technical info]
Input File: 01 - Terrorist.mp3
Channels : 2
Sample Rate : 44100
Precision : 16-bit
Duration : 00:02:49.16 = 7460000 samples = 12687.1 CDDA sectors
File Size : 6.77M
Bit Rate : 320k
Sample Encoding: MPEG audio (layer I, II or III)
Comments :
Title=Terrorist
Artist=Fleshgore
Album=Defiance To Evil
Tracknumber=1
Year=2012
Genre=Thrash/Groove Metal

[/more]
Ссылки заменены, треки порезаны верно:
Register
(11) cesarkiss, martintrue, metala, Moonshtook, morbidangelo, Paradayz, Rosen, varlam4, wreak, Герб, Луч,
Mar 11 2016, 16:32:49 Fleshgore - Blackened [ep] (2012)


*Artist: Fleshgore
*Album: Blackened [ep]
*Year: 2012
*Genre: Thrash/Groove Metal
*Country: Ukraine
*Format: mp3@CBR320kbps
*Size: 25MB

Tracklist:
01. Blackened (Metallica Cover) 7:06
02. War Ensemble (Slayer Cover) 4:40
******************************
Total playing time: 11:46

[more=Technical info]
Input File: 01 - Blackened (Metallica Cover).mp3
Channels : 2
Sample Rate : 44100
Precision : 16-bit
Duration : 00:07:05.51 = 18764991 samples = 31913.2 CDDA sectors
File Size : 17.0M
Bit Rate : 320k
Sample Encoding: MPEG audio (layer I, II or III)
Comments :
Title=Blackened (Metallica Cover)
Artist=Fleshgore
Album=Blackened
Tracknumber=1
Year=2012
Genre=Thrash/Groove Metal

[/more]

Register
(7) Moonshtook, morbidangelo, Paradayz, Rosen, varlam4, wreak, Герб,
Mar 11 2016, 16:30:28 Fleshgore - Killing Absorption [demo] (2002)


*Artist: Fleshgore
*Album: Killing Absorption [demo]
*Year: 2002
*Genre: Grind/Brutal Death Metal
*Country: Ukraine
*Format: mp3@CBR192kbps
*Size: 22MB

Tracklist:
01. Domain Of Death 3:44
02. Severe Pain 3:50
03. The Plauge 3:16
04. Vengeance Expectation 4:54
******************************
Total playing time: 15:44

Register
(6) Moonshtook, morbidangelo, Rosen, varlam4, wreak, Герб,
Dec 20 2015, 15:33:56 Sagotorium - ЖЗЛ (2015)


*Artist: Sagotorium
*Album: ЖЗЛ
*Year: 2015
*Genre: Electronic/Industrial Grindcore
*Country: Belarus
*Format: mp3@CBR320kbps
*Size: 58MB

Tracklist:
01. Сказъ О Маркизе Де Саде 1:42
02. Сказъ О Понтии Пилате 2:28
03. Сказъ Об Амине Иди 1:34
04. Сказъ Об Эболе 1:44
05. Сказъ О Сомалийских Пиратах 1:48
06. Сказъ О Святом Христофоре 1:45
07. Сказъ Про Рюзьке Сафари 1:38
08. Сказъ Про Амстержданофобию 2:15
09. Сказъ О Советском Хиппи 1:19
10. Сказъ О Саммертайме 1:54
11. Сказъ О Майе Мякиле 2:42
12. Сказъ О Фата-Моргане 1:35
13. Сказъ О Кшиштофе Азнинском Или Чик-Чик По-Польски 3:15
******************************
Total playing time: 25:39

[more=Technical info]
Input File: 01 - Сказъ О Маркизе Де Саде.mp3
Channels : 2
Sample Rate : 44100
Precision : 16-bit
Duration : 00:01:42.49 = 4519853 samples = 7686.82 CDDA sectors
File Size : 4.10M
Bit Rate : 320k
Sample Encoding: MPEG audio (layer I, II or III)
Comments :
Title=Ñêàçú î Ìàðêèçå äå Ñàäå
Artist=Sagotorium
Album=ÆÇË
Tracknumber=1/13
Year=2015
Genre=Death/Grindcore/Electronic

[/more]

Register
(6) morbidangelo, Rosen, satanist666, varlam4, wreak, Герб,
Mar 15 2015, 19:01:26 Apocalypse Warhead - Demo 2006 [demo] (2006)


*Artist: Apocalypse Warhead
*Album: Demo 2006 [demo]
*Year: 2006
*Genre: Extreme Death/Thrash Metal
*Country: Finland
*Format: mp3@CBR128kbps
*Size: 9MB

Tracklist:
01. Opening The Silos 3:09
02. Warhead Apocalypse 3:08
03. Extermination Of Human Life 3:58
******************************
Total playing time: 10:15

Register
(2) Rosen, varlam4,
Mar 13 2015, 18:14:56 Wojczech & Abuso Sonoro - Nem Explorados, Nem Exploradores & L'autopsia Social [split] (1999)
Собрал всю дискографию Войцеха и выложил здесь:
Register
(1) morbidangelo,
Mar 12 2015, 18:46:49 Wojczech & Abuso Sonoro - Nem Explorados, Nem Exploradores & L'autopsia Social [split] (1999)


*Artist: Wojczech & Abuso Sonoro
*Album: Nem Explorados, Nem Exploradores & L'autopsia Social [split]
*Year: 1999
*Genre: Grindcore | Crustcore
*Country: Germany | Brazil
*Format: mp3@VBR209kbps
*Size: 48MB

Tracklist:
Abuso Sonoro
01. Ciencia Abusiva 2:12
02. Sangue E Destruicao 1:32
03. Politicos
04. Prisoes 2:24
05. Medo Da Guerra 1:55
06. Muito Mais Lixo 2:26
07. Abuso Sonoro - E Assim Que Nos Querem 2:18
08. Abuso Sonoro - Hermanos 2:22
Wojczech
09. Komm Mit 1:13
10. Kabel Jau 1:39
11. Afterpfeffer 2:06
12. Hardwax 1:21
13. Holz 1:34
14. Arbeit Macht Frei 1:16
15. Scheisshaus Mensch 0:38
16. Fettfinger 1:19
17. Kartoffelbowist 1:07
18. Zupfkuchen 0:22
19. Osten 2:12
******************************
Total playing time: 29:56

Register
(4) morbidangelo, Paradayz, Rosen, Герб,
Mar 5 2015, 18:12:30 Grey Ocean - Betond The Solitude (2010)


*Artist: Grey Ocean
*Album: Betond The Solitude
*Year: 2010
*Genre: Melodic Doom/Death Metal
*Country: Russian Federation
*Format: mp3@CBR320kbps
*Size: 57MB

Tracklist:
01. The Waiting (Introduction) 1:09
02. Our Last Autumn 4:31
03. Forever Rain 5:33
04. The Delirium 4:13
05. Hidden Asylum 4:42
06. Final Temptation 4:58
07. Distant Tranquility (Outroduction) 0:59
******************************
Total playing time: 26:05

[more=Extended info]г. Оренбург, проект Lord Mictian[/more]

[more=Technical info]
Input File: 02 - Our Last Autumn.mp3
Channels : 2
Sample Rate : 44100
Precision : 16-bit
Duration : 00:04:31.34 = 11965962 samples = 20350.3 CDDA sectors
File Size : 10.9M
Bit Rate : 320k
Sample Encoding: MPEG audio (layer I, II or III)
Comments :
Title=Our Last Autumn
Artist=Grey Ocean
Album=Betond The Solitude
Tracknumber=02
Year=2010-00-00
Genre=Melodic Doom/Death

[/more]

Register
(9) KVRT, oldvarg, randumbum, Rosen, SatanicPanzer, skidnik, VALERY, varlam4, wreak,

6 Pages V   1 2 3 > » 
- Lo-Fi Version Support form
Copyrights and abuse reports form
Time is now: 29th September 2020 - 18:34:46

Источник: http://dinoera.ru/nauka/10345--qq-----.html.