Welcome Guest ( Log In | Register )

История благодарностей участнику aesteticvice ::: Спасибо сказали: 344746 раз(а)
Дата поста: В теме: За сообщение: Спасибо сказали:
Yesterday, 20:51:14 The Void - Cursed For All Eternity [ep] (2018)
MIRROR
Register
(2) older68, Ostinato,
Yesterday, 20:15:33 Geostygma - The Die Is Cast [ep] (2018)
FFO : The Faceless, Gorod, Soreption, Decapitated, Dying Fetus etc..
MIRROR
Register
(3) Ostinato, tupec2, Язва,
Yesterday, 20:15:00 The Void - Cursed For All Eternity [ep] (2018)


*Artist: The Void
*Album: Cursed For All Eternity [ep]
*Year: 2018
*Genre: Melodic Black/Death Metal
*Country: Spain
*Format: mp3@CBR320kbps
*Size: 71MB

Tracklist:
1. Cosmic Abomination 05:31
2. Written in Blood 07:19
3. Seven Kings 05:14
4. Uruk 07:39
5. Through the Nile 05:00
******************************
Total playing time: 30:43




[more=Extended info]Juan Jose Diaz - Bass
Vicente Lorenzo - Drums
Ancor Amador - Guitars (ex-Scandelion, ex-The Hole)
Ángel Díaz - Guitars
Dani Martín - Vocals

[youtube]tmNoBFSQsdU[/youtube][/more]

[more=Technical info]
Input File: 03 Seven Kings.mp3
Channels : 2
Sample Rate : 44100
Precision : 16-bit
Duration : 00:05:15.08 = 13895160 samples = 23631.2 CDDA sectors
File Size : 12.6M
Bit Rate : 321k
Sample Encoding: MPEG audio (layer I, II or III)
Comments :
Title=Seven Kings
Artist=The Void
Album=Cursed For All Eternity
Tracknumber=3
Year=2018
Genre=138

[/more]

Register
(2) Olethros, Ostinato,
Yesterday, 20:13:56 Siniestro - Arctic Blood [ep] (2018)
MIRROR
Register


[youtube]W5d7RU4dF_A[/youtube]
[youtube]hXT_Un6L098[/youtube]
(2) Ostinato, tupec2,
Yesterday, 19:43:25 Siniestro - Arctic Blood [ep] (2018)


*Artist: Siniestro
*Album: Arctic Blood [ep]
*Year: 2018
*Genre: Black/Thrash Metal
*Country: Sweden
*Format: mp3@CBR320kbps
*Size: 26MB

Tracklist:
1. Arctic Blood 01:56
2. Pesten 01:11
3. Exitium Vivorum Omnes 03:28
4. Strength & Pride 05:33
******************************
Total playing time: 12:08





[more=Extended info]Commander - Bass (2012-2014), Guitars, Vocals (2012-present) See also: IXXI, ex-Graverape Ritual, ex-Sunshine and Lollipops
The Machine - Drums (2012-present) See also: Terminal Prospect, Them Vultures, ex-Dogma, ex-Graverape Ritual, ex-Los Mox
BassRiot - Bass (2016-present) See also: Ztringtroza, ex-Dynazty[/more]

[more=Technical info]
Input File: 03. Exitium Vivorum Omnes.mp3
Channels : 2
Sample Rate : 44100
Precision : 16-bit
Duration : 00:03:27.95 = 9170551 samples = 15596.2 CDDA sectors
File Size : 8.38M
Bit Rate : 322k
Sample Encoding: MPEG audio (layer I, II or III)
Comments :
Title=Exitium Vivorum Omnes
Artist=Siniestro
Album=Arctic Blood
Tracknumber=3
Year=2018
Discnumber=1

[/more]

Register
(2) Olethros, Ostinato,
Yesterday, 19:41:35 Geostygma - The Die Is Cast [ep] (2018)


*Artist: Geostygma
*Album: The Die Is Cast [ep]
*Year: 2018
*Genre: Progressive/Technical Death Metal
*Country: France
*Format: mp3@CBR320kbps
*Size: 43MB

Tracklist:
1. Enqweentine 2.0 03:48
2. Fanatic's Chant 05:35
3. Withering Breath 06:53
4. Formatted Brain 04:10
******************************
Total playing time: 20:26




[more=Technical info]
Input File: 01. Enqweentine 2.0.mp3
Channels : 2
Sample Rate : 44100
Precision : 16-bit
Duration : 00:03:48.54 = 10078394 samples = 17140.1 CDDA sectors
File Size : 9.19M
Bit Rate : 322k
Sample Encoding: MPEG audio (layer I, II or III)
Comments :
Title=Enqweentine 2.0
Artist=Geostygma
Album=The Die Is Cast
Tracknumber=1
Year=2018
Discnumber=1

[/more]

Register
(5) metala, Olethros, Ostinato, samokot, Герб,
Yesterday, 19:27:55 Gecko - Beautiful Violence (2018)


*Artist: Gecko
*Album: Beautiful Violence
*Year: 2018
*Genre: Extreme Progressive Metal
*Country: Canada
*Format: mp3@CBR320kbps
*Size: 111MB

Tracklist:
01. Comfort in Ritual
02. Drag Me Through the Rain
03. Magma Chain
04. The Carnival
05. Mona Lisa
06. Sad Summer
07. In the Grotto
08. Spaniard
09. Solar Hunt
10. Flamingo
******************************
Total playing time: 51:41



[more=Extended info] В принципе тег прог мелодэт подошел бы вполне, музыка и вокалы в районах опет и эдж оф сэнити[/more]

[more=Technical info]
Input File: 03. Magma Chain.mp3
Channels : 2
Sample Rate : 44100
Precision : 16-bit
Duration : 00:04:39.50 = 12326038 samples = 20962.6 CDDA sectors
File Size : 11.3M
Bit Rate : 322k
Sample Encoding: MPEG audio (layer I, II or III)
Comments :
Title=Magma Chain
Artist=Gecko
Album=Beautiful Violence
Tracknumber=3
Year=2018
Discnumber=1

[/more]

Register
(2) metala, Olethros,
Yesterday, 17:30:20 Zac Leaser - Redeemer (2018)
mirror
Register

[youtube]EPynlY2iqaU[/youtube]
[youtube]TWv1_fWVGzQ[/youtube]
(2) Ostinato, tupec2,
Yesterday, 17:13:11 Zac Leaser - Redeemer (2018)


*Artist: Zac Leaser
*Album: Redeemer
*Year: 2018
*Genre: Progressive/Technical Melodic Death Metal
*Country: United States
*Format: mp3@CBR320kbps
*Size: 127MB

Tracklist:
01. Defeatist
02. Loathsome
03. Fruition
04. Miseries
05. Repetitions
06. Worthless
07. Spasmodic
08. Mephitic
09. Captivate
******************************
Total playing time: 52:44



[more=Extended info]Guest solos
1. Denis Shvarts on Defeatist and Loathsome
2. James Malone on Spasmodic
3. Chris Portugal on Miseries
4. Neil Prakasam on Worthless
5. Daniel Gomez on Fruition
Guest Vocals
Stephen Mashburn on Captivate
Nic Leaser on Mephitic
[/more]

[more=Technical info]
Input File: 02 - Loathsome.mp3
Channels : 2
Sample Rate : 44100
Precision : 16-bit
Duration : 00:05:33.65 = 14714141 samples = 25024 CDDA sectors
File Size : 15.0M
Bit Rate : 360k
Sample Encoding: MPEG audio (layer I, II or III)
Comments :
Title=Loathsome
Artist=Zac Leaser
Album=Redeemer
Tracknumber=02
Year=2018
Genre=Melodic Death Metal

[/more]

Register
(4) metala, Olethros, Ostinato, samokot,
Yesterday, 16:35:47 Abyss - II [ep] (2018)


*Artist: Abyss
*Album: II [ep]
*Year: 2018
*Genre: Melodic Black/Death Metal
*Country: Germany
*Format: mp3@CBR320kbps
*Size: 53MB

Tracklist:
1. Apotheosis 04:00
2. Beast of Burden 04:58
3. Death by Thousand Cuts 08:27
4. Bow to Chaos and Damnation 04:27
******************************
Total playing time: 21:52




[more=Extended info]Lulu - Bass
Gratzl - Drums
Andrew - Guitars (lead), Vocals
Sebi - Guitars (rhythm)
Pepper - Vocals[/more]

[more=Technical info]
Input File: Abyss - II - 02 Beast of Burden.mp3
Channels : 2
Sample Rate : 44100
Precision : 16-bit
Duration : 00:04:58.41 = 13160013 samples = 22381 CDDA sectors
File Size : 12.1M
Bit Rate : 325k
Sample Encoding: MPEG audio (layer I, II or III)
Comments :
Title=Beast of Burden
Artist=Abyss
Album=II
Tracknumber=2
Year=2018

[/more]

Register
(6) Korpse, Legacy100, Olethros, Ostinato, satanist666, SilentNidhogg,
Yesterday, 16:32:55 Gloomy Grim - Obscure Metamorphosis [ep] (2018)
MIRROR
Register
(1) Ostinato,
Yesterday, 16:11:27 Gloomy Grim - Obscure Metamorphosis [ep] (2018)


*Artist: Gloomy Grim
*Album: Obscure Metamorphosis [ep]
*Year: 2018
*Genre: Symphonic Black Metal
*Country: Finland
*Format: mp3@CBR320kbps
*Size: 31MB

Tracklist:
1. Crawling Saviour 02:38
2. Stars Above Me 04:05
3. The Lord Of Light 03:08
4. Impressive Physical Sight 03:43
******************************
Total playing time: 13:34




[more=Extended info]Agathon - Vocals, Keyboards (1995-present) See also: Soulgrind, ex-Airdash, ex-Corporal Punishment, ex-Nomicon, ex-Walhalla, ex-Barathrum, ex-Thy Serpent, ex-Hellstorm
Nuklear Tormentörr - Bass (2004-present) See also: Barathrum, Disformed
Micko Hell - Guitars (2016-present) See also: Denigrate, ex-Sargo Fvck, Micko Hell & The Motherfuckers, ex-Dauntless, ex-Rain Paint, ex-Million Dollar Beggars
AstroNuclear Agitator - Drums (2018-present) See also: Astral Corpse
Kim Lappalainen - Guitars (2018-present) See also: Ceaseless Torment, Nihile, ex-Refusal

[youtube]B4OGXFtX5Ak[/youtube]
[youtube]a0hCXAqb9wA[/youtube]
[youtube]BEdLrQlavaE[/youtube]
[youtube]wBkoDbQvzrc[/youtube][/more]

[more=Technical info]
Input File: 1 - Crawling Saviour.mp3
Channels : 2
Sample Rate : 44100
Precision : 16-bit
Duration : 00:02:38.73 = 6999905 samples = 11904.6 CDDA sectors
File Size : 6.51M
Bit Rate : 328k
Sample Encoding: MPEG audio (layer I, II or III)
Comments :
Title=Crawling Saviour
Artist=Gloomy Grim
Album=Obscure Metamorphosis
Tracknumber=1
Year=2018-18-20
Genre=Рок
Discnumber=1

[/more]

Register
(14) 1968_janeart, as71, cancer1974, DarkHorde, dulak, Lux, Nerevar, Olethros, Ostinato, satanist666, stone88, TeamatSE, tupec2, VALERY,
Yesterday, 08:14:48 Øbscurantist - Øbscura [ep] (2018)


*Artist: Øbscurantist
*Album: Øbscura [ep]
*Year: 2018
*Genre: Atmospheric Black/Doom Metal
*Country: Ukraine
*Format: mp3@CBR320kbps
*Size: 81MB

Tracklist:
1. Порожній 10:10
2. Мінливий 12:32
3. Чи Знаєш Ти, Як Ліс Плаче Дощами? 02:03
4. Brave (Katatonia cover) 10:14
******************************
Total playing time: 34:59



[more=Technical info]
Input File: Øbscurantist - Øbscura - 01 Порожній.mp3
Channels : 2
Sample Rate : 44100
Precision : 16-bit
Duration : 00:10:10.15 = 26907571 samples = 45761.2 CDDA sectors
File Size : 24.6M
Bit Rate : 322k
Sample Encoding: MPEG audio (layer I, II or III)
Comments :
Title=Порожній
Artist=Øbscurantist
Album=Øbscura
Tracknumber=1
Year=2018

[/more]

Register
(8) 1968_janeart, Olethros, Ostinato, satanist666, thenecromancer, VALERY, varg-38ru, vasiljev_sergej,
Yesterday, 07:52:16 Avertia - Ashes Of The Dying [ep] (2018)
MIRROR
Register
(2) Ostinato, Sjelekval,
Yesterday, 07:51:41 Deadlife - Trails Of Negativity [ep] (2018)
MIRROR
Register
(1) Ostinato,
Dec 8 2018, 21:27:45 Carnifex - Bury Me In Blasphemy [ep] (2018)


*Artist: Carnifex
*Album: Bury Me In Blasphemy [ep]
*Year: 2018
*Genre: Symphonic/Blackened Deathcore
*Country: United States
*Format: mp3@CBR320kbps
*Size: 40MB

Tracklist:
1. Bury Me in Blasphemy 04:03
2. Head Like a Hole (Nine Inch Nails cover) 04:44
3. The Heretic Anthem (Slipknot cover) 04:12
4. Head Like a Hole (Gost remix) (Nine Inch Nails cover) 03:57
******************************
Total playing time: 16:56



[more=Extended info]Scott Ian Lewis - Vocals
Shawn Cameron - Drums
Jordan Lockrey - Guitar
Cory Arford - Guitar
Fred Calderon - Bass
[youtube]ZoexTGHFdRg[/youtube][/more]

[more=Technical info]
Input File: 01 Bury Me in Blasphemy.mp3
Channels : 2
Sample Rate : 44100
Precision : 16-bit
Duration : 00:04:03.27 = 10728119 samples = 18245.1 CDDA sectors
File Size : 9.78M
Bit Rate : 321k
Sample Encoding: MPEG audio (layer I, II or III)
Comments :
Title=Bury Me in Blasphemy
Artist=Carnifex
Album=Bury Me in Blasphemy
Tracknumber=1
Year=2018
Genre=Deathcore
Discnumber=1

[/more]

Register
(7) jpvalentim, Olethros, popen13, Rosen, satanist666, tupec2, zhol,
Dec 8 2018, 18:52:55 Psycodia - Als Phönix Aus Dir (2018)


*Artist: Psycodia
*Album: Als Phönix Aus Dir
*Year: 2018
*Genre: Heavy/Thrash Metal
*Country: Germany
*Format: mp3@CBR320kbps
*Size: 103MB

Tracklist:
1. Als Phönix Aus Dir
2. Ein Schrei
3. Keiner Ist Für Immer
4. Hetzjagd
5. Unsere Wege
6. Ausgebrannt
7. Was Morgen Ist
8. Kalou
9. Die Welt Brennt
******************************
Total playing time: 42:53



[more=Extended info]Stefan Krukenberg - Bass, Vocals See also: ex-Neverland, ex-Frontears
Timo Lohmann - Drums (2008-present)
Timo Geils - Guitars, Vocals (backing) (2008-present)
Lars Hill - Vocals (lead), Bass, Lyrics (2008-present)
[youtube]DPFajvHI9r8[/youtube]
[youtube]vSr6VnhI4l0[/youtube][/more]

[more=Technical info]
Input File: 02 Ein Schrei.mp3
Channels : 2
Sample Rate : 44100
Precision : 16-bit
Duration : 00:04:43.97 = 12523033 samples = 21297.7 CDDA sectors
File Size : 12.0M
Bit Rate : 338k
Sample Encoding: MPEG audio (layer I, II or III)
Comments :
Title=Ein Schrei
Artist=Psycodia
Album=Als Phönix aus Dir
Tracknumber=2
Year=2018
Genre=Thrash Metal
Discnumber=1/1

[/more]

Register
(3) aviacademy, Olethros, Rosen,
Dec 8 2018, 17:13:58 Deadlife - Trails Of Negativity [ep] (2018)


*Artist: Deadlife
*Album: Trails Of Negativity [ep]
*Year: 2018
*Genre: Atmospheric Black Metal
*Country: Sweden
*Format: mp3@CBR320kbps
*Size: 43MB

Tracklist:
1. Trails of Negativity 16:00
2. Somewhere Someone is Forgotten 02:40
******************************
Total playing time: 18:40



[more=Technical info]
Input File: 2. Somewhere Someone Is Forgotten.mp3
Channels : 2
Sample Rate : 44100
Precision : 16-bit
Duration : 00:02:40.53 = 7079417 samples = 12039.8 CDDA sectors
File Size : 6.46M
Bit Rate : 322k
Sample Encoding: MPEG audio (layer I, II or III)
Comments :
Title=Somewhere Someone Is Forgotten
Artist=Deadlife
Album=Trails Of Negativity (ep)
Tracknumber=2/2
Year=2018
Genre=Atmospheric Black Metal

[/more]

Register
(16) 1968_janeart, gotherion, kim666, metaljinie, Olethros, popen13, Rosen, satanist666, Shadechaser, SilentNidhogg, Sjelekval, stub888, Tyrone, VALERY, varg-38ru, vasiljev_sergej,
Dec 8 2018, 16:55:49 Avertia - Ashes Of The Dying [ep] (2018)


*Artist: Avertia
*Album: Ashes Of The Dying [ep]
*Year: 2018
*Genre: Black Metal
*Country: Norway
*Format: mp3@CBR320kbps
*Size: 38MB

Tracklist:
1. Ashes of the Dying 06:17
2. Wisdom of the Earth 03:03
3. The Forgotten Lake 03:49
4. The Burning Tree 03:17
******************************
Total playing time: 16:26




[more=Extended info]Avertia is an active Black Metal band from Bergen, Norway. The sound of Avertia is a mix of 90's Black Metal, Heavy Metal from the 80's and old folk songs.

Alexander - Bass
Anders LB - Drums
Kristoffer Georg - Vocals, Guitars, Bass (ex-Vinterbris)[/more]

[more=Technical info]
Input File: 2. Wisdom Of The Earth.mp3
Channels : 2
Sample Rate : 44100
Precision : 16-bit
Duration : 00:03:03.89 = 8109373 samples = 13791.5 CDDA sectors
File Size : 7.44M
Bit Rate : 324k
Sample Encoding: MPEG audio (layer I, II or III)
Comments :
Title=Wisdom Of The Earth
Artist=Avertia
Album=Ashes Of The Dying (ep)
Tracknumber=2/4
Year=2018
Genre=Black Metal

[/more]

Register
(11) 1968_janeart, kim666, Olethros, Rosen, satanist666, SilentNidhogg, stub888, VALERY, varg-38ru, varlam4, vasiljev_sergej,
Dec 8 2018, 15:50:03 Theofanvs - Memory Of Blood [ep] (2018)


*Artist: Theofanvs
*Album: Memory Of Blood [ep]
*Year: 2018
*Genre: Pagan/Black/Doom Metal
*Country: Argentina
*Format: mp3@CBR320kbps
*Size: 75MB

Tracklist:
1. Save Us... 11:18
2. The Wall of Shield 10:36
3. Sons of Black Wind Fire & Steel (Manowar Cover) 09:21
******************************
Total playing time: 31:15




[more=Extended info]Argathlam - Vocals, Bass (Dark Blasphemer)
Mannagarm - Guitar (Wolf & Winter)
M. Ojeda - Drums
Guest musicians:
Gerr Crasso - Guitar solo in track-3
JJ Torrez - Gutural Vocals efects in track 2.
Lucian Guichal - Guitar solo in track-2[/more]

[more=Technical info]
Input File: Theofanvs - Memory of Blood - 02 The wall of shield.mp3
Channels : 2
Sample Rate : 44100
Precision : 16-bit
Duration : 00:10:36.14 = 28053906 samples = 47710.7 CDDA sectors
File Size : 25.6M
Bit Rate : 322k
Sample Encoding: MPEG audio (layer I, II or III)
Comments :
Title=The wall of shield
Artist=Theofanvs
Album=Memory of Blood
Tracknumber=2
Year=2018

[/more]

Register
(3) Olethros, Rosen, Shadechaser,
Dec 8 2018, 15:48:55 Theofanvs - The Powerful Scream Of Unknowable God...And The Awakening Light From Beyond The Matter Created (Part One) (2012)


*Artist: Theofanvs
*Album: The Powerful Scream Of Unknowable God...And The Awakening Light From Beyond The Matter Created (Part One)
*Year: 2012
*Genre: Pagan/Black/Doom Metal
*Country: Argentina
*Format: mp3@CBR320kbps
*Size: 169MB

Tracklist:
1. Men As Gods 09:32
2. Nine Times 10:25
3. Lordess of the Rocks 11:08
4. From the Lans Beyond the Seas 11:59
5. Universal Architects 13:30
6. Rebelions of the Gods...the Ultimate Astral Retaliation 15:43
******************************
Total playing time: 1:12:17




[more=Extended info]Argathlam - Vocals, Bass (Dark Blasphemer)
Mannagarm - All Guitars (Wolf & Winter)
Mazzu Heks - Drums (Heksabort, Wolf & Winter, ex-Dark Blasphemer, ex-Neoplasia)
Guest musicians:
Facundo Mouré - Guitar Solo in track 5[/more]

[more=Technical info]
Input File: 01 Men as gods.mp3
Channels : 2
Sample Rate : 44100
Precision : 16-bit
Duration : 00:09:32.40 = 25242840 samples = 42930 CDDA sectors
File Size : 23.1M
Bit Rate : 322k
Sample Encoding: MPEG audio (layer I, II or III)
Comments :
Title=Men as gods
Artist=Theofanvs
Album=The Powerful Screams of unknowable God
Tracknumber=1
Year=2011

[/more]

Register
(3) Olethros, Rosen, Shadechaser,
Dec 8 2018, 13:44:03 Dark Moor - Origins (2018)
ЦИТАТА(SAPOGi @ Dec 8 2018, 12:22:27) *
Эхъ, лоу битрейт 6.gif

качество звука хорошее, думаю на слух сильно лучше не будет, это либо промка перекоденная повыше, либо изначально мастеринг такой, пока непонятно... по материалу как-то фолка много и хэви
(1) SAPOGi,
Dec 8 2018, 07:06:25 Dark Moor - Origins (2018)


*Artist: Dark Moor
*Album: Origins
*Year: 2018
*Genre: Power Metal
*Country: Spain
*Format: mp3@CBR320kbps
*Size: 95MB

Tracklist:
01. Birth of the Sun 04:31
02. The Spectres Dance 03:25
03. Crossing Through Your Heart 03:49
04. Raggle Taggle Gypsy 02:44
05. In the Middle of the Night 03:52
06. And For Ever 04:25
07. Druidic Creed 03:25
08. Iseult 04:16
09. Mazy 03:04
10. Holy Geometry 04:30
11. Green Lullaby 02:42
******************************
Total playing time: 40:43



[more=Extended info]Enrik García - Guitars (1993-present)
Alfred Romero - Vocals (lead) (2003-present) See also: ex-Scheherezade
Daniel Fernández - Bass (2004-2008, 2015-present) See also: Holycide, Famishgod (live), ex-The Clockwork, ex-Inntrance, ex-Violent Eve
Roberto Cappa - Drums (2007-present) See also: Delyriüm, Inntrance, ex-Ánima Sola, ex-Against Myself[/more]

[more=Technical info]
Input File: 04 - Raggle Taggle Gypsy.mp3
Channels : 2
Sample Rate : 44100
Precision : 16-bit
Duration : 00:02:44.09 = 7236413 samples = 12306.8 CDDA sectors
File Size : 6.79M
Bit Rate : 331k
Sample Encoding: MPEG audio (layer I, II or III)
Comments :
Title=Raggle Taggle Gypsy
Artist=Dark Moor
Album=Origins
Tracknumber=4
Year=2018
Genre=Rock

[/more]

Register
(13) Alpha_Prime, artscald, boby9052, fabriziomagno, Luminous, metala, metalfaze, Old Vyaine, recber, Rosen, satanist666, v.v.m, zhol,
Dec 7 2018, 23:38:17 La Muerte - La Muerte (2018)


*Artist: La Muerte
*Album: La Muerte
*Year: 2018
*Genre: Experimental Metal
*Country: Belgium
*Format: mp3@CBR320kbps
*Size: 111MB

Tracklist:
01. Crash Baby, Crash
02. I Was A Wreck
03. Gun In My Hand
04. Suis-Je Un Animal
05. L.S.D For The Holy Man
06. Welcome Tomorrow
07. Darkened Dreams
08. King Kong – Godzilla
09. Lost
10. She Did It For Lust
******************************
Total playing time: 47:33



[more=Technical info]
Input File: 02 I Was a Wreck.mp3
Channels : 2
Sample Rate : 44100
Precision : 16-bit
Duration : 00:02:34.45 = 6811113 samples = 11583.5 CDDA sectors
File Size : 6.30M
Bit Rate : 326k
Sample Encoding: MPEG audio (layer I, II or III)
Comments :
Title=I Was a Wreck
Artist=La Muerte
Album=La Muerte
Tracknumber=2/10
Year=2018
Genre=Experimental Metal
Discnumber=1/1

[/more]

Register
(5) metala, Olethros, Ostinato, Rosen, VALERY,
Dec 7 2018, 20:23:06 Phandemya - DeathAtomized [ep] (2018)
со срывами в дэт, в последнем трэке основная соло-тема напомнила ранний дэзроу
mirror
Register
(4) boby9052, postal67, potap03020100, tupec2,

1127 Pages V   1 2 3 > » 
- Lo-Fi Version Support form
Copyrights and abuse reports form
Time is now: 10th December 2018 - 02:37:44