Welcome Guest ( Log In | Register )

История благодарностей участнику aesteticvice ::: Спасибо сказали: 363001 раз(а)
Дата поста: В теме: За сообщение: Спасибо сказали:
Jul 28 2019, 19:09:08 Rawrorr - Solipsism (2018)
О, нормальная тема m0821.gif
(2) infiltrator, KorbenDallas,
May 2 2019, 12:22:36 Альбом 2018 года в жанре technical / progressive death. Финал
Rivers Of Nihil 25.gif
(1) Язва,
Feb 21 2019, 20:22:13 From Crisis To Collapse - The Seventh Tree [ep] (2019)


*Artist: From Crisis To Collapse
*Album: The Seventh Tree [ep]
*Year: 2019
*Genre: Melodic Death Metal
*Country: Australia
*Format: mp3@CBR320kbps
*Size: 66MB

Tracklist:
1. Crisis 04:37
2. Turning the Gun 03:38
3. Dimitri 03:26
4. Slow Burn 05:40
5. No Promises 02:33
6. Lift the Veil 03:45
7. Crystals Are Us 04:48
******************************
Total playing time: 28:27




[more=Extended info]Unai Aldecoa - Bass
Marco Penniello - Drums
Chad Ellis - Guitars (2015-present)
Ian Konrad - Guitars (2015-present) See also: ex-Tria Mera, ex-Chemical Cascades
Angus Carter - Vocals (lead) (2015-present)[/more]

[more=Technical info]
Input File: 02 Turning The Gun.mp3
Channels : 2
Sample Rate : 44100
Precision : 16-bit
Duration : 00:03:38.00 = 9613800 samples = 16350 CDDA sectors
File Size : 9.04M
Bit Rate : 332k
Sample Encoding: MPEG audio (layer I, II or III)
Comments :
Title=Turning The Gun
Artist=The Seventh Tree
Album=The Seventh Tree
Tracknumber=2

[/more]

Register
(10) artscald, BugEyes, gwynnbleid, infiltrator, Mogozoz, Rosen, satanist666, sergsazan, wreak, zhol,
Feb 21 2019, 18:23:23 Wachenfeldt - The Interpreter (2019)
ЦИТАТА(Samaritianin @ Feb 21 2019, 17:16:11) *
ну ты любишь старье переливать и за новые выдавать,-это уже давно всем известно! 1488.gif

для тебя инфа выше, я в той теме у тебя спросил пруфы на выход альбома, у меня пруфы от самой группы и лейбла, хватит уже флудить, по делу пиши, если есть чего
(1) pain,
Feb 21 2019, 18:16:24 Downcross - Mysteries Of Left Path (2019)


*Artist: Downcross
*Album: Mysteries Of Left Path
*Year: 2019
*Genre: Black Metal
*Country: Belarus
*Format: mp3@CBR320kbps
*Size: 91MB

Tracklist:
1. Where Illusions Sink in Accausal Fire 04:38
2. Baning the Energies of Creation 03:50
3. Reviving the Ancient Ones 04:13
4. Black Flame of Reason and Will 04:15
5. Into the Formless Darkness Transforming 04:10
6. In the Name of the Ruthless Azerate 05:17
7. The Skies of Stars will Turn into Nothing 06:33
8. In the Depth of Masak Mavdil 06:18
******************************
Total playing time: 39:14





[more=Extended info]
Debut album of Kaosophic Black Metal horde DOWNCROSS from Belarus, the "gray zone" of Europe. 8 sonic ceremonies created by the duo possessed with Black Flames.
Line-up:
Ldzmr - vcls, drms (Khandra, ex-Stickoxydal, ex-Relics of Humanity)
Dzmtr - gtrs [/more]

[more=Technical info]
Input File: Downcross - Mysteries Of Left Path - 02 Baning The Energies Of Creation.mp3
Channels : 2
Sample Rate : 44100
Precision : 16-bit
Duration : 00:03:49.08 = 10102428 samples = 17181 CDDA sectors
File Size : 9.27M
Bit Rate : 324k
Sample Encoding: MPEG audio (layer I, II or III)
Comments :
Title=Baning The Energies Of Creation
Artist=Downcross
Album=Mysteries Of Left Path
Tracknumber=2
Year=2019

[/more]

Register
(32) 0x13, 1968_janeart, artscald, Ash_1980, atavist, BrutalMan, Hell_Is_Here, Indamage, kim666, Korpse, Lamby90, LastSupper, laTERNentrager, Moonshtook, morve, nnnmmm, Olethros, Olguard, Orkkh, Ostinato, oyhra_blood, Rosen, satanist666, SilentNidhogg, THROWER666, Tino, tupec2, VALERY, varlam4, vasiljev_sergej, wreak, Нигилист,
Feb 21 2019, 18:02:13 SickNest - Chaos Defined (2019)
экстрем прог - на всякий случай bye.gif кому интересно, по мне так клевый альбом

113/320
Register


[youtube]WHc67x-lUm8[/youtube]
(2) dimitriusk, MMMMM,
Feb 21 2019, 17:55:02 Wachenfeldt - The Interpreter (2019)
MIRROR
Register

[youtube]Fo9o5W10B1w[/youtube]
(2) older68, Ostinato,
Feb 21 2019, 17:47:36 Isebel - The Maleficent Correlation (2019)


*Artist: Isebel
*Album: The Maleficent Correlation
*Year: 2019
*Genre: Atmospheric Black Metal
*Country: Sweden
*Format: mp3@CBR320kbps
*Size: 66MB

Tracklist:
1. Axion 01:20
2. Hosianna- Divination of Cinders 08:52
3. Worlds Molded by Labyrinths of Thoughts 09:54
4. Tricalyth Fulcrum 07:53
******************************
Total playing time: 27:59




[more=Extended info]Tim Nordstedt - Drums (2019-present) See also: C.U.N.T., Samhara, ex-Svarthymn
Thomas Nyholm - Vocals, Guitars, Bass, Keyboards (2019-present) See also: Damnation Army, Isgärde, ex-Blaspheminator, ex-Hordes of the Apocalypse, ex-Night Spawn, ex-Rotten Minds[/more]

[more=Technical info]
Input File: 04 Tricalyth Fulcrum.mp3
Channels : 2
Sample Rate : 44100
Precision : 16-bit
Duration : 00:07:53.29 = 20871913 samples = 35496.5 CDDA sectors
File Size : 19.2M
Bit Rate : 324k
Sample Encoding: MPEG audio (layer I, II or III)
Comments :
Title=Tricalyth Fulcrum
Artist=Isebel
Album=The Maleficent Correlation
Tracknumber=04
Year=2019

[/more]

Register
(24) 0x13, 1968_janeart, artscald, Emhyr var Emreis, Ildjarn, isvili, kim666, MEmethuselah, NachtWulf, Olethros, Ostinato, Rosen, satanist666, Shadechaser, SilentNidhogg, Sjelekval, stone88, stub888, Tino, tupec2, VALERY, varlam4, vasiljev_sergej, wreak,
Feb 21 2019, 15:21:13 Wheel - Moving Backwards (2019)


*Artist: Wheel
*Album: Moving Backwards
*Year: 2019
*Genre: Progressive Metal
*Country: Finland
*Format: mp3@CBR320kbps
*Size: 111MB

Tracklist:
01. Vultures
02. Wheel
03. Tyrant
04. Up the Chain
05. Skeletons
06. Where the Pieces Lie
07. Lacking
******************************
Total playing time: 48:38



[more=Extended info]James Lascelles - Vocals, Guitar
Roni Seppänen - Lead Guitar
Mikko Määttä - Bass
Santeri Saksala - Drums[/more]

[more=Technical info]
Input File: 5 - Skeletons.mp3
Channels : 2
Sample Rate : 44100
Precision : 16-bit
Duration : 00:04:25.68 = 11716488 samples = 19926 CDDA sectors
File Size : 10.8M
Bit Rate : 324k
Sample Encoding: MPEG audio (layer I, II or III)
Comments :
Title=Skeletons
Artist=Wheel
Album=Moving Backwards
Tracknumber=5
Year=2019
Genre=Rock
Discnumber=1

[/more]

Register
(16) ace73pq, Angry_Chair, artscald, aviacademy, daemonarch, kolar666, metala, MMMMM, Mogozoz, Mplast, Olethros, Rosen, Rover, tupec2, wreak, Yarri,
Feb 21 2019, 15:01:34 Abyssic - High The Memory (2019)
80 minutes of epic orchestral doom/ death metal from musicians known from such acts as Susperia, Dimmu Borgir, Sirenia and Funeral.
Abyssic convey sombre funeral doom draped in Norwegian black metal majesty and sophisticated 70's progressive rock.
Low-tuned sinister riffs and discerning orchestration for fans of Septic Flesh, My Dying Bride and Shape Of Despair.

mirror
Register


[youtube]OtcIbUzEVL8[/youtube]
(5) isvili, kimkayoung, RUDACHUR, SS2998, StoneTemple,
Feb 21 2019, 14:31:52 Wachenfeldt - The Interpreter (2019)


*Artist: Wachenfeldt
*Album: The Interpreter
*Year: 2019
*Genre: Progressive Death Metal
*Country: Sweden
*Format: mp3@CBR320kbps
*Size: 146MB

Tracklist:
01. Spirits of the Dead 05:47
02. Arhan 06:47
03. The Interpreter 06:21
04. Ut 07:31
05. Intermezzo – Aiwass 02:27
06. Colophon 05:42
07. Athor and Asar 05:11
08. Litany to Satan 07:36
09. The Ladder 06:20
10. Hymn to Lucifer 05:56
11. Necrophiliac 03:40
******************************
Total playing time: 1:03:18




[more=Extended info]Понятно, что в основе олдскульные корни)))

"Way back in 2013, a new Swedish project called WACHENFELDT released their debut EP “Colophon”. After much anticipation, this year sees them back with their debut full-length album “The Interpreter”, clocking in at just under an hour. Styled as a Blackened Death/Thrash band, WACHENFELDT comprises three very talented musicians, known from their involvement from other bands such as ENTOMBED, OST+FRONT, and MÅNEGARM, to name a few. And from this melting pot emerges a malevolent ferocious monster of an album."

The Interpreter where also recorded at Bowstead Studios and Fear & Loathing Studios and was mixed by Tommy Rehn (Angtoria, Corroded, The Kristet Utseende i.a.). The album is released on Threeman Recordings and contain 11 songs where three of them ("Colophon", "Hymn to Lucifer" and "Litany to Satan") were also featured on the Colophon, but now in new versions.


http://wachenfeldtband.com/index.html
https://shop.season-of-mist.com/wachenfeldt...-interpreter-cd
https://www.amazon.com/Interpreter-Wachenfe...tag=smarturl-20

Thomas von Wachenfeldt - Guitars, Vocals, Bass, Violin, Keyboards (2011-present) See also: De Tveksamma, Wombbath, ex-Gadget
Jon Skäre - Drums (2012-present) See also: Defiatory, Mindsplit, ex-Oof Expain
Martin Björklund - Guitars (2012-present) See also: ex-Månegarm

[/more]

[more=Technical info]
Input File: 1 - Spirits of the Dead.mp3
Channels : 2
Sample Rate : 44100
Precision : 16-bit
Duration : 00:05:46.59 = 15284399 samples = 25993.9 CDDA sectors
File Size : 14.0M
Bit Rate : 323k
Sample Encoding: MPEG audio (layer I, II or III)
Comments :
Title=Spirits of the Dead
Artist=Wachenfeldt
Album=The Interpreter
Tracknumber=1
Year=2019
Genre=Metal
Discnumber=1

[/more]

Register
(21) AHBAnep, andreikun, artscald, Emhyr var Emreis, fateefffddd, garml2, metala, MMMMM, Occultas, Olethros, Ostinato, peppuzzo, pfk505, ripper33, Rosen, tupec2, VALERY, vov7609, wreak, yuratroll, zerger,
Feb 21 2019, 14:09:14 Ordos - The End (2019)


*Artist: Ordos
*Album: The End
*Year: 2019
*Genre: Stoner/Doom Metal
*Country: Canada
*Format: mp3@CBR320kbps
*Size: 108MB

Tracklist:
1. Exordium
2. The End
3. The Hunter Of Hades
4. Embrace The Dark
5. III
6. Upsala (S:t Erik)
7. Ginny
8. Omega
******************************
Total playing time: 47:30




[more=Extended info]Emil - Vocals
CW - Guitar
Gustav - Guitar
Martin - Bass
Max - Drums

[youtube]OdFC--3LRi8[/youtube][/more]

[more=Technical info]
Input File: 03. The Hunter of Hades.mp3
Channels : 2
Sample Rate : 44100
Precision : 16-bit
Duration : 00:05:02.05 = 13320273 samples = 22653.5 CDDA sectors
File Size : 12.1M
Bit Rate : 320k
Sample Encoding: MPEG audio (layer I, II or III)
Comments :
Title=The Hunter of Hades
Artist=Ordos
Album=The End
Tracknumber=3
Year=2019

[/more]

Register
(15) 0x13, artscald, HMHamster, marilin, Mogozoz, Olethros, Rosen, Sabbathian, SatanicPanzer, stub888, stumpheavyrock, Tular, VALERY, Whitefish, wreak,
Feb 21 2019, 13:43:05 Wolf Counsel - Destination Void (2019)


110/320
Register


[youtube]RbXYXVzls74[/youtube]
(4) doomTemplar, RUDACHUR, stub888, Woosad,
Feb 21 2019, 13:39:51 Cold Colours - Northernmost (2019)



124MB/320
Register


[youtube]lJ2lfp2Va7Q[/youtube]
(6) Alpha_Prime, kimkayoung, pain, RUDACHUR, Woosad, zbysio,
Feb 21 2019, 13:32:19 Damnation's Hammer - Unseen Planets, Deadly Spheres (2019)


122MB/320
Register

[youtube]E7aEjT7yt-M[/youtube]
(4) Doooomed, kimkayoung, sergsazan, stumpheavyrock,
Feb 21 2019, 13:29:45 Lysithea - Star-Crossed (2019)


107/320
Register

[youtube]IEuqMuj_8oU[/youtube]
(4) Metalass, Ostinato, RUDACHUR, Woosad,
Feb 21 2019, 13:09:19 Harmdaud - Skärvor (2019)
107MB/320
Register
(3) djsema4, kimkayoung, Ostinato,
Feb 21 2019, 13:03:14 Illum Adora - ...Of Serpentine Forces (2019)
MIRROR
Register
(2) RUDACHUR, vasiljev_sergej,
Feb 21 2019, 13:02:31 Grafvitnir - Venenum Scorpionis (2019)
85MB/320
Register
(6) Kazoth, kim666, Ostinato, VALERY, vasiljev_sergej, xska,
Feb 21 2019, 12:47:25 Illum Adora - ...Of Serpentine Forces (2019)


*Artist: Illum Adora
*Album: ...Of Serpentine Forces
*Year: 2019
*Genre: Black Metal
*Country: Germany
*Format: mp3@CBR320kbps
*Size: 94MB

Tracklist:
1. Dominions of Spheres Beyond 05:26
2. Clashing of Swords 05:15
3. Forever Dying but Never Dead 04:43
4. ...of Serpentine Forces 04:23
5. Nihil Negativum 04:14
6. Hic Sunt Dracones 05:42
7. Slaves to Existence 04:28
8. Under the Iron of the Moon 04:21
9. Tiusche Man in Wieße Thorn 02:13
******************************
Total playing time: 40:45



[more=Extended info]Hurricane Hellfukker - Guitars, Vocals (2011-present) See also: Zarathustra, ex-Cruel Force
Häxa - Keyboards (Track 1)
Mortüüm - Drums, Percussion
Shargaz Isidor - Guitars
Jörmundgand - Bass[/more]

[more=Technical info]
Input File: 5 - Nihil Negativum.mp3
Channels : 2
Sample Rate : 44100
Precision : 16-bit
Duration : 00:04:14.24 = 11211852 samples = 19067.8 CDDA sectors
File Size : 10.2M
Bit Rate : 321k
Sample Encoding: MPEG audio (layer I, II or III)
Comments :
Title=Nihil Negativum
Artist=Illum Adora
Album=...of Serpentine Forces
Tracknumber=5
Year=2019
Genre=Metal
Discnumber=1

[/more]

Register
(26) 1968_janeart, artscald, demonosz, Emhyr var Emreis, Ildjarn, Indamage, kim666, metal73, NachtWulf, Olethros, pedrohell, pfk505, rimfrost, Rosen, sandr666, SilentNidhogg, stub888, Tino, toly1917, udt4050, VALERY, varlam4, VECTOR, vov7609, wreak, zotyo1975,
Feb 21 2019, 12:40:42 The Moth Gatherer - Esoteric Oppression (2019)
MIRROR
Register
(7) 6666666, BandR75, Ostinato, Sabbathian, VALERY, Yorker, zbysio,
Feb 21 2019, 12:36:27 Abyssic - High The Memory (2019)


*Artist: Abyssic
*Album: High The Memory
*Year: 2019
*Genre: Symphonic Doom/Death Metal
*Country: Norway
*Format: mp3@CBR320kbps
*Size: 179MB

Tracklist:
1. Adornation 08:11
2. High the Memory 20:39
3. Transition Consent 12:38
4. Where My Pain Lies 20:37
5. Dreams Become Flesh 15:12
******************************
Total playing time: 1:17:21



[more=Extended info] Double LP gatefold with awesome artwork from Mitchell Nolte

Abyssic have received awesome reactions to their liveshows with a mosaic of visual semblance on stage like Contrabass, Mellotron and Moog.

Memnoch - Vocals, Guitars, Bass (1997-present), Vocals, Bass, Contrabass (2012-present) See also: Susperia, ex-Lost in Time, ex-Metadox, ex-Vanaheim, ex-Seven Sins, Antiqva, Art of Departure, ex-Black Comedy, ex-Old Man's Child
André Aaslie - Keyboards, Orchestrations (2012-present) See also: Funeral, Gromth, Images at Twilight, Profane Burial
Elvorn - Guitars (2013-present) See also: Susperia, Insidious Disease, ex-Ringnevond, ex-Vanaheim, ex-Seven Sins
Makhashanah - Bass, Vocals (additional) (2016-present) See also: Asagraum, ex-Sirenia, ex-Tiamat, ex-Lazy
Tjodalv - Drums (2017-present) See also: Gromth, Susperia, ex-Black Comedy, ex-Requiem, ex-Seven Sins, ex-Dimmu Borgir, ex-Old Man's Child
[/more]

[more=Technical info]
Input File: 1 - Adornation.mp3
Channels : 2
Sample Rate : 44100
Precision : 16-bit
Duration : 00:08:11.94 = 21694510 samples = 36895.4 CDDA sectors
File Size : 19.8M
Bit Rate : 322k
Sample Encoding: MPEG audio (layer I, II or III)
Comments :
Title=Adornation
Artist=Abyssic
Album=High the Memory
Tracknumber=1
Year=2019
Genre=Rock/Hard Rock/Metal
Discnumber=1

[/more]

Register
(42) AHBAnep, AndreFrancis, artscald, Boozer, cancer1974, cuimit1349, d0zer, doomTemplar, Emhyr var Emreis, Femto, gwynnbleid, Hell_Is_Here, HMHamster, Ice Gnoll, insufferable, libertine, marilin, Metalass, Mist13Signifier, MMMMM, Mogozoz, nikolay81, OfDoom, Olethros, Ostinato, Phlebotomized, Rosen, sarcophagus, sergsazan, Shadechaser, Thiarnan, THROWER666, Tino, toly1917, tupec2, valera2010, VALERY, varlam4, vov7609, wreak, yuratroll, Герб,
Feb 21 2019, 12:34:58 Delain - Hunter's Moon [ep] (2019)
MIRROR
Register
(5) djsema4, finmetal, kimkayoung, Metalass, metalboll,
Feb 21 2019, 12:34:31 Walls Of Blood - Imperium (2019)
Register
(5) AHBAnep, boby9052, djsema4, dulak, roaroma,
Feb 21 2019, 12:33:56 Imperia - Flames Of Eternity (2019)
Register
(7) AHBAnep, djsema4, Emhyr var Emreis, Ice Gnoll, kimkayoung, lawronchik, Shadechaser,

1181 Pages V   1 2 3 > » 
- Lo-Fi Version Support form
Copyrights and abuse reports form
Time is now: 18th November 2019 - 06:36:46