Welcome Guest ( Log In | Register )

История благодарностей участнику aesteticvice ::: Спасибо сказали: 316500 раз(а)
Дата поста: В теме: За сообщение: Спасибо сказали:
Today, 14:42:52 Riven - Hail To The King (2018)


*Artist: Riven
*Album: Hail To The King
*Year: 2018
*Genre: Funeral Doom Metal
*Country: Belgium
*Format: mp3@CBR320kbps
*Size: 98MB

Tracklist:
1. The Plague 14:08
2. The Bells Sound Once More 13:36
3. Hail to the King 14:24
******************************
Total playing time: 42:08



[more=Technical info]
Input File: 02. The Bells Sound Once More.mp3
Channels : 2
Sample Rate : 44100
Precision : 16-bit
Duration : 00:13:36.11 = 35990451 samples = 61208.2 CDDA sectors
File Size : 33.2M
Bit Rate : 325k
Sample Encoding: MPEG audio (layer I, II or III)
Comments :
Title=The Bells Sound Once More
Artist=Riven
Album=Hail to the King
Tracknumber=2/3
Year=2018

[/more]

Register

(1) Korpse,
Today, 13:41:05 Andhera - Firewalker [ep] (2018)
ЦИТАТА(AHBAnep @ Jul 22 2018, 06:11:39) *
Тайнопись? sirt.gif

как бы состав группы crazy.gif
(1) AHBAnep,
Today, 11:03:02 Alizarin - Cast Zenith (2018)
ЦИТАТА(Ogidni @ Jul 22 2018, 07:31:06) *
aesteticvice,
Ты про какой проект говоришь?

про превью в шапке предоставленное самаритянином, а вот если перейти на данный альбом ниже, то там вообще хардовый прог рок без митала и добавились эти два типа 1488.gif
(1) Borderline1991,
Today, 06:44:32 Mutilation Rites - Chasm (2018)
mirror
Register

Register


[youtube]6JVPq-absts[/youtube]
(2) Ostinato, SymbyoticEntity,
Today, 06:33:21 Twilight Fauna - Where Birds Sing My Name (2018)
Больше половины материала эмбиент, блацк в основном эпизодами кроме второго трэка

320/93mb
Register

Register
(1) Ostinato,
Today, 06:31:32 Wilt - Wilt (2017)
WILT have created a truly monstrous death metal/crust masterpiece for the end times – a doomed sonic landscape mauled by lawless warfare in a siege of shadows... (in the vein of BOLT THROWER, MEMORIAM, (old) SEPULTURA)

mirror
Register

[youtube]TUdOMjugdX8[/youtube]
(6) Borderline1991, DarkHorde, infiltrator, older68, Ostinato, SymbyoticEntity,
Today, 04:26:07 Wilt - Wilt (2017)


*Artist: Wilt
*Album: Wilt
*Year: 2017
*Genre: Old School Death Metal
*Country: United States
*Format: mp3@CBR320kbps
*Size: 103MB

Tracklist:
01. Cold Road of Dispair 06:04
02. Sermon for the Bootlickers 03:29
03. Punisher of Faith 03:47
04. Fertile 03:08
05. Territory (Sepultura Cover) 04:21
06. Initiation Rites 04:43
07. Sterile 03:30
08. Scarecrow 03:09
09. Salt Mine 03:36
10. Isolation 06:51
******************************
Total playing time: 42:38



[more=Extended info]
Heather Crawford - Bass
Brian Hazard Spenser - Drums (Isenordal)
Zach Wilde - Guitars (lead)
Gerg Buster - Guitars (rhythm)
Jory Caldwell - Vocals
[/more]

[more=Technical info]
Input File: Wilt - Wilt - 2. Sermon for the Bootlickers.mp3
Channels : 2
Sample Rate : 44100
Precision : 16-bit
Duration : 00:03:29.93 = 9258089 samples = 15745 CDDA sectors
File Size : 8.98M
Bit Rate : 342k
Sample Encoding: MPEG audio (layer I, II or III)
Comments :
Title=Sermon for the Bootlickers
Artist=Wilt
Album=Wilt
Tracknumber=2
Year=2017
Genre=9

[/more]

Register
(14) Borderline1991, Daale, DarkHorde, infiltrator, infozahist, jollo, MeathookSeed, Mist13Signifier, necromasochist, Ostinato, SatanicPanzer, SymbyoticEntity, THROWER666, wrath082,
Yesterday, 19:48:37 Nahaya - Transcendence [ep] (2018)


*Artist: Nahaya
*Album: Transcendence [ep]
*Year: 2018
*Genre: Melodic Death/Thrash Metal
*Country: United States
*Format: mp3@CBR320kbps
*Size: 43MB

Tracklist:
01. Spark
02. Dig Deep
03. At Work with Fire
04. Transcendence
******************************
Total playing time: 18:58



[more=Extended info]Шустрые ребята, энергия так и валит, зря они клин войс начали вставлять, сразу модерном потянуло.
Carl Elfin Ford - Vocal
Semir Ozerkan - Bass
Daniel Abbott - Guitar
Ryan Peters - Guitar
Zachary Herber - Drums
[youtube]jkzCl0tiuM0[/youtube]
[youtube]HpwDVp603Vw[/youtube][/more]

[more=Technical info]
Input File: 02. Dig Deep.mp3
Channels : 2
Sample Rate : 44100
Precision : 16-bit
Duration : 00:04:44.99 = 12567971 samples = 21374.1 CDDA sectors
File Size : 11.5M
Bit Rate : 323k
Sample Encoding: MPEG audio (layer I, II or III)
Comments :
Title=Dig Deep
Artist=Nahaya
Album=Transcendence
Tracknumber=2
Genre=Метал
Discnumber=1

[/more]

Register
(4) infiltrator, Ostinato, SymbyoticEntity, terron,
Yesterday, 18:55:02 Dividing The Element - Dividing The Element (2018)
Ну, такого еще вроде не было, хотя конечно ассоциации с Soulfly и Sepultura будут, по мне скорее на ментальном уровне, всеж тут африканские ритмы и мелодии.
mirror
Register

[youtube]25Mn4HqgijY[/youtube]
(2) Ostinato, SymbyoticEntity,
Yesterday, 18:54:37 Nornsaga - The Shores Of Níðhöggr (2018)
mirror
Register

(2) infiltrator, Ostinato,
Yesterday, 18:53:46 Wulfpäck - War Ain't Over! (2018)
MIRROR
Register


[youtube]HGDmBhiyqyY[/youtube]
(3) Konungr, SymbyoticEntity, vader69,
Yesterday, 17:50:08 Dividing The Element - Dividing The Element (2018)


*Artist: Dividing The Element
*Album: Dividing The Element
*Year: 2018
*Genre: Ethnic Groove/Thrash Metal
*Country: Zimbabwe
*Format: mp3@CBR320kbps
*Size: 80MB

Tracklist:
01. Kumba Kumusha 03:16
02. Upenyu 03:42
03. Third Street 03:19
04. Thanks For Nothing 03:24
05. Magetsi 04:30
06. Mibvunzo 03:38
07. Mhandu (feat. T.shoC) 03:12
08. Munyepi 04:12
09. Third Street (Gary's remix) 03:56
******************************
Total playing time: 33:09




[more=Extended info]Vocals/ Guitar : Chris "Mandebvu" Van
Guitar: Archie "Carrion" Chikoti
Bass: Mat Sanderson
Drums: Nick "Newbz" Newberry
Percussion: Othnell ''Mangoma'' Moyo
[youtube]G3EecX0gk_s[/youtube][/more]

[more=Technical info]
Input File: Dividing The Element - Dividing The Element - 02 Upenyu.mp3
Channels : 2
Sample Rate : 44100
Precision : 16-bit
Duration : 00:03:42.39 = 9807487 samples = 16679.4 CDDA sectors
File Size : 9.01M
Bit Rate : 324k
Sample Encoding: MPEG audio (layer I, II or III)
Comments :
Title=Upenyu
Artist=Dividing The Element
Album=Dividing The Element
Tracknumber=2
Year=2018

[/more]

Register
(5) boby9052, gwar, Ostinato, SymbyoticEntity, terron,
Yesterday, 16:59:40 Wulfpäck - War Ain't Over! (2018)


*Artist: Wulfpäck
*Album: War Ain't Over!
*Year: 2018
*Genre: Old School Thrash Metal
*Country: Germany
*Format: mp3@CBR320kbps
*Size: 76MB

Tracklist:
01. Mr. Shitface
02. Toxic Assault
03. Buried in the Pit
04. Cannabusiness
05. Slaughter the Police
06. War Ain't over!
07. Pork
08. Disastrous Invasion
09. Cuntspiracy
10. Glorycide
******************************
Total playing time: 32:45




[more=Extended info]Justin Entwistle - Guitar&Vocals
Dennis Rušnjak - Guitar
Janis Reichert - Drums

Slowly but steadily, the southern part of Germany seems to be turning into a Germanic Bay Area. Even if the Ruhrpott still claims the air sovereignty over the Teuton Thrash, anyone looking for extremely good Metal should keep an eye on the Franconian province. There the youngsters of WULFPÄCK joined the pack in 2013, recorded a demo and the EP "Pork", and since then they have been causing aggressive, high-speed riffs, a thundering doublebass thunderstorm and a fat portion of groove that, until now, has been shaking up regional stage sets. And not only musically it seems as if the trio had already in the early 1990s with .... (ask the ones who have musical influences or write down 2-3 bands or names, with which you can compare WULFPÄCK), also visually they could have got straight out of a time capsule. This would lay the foundations, and with the new album "War Ain't Over", which will be released this summer at VIOLENT CREEK RECORDS, the three youngsters will undoubtedly stir up the metallic underground beyond the borders of their Coburg homebase. For fans of Lost Society, Suicidal Tendencies, Kreator, Nuclear Assault
[/more]

[more=Technical info]
Input File: 01. Mr. Shitface.mp3
Channels : 2
Sample Rate : 44100
Precision : 16-bit
Duration : 00:04:22.57 = 11579381 samples = 19692.8 CDDA sectors
File Size : 10.6M
Bit Rate : 323k
Sample Encoding: MPEG audio (layer I, II or III)
Comments :
Title=Mr. Shitface
Artist=Wulfpäck
Album=War Ain't over!
Tracknumber=1
Year=2018
Genre=Рок
Discnumber=1

[/more]

Register
(12) andreikun, boby9052, Diflock, DTGB, gwar, infiltrator, older68, Ostinato, slack, SymbyoticEntity, terron, VALERY,
Yesterday, 15:37:19 Nornsaga - The Shores Of Níðhöggr (2018)


*Artist: Nornsaga
*Album: The Shores Of Níðhöggr
*Year: 2018
*Genre: Folk/Viking/Melodic Death Metal
*Country: United States
*Format: mp3@CBR320kbps
*Size: 139MB

Tracklist:
01. Nornsday intro 01:17
02. Nornsaga 04:36
03. The Altered 05:32
04. On the Shores of Níðhöggr 04:53
05. Kaivosmies 05:10
06. From the Sky they Fell 04:29
07. Silent as the Stone Breaks 05:16
08. Tule Kotiin 05:46
09. A Tale of Takaisinvaltaus 08:20
10. Wanderer 05:09
11. Hanzo's Letter 05:56 05:56
12. Ghost Division (Sabaton cover) 03:44
******************************
Total playing time: 1:00:13




[more=Extended info]Justin Deere - Bass
Dustin Thompson - Guitars (lead), Vocals (lead)
Cody Leadingham - Guitars (rhythm), Vocals (backing)[/more]

[more=Technical info]
Input File: 02. Nornsaga.mp3
Channels : 2
Sample Rate : 44100
Precision : 16-bit
Duration : 00:04:36.13 = 12177289 samples = 20709.7 CDDA sectors
File Size : 11.0M
Bit Rate : 320k
Sample Encoding: MPEG audio (layer I, II or III)
Comments :
Title=Nornsaga
Artist=Nornsaga
Album=The Shores of Níðhöggr
Tracknumber=02. Nornsaga
Year=2018

[/more]

Register
(10) Cartman223, djsema4, gwar, Indamage, infiltrator, Korpse, Ostinato, SatanicPanzer, VALERY, скептик,
Yesterday, 11:45:29 Depths Of Hatred - Bloodguilt [ep] (2018)


*Artist: Depths Of Hatred
*Album: Bloodguilt [ep]
*Year: 2018
*Genre: Technical Death Metal/Deathcore
*Country: Canada
*Format: mp3@CBR320kbps
*Size: 52MB

Tracklist:
1. My Penance Beheld 01:09
2. An Infidel's Dissent 04:41
3. Covenant Curse 03:31
4. The Nail Remains 04:10
5. Throes of Desperation 03:38
6. Bloodguilt 04:55
******************************
Total playing time: 22:04




[more=Extended info]Nico Monette.: Vocals
Martin Trottier: Guitar
Felix Demers: Guitar
Karl Desjardins: Drums
Antoine Millette: Bass
[youtube]kKLoZalVUwQ[/youtube][/more]

[more=Technical info]
Input File: 03. Covenant Curse.mp3
Channels : 2
Sample Rate : 44100
Precision : 16-bit
Duration : 00:03:32.02 = 9350258 samples = 15901.8 CDDA sectors
File Size : 8.66M
Bit Rate : 327k
Sample Encoding: MPEG audio (layer I, II or III)
Comments :
Title=Covenant Curse
Artist=Depths of Hatred
Album=Bloodguilt
Tracknumber=03
Year=2018
Genre=Technical Deathcore
Discnumber=1

[/more]

Register
(6) infozahist, Korpse, older68, Ostinato, SymbyoticEntity, terron,
Yesterday, 10:53:40 Jungle Rot - Jungle Rot (2018)
ЦИТАТА(hammer @ Jul 21 2018, 09:17:26) *
я дико извиняюсь - а где тут ролл?

я пиццу ем, роллов нема
(2) defamer666, russ777,
Yesterday, 09:13:51 Andhera - Firewalker [ep] (2018)
достаточно техникал и слегка блэкенед, трэк иммолэйшен-конфетка
mirror
Register

[youtube]A5tdapnx5L0[/youtube]
(1) SymbyoticEntity,
Yesterday, 08:10:46 Beyond Doubts Shadow - The Murder Protocol (2018)
судя по превью и (как модно сейчас писать) предпочтений группы/внешнего вида 1488.gif к прог дэту это имеет сооовсем отдаленное отношение, это какой-то модерн грув трэш смешанный с металкором
Influence: Unearth, Killswith Engage, NIN, Inflames, Soilwork, Fear Factory, Devil Driver, Alice In Chains, Sevendust, Slipknot, Shadows Fall, Metallica, Lamb of God, Chimaira, Static-X, Mudvayne, and many more.
(1) AHBAnep,
Yesterday, 08:03:06 Darkenbachammer - The Rise Of The Ancient Necrobattle (2018)
old Swedish Death Metal sound from the 1989-1992...from the depths of Necro-Atmosphere and Chaos.
mirror
Register

Register

Register

[youtube]7gyV0Rv17to[/youtube]
(4) DarkHorde, infiltrator, older68, SymbyoticEntity,
Yesterday, 07:11:45 Aurora Disease - Burial Of Self (2018)
mirror
Register
(2) SilentNidhogg, VALERY,
Yesterday, 07:10:53 Hitwood - Marea (2018)
MIRROR
Register
(1) VALERY,
Yesterday, 07:09:54 Phantom - Death Epic (2018)
MIRROR
Register

Register

[youtube]-ctYd8CCUu8[/youtube]
(11) Amsterdam, Daale, infiltrator, Korpse, metala, Shadechaser, SilentNidhogg, stub888, THROWER666, VALERY, vasiljev_sergej,
Yesterday, 07:09:26 Symbolum Satanae - Honorem Satanae (2018)
MIRROR
Register

Register

Register


[youtube]D3dyuo5qgH8[/youtube]
[youtube]UEAjlXcWr_I[/youtube]
(9) andivi, DarkHorde, infiltrator, Korpse, Ostinato, Shadechaser, SymbyoticEntity, VALERY, vasiljev_sergej,
Yesterday, 07:08:32 Spaceslug - Eye The Tide (2018)
mirror
Register
(3) Black Cat, SatanicPanzer, VALERY,
Yesterday, 04:00:59 Equilibrium Falls - Within The Core [ep] (2018)


*Artist: Equilibrium Falls
*Album: Within The Core [ep]
*Year: 2018
*Genre: Modern Melodic Death Metal
*Country: Russian Federation
*Format: mp3@CBR320kbps
*Size: 53MB

Tracklist:
01. Within the Core
02. Opium for the Soul
03. Benefit of the Doubt
04. Drown in Hate
05. Through the Storm
******************************
Total playing time: 21:55




[more=Extended info][youtube]foTzTyiBMwk[/youtube][/more]

[more=Technical info]
Input File: 02. Opium for the Soul.mp3
Channels : 2
Sample Rate : 44100
Precision : 16-bit
Duration : 00:05:20.73 = 14144017 samples = 24054.5 CDDA sectors
File Size : 13.5M
Bit Rate : 336k
Sample Encoding: MPEG audio (layer I, II or III)
Comments :
Title=Opium for the Soul
Artist=Equilibrium Falls
Album=Within the Core
Tracknumber=2/5
Year=2018
Discnumber=1/1

[/more]

Register
(2) infiltrator, VALERY,

1020 Pages V   1 2 3 > » 
- Lo-Fi Version Support form
Copyrights and abuse reports form
Time is now: 22nd July 2018 - 15:45:14