Welcome Guest ( Log In | Register )

История благодарностей участнику aesteticvice ::: Спасибо сказали: 310864 раз(а)
Дата поста: В теме: За сообщение: Спасибо сказали:
May 19 2018, 06:53:17 Frosttide - Decedents [ep] (2018)
320/56MB
Register
(11) AHBAnep, csgmnk, dulak, fabriziomagno, infiltrator, kakha_k, kimkayoung, MeatWolf, Ostinato, pfk505, SymbyoticEntity,
May 19 2018, 06:42:18 Panegyrist - Hierurgy (2018)
MIRROR
Register


[youtube]86V_NonJ6Dc[/youtube]
(5) 1968_janeart, infiltrator, kimkayoung, pfk505, SymbyoticEntity,
May 19 2018, 06:29:57 Panegyrist - Hierurgy (2018)


*Artist: Panegyrist
*Album: Hierurgy
*Year: 2018
*Genre: Avant-Garde/Progressive Black Metal
*Country: United States
*Format: mp3@CBR320kbps
*Size: 101MB

Tracklist:
1. Hymn Of Inversion 01:45
2. Idylls of the Cave 06:24
3. To Quicken Stone 09:44
4. The Void Is the Heart of the Flame 04:08
5. Ophidian Crucifix 09:47
6. Hierurgy 12:03
******************************
Total playing time: 43:55




[more=Extended info]Offering a unique, vertiginous combination of avant-garde/progressive black and epic heavy metal, sacred vocal chants and powerful screams, and with the furious drumming of Marcel Szumowski – who played on INFERNO's “Gnosis Kardias” – each track on “Hierurgy” is a spiritual working focusing on a particular aspect of theosis. Journey through alchemical riddles and contemplations on the inner and outer temple, the void and the eye, the serpent and the savior. Come at last to the shores of primordial mercury, and take flight on wings of theion, the philosophical sulfur and everliving fire.
Paul Moore - Bass
Brendan Maine - Guitars
Vincent Ippolito - Guitars
David Cramer - Keyboards, Vocals
Elijah Tamu - Vocals, Guitars
Marcel Szumowski - Drums (ex-Mystic Side, ex-Besatt, ex-Inferno, ex-Killjoy, ex-Thanathron, ex-Landscape of Souls)
[/more]

[more=Technical info]
Input File: 04 - The Void Is The Heart Of The Flame.mp3
Channels : 2
Sample Rate : 44100
Precision : 16-bit
Duration : 00:04:08.87 = 10975079 samples = 18665.1 CDDA sectors
File Size : 10.1M
Bit Rate : 324k
Sample Encoding: MPEG audio (layer I, II or III)
Comments :
Title=The Void Is The Heart Of The Flame
Artist=Panegyrist
Album=Hierurgy
Tracknumber=04/06
Year=2018
Genre=Black Metal

[/more]

Register
(17) 1968_janeart, AHBAnep, Daale, Grimwight, infiltrator, Korpse, marilin, metala, Moonshtook, Ostinato, Rosen, satanist666, Scanneroid, SymbyoticEntity, VALERY, vasiljev_sergej, yuratroll,
May 19 2018, 06:08:16 Xael - The Last Arbiter (2018)
MIRROR
Register

[youtube]ATYdDxHhQz4[/youtube]
(6) csgmnk, infiltrator, kimkayoung, SatanicPanzer, SymbyoticEntity, yuratroll,
May 19 2018, 04:52:38 Альбом 2013 года в жанре technical / progressive death. Тур1
ЦИТАТА(Язва @ May 18 2018, 20:42:50) *
кворума так и нет,

aesteticvice , присоединяйся

Duobetic Homunkulus
(1) Язва,
May 19 2018, 04:37:04 Xael - The Last Arbiter (2018)


*Artist: Xael
*Album: The Last Arbiter
*Year: 2018
*Genre: Progressive/Symphonic Death Metal
*Country: United States
*Format: mp3@CBR320kbps
*Size: 111MB

Tracklist:
1. The Last Arbiter 05:15
2. SRAI - "The Demon of Erring" 06:04
3. The Wayfarer of Tymeer 05:31
4. Watchers of Xan 01:52
5. Apathy of the Immortal 05:00
6. In the Hollows of Pathos 06:13
7. I am Pestilence 05:44
8. Secrets of the Third Tribe 04:53
9. Harvesting the Elders Genome 07:33
******************************
Total playing time: 48:05




[more=Extended info]Nassaru - Vocals and Guitar (Enthean, Rapheumets Well, ex-Blue Man's God, ex-Spine Extraction)
Tuurm - Lead Guitar and Secondary Vocalist (Enthean, ex-Cadaver Creator, ex-Carving the Architect)
Xolotl - Bass and Backing Vocals (ex-Huizar, ex-Intethod, ex-Steel Hawk, ex-Cynonyte, ex-Final Curse, ex-Lecherous Nocturne, ex-Spine Extraction, ex-Blue Man's God, ex-Brown.25, ex-Imperium)
Sorgiem - Lead Guitar and Backing Vocals (ex-Spine Extraction, ex-Rapheumets Well)
Droth - Drummer
Rei - Female Vocals
Firran - Keys/Synths
[youtube]Y6MB9RFKhjg[/youtube]
[youtube]pDiWtgZiLiE[/youtube][/more]

[more=Technical info]
Input File: XAEL - The Last Arbiter -Music Series- - 08 Secrets of the Third Tribe.mp3
Channels : 2
Sample Rate : 44100
Precision : 16-bit
Duration : 00:04:53.10 = 12925490 samples = 21982.1 CDDA sectors
File Size : 11.8M
Bit Rate : 323k
Sample Encoding: MPEG audio (layer I, II or III)
Comments :
Title=Secrets of the Third Tribe
Artist=XAEL
Album=The Last Arbiter "Music Series"
Tracknumber=8
Year=2018

[/more]

Register
(10) aGoo, Cartman223, Corpuscul, infiltrator, metala, mirotvorets, Rosen, SymbyoticEntity, SyncestrA, VALERY,
May 18 2018, 10:54:13 Amorphis - Queen Of Time (2018)
пока рабочие
FLAC (image+.cue,log,scans)/573 Mb (12tr. Limited Edition) Nuclear Blast Records (NB 4126-0)
Register


Japan Edition 320/ 177mb/13tr.
Register
(8) infiltrator, MeatWolf, Mplast, paganheart, Penetralia, recber, SyncestrA, Yarri,
May 17 2018, 06:00:38 Amorphis - Queen Of Time (2018)
Japan Edition 320/176mb +
11. As Mountains Crumble (Bonus Track)
12. Brother And Sister (Bonus Track)
13. Honeyflow (Japan Bonus)

Register
(13) acerbus, AHBAnep, Alexis The Best, Aresson, Black Cat, BleedingSun, kimkayoung, Kisser, kostja, MeatWolf, ripper33, Un4given, vo140182fav,
May 16 2018, 10:54:36 TIMŌRĀTUS - The Great Mortality (2018)


*Artist: TIMŌRĀTUS
*Album: The Great Mortality
*Year: 2018
*Genre: Black/Death Metal
*Country: United States
*Format: mp3@CBR320kbps
*Size: 92MB

Tracklist:
1. Of Human Bondage 04:00
2. Eternal Loss 04:27
3. Intermission (2 Years Later) 01:12
4. Confrontation of the End 03:56
5. No One Left 04:29
6. Intermission (4 Years Later) 01:00
7. Slumbering Vision 06:58
8. Realization of Purpose 06:36
9. Intermission (8 Years Later) 00:38
10. Questions 00:51
11. Coming Into Her Own 00:47
12. Father 00:40
13. New Love 01:10
14. Winding Down 01:37
15. Deathbed 01:09
16. Kafla's Soul Leaves His Body 00:16
******************************
Total playing time: 39:46



[more=Extended info][youtube]WLYget8MHm4[/youtube]
[youtube]5gwrQJwo3QQ[/youtube][/more]

[more=Technical info]
Input File: TIMŌRĀTUS - The Great Mortality - 02 Eternal Loss.mp3
Channels : 2
Sample Rate : 44100
Precision : 16-bit
Duration : 00:04:27.15 = 11781447 samples = 20036.5 CDDA sectors
File Size : 10.8M
Bit Rate : 323k
Sample Encoding: MPEG audio (layer I, II or III)
Comments :
Title=Eternal Loss
Artist=TIMЕЊRДЂTUS
Album=The Great Mortality
Tracknumber=2
Year=2018

[/more]

Register
(8) Grimwight, infiltrator, METALHUNTER, nunim, Ostinato, Rosen, VALERY, vasiljev_sergej,
May 16 2018, 04:43:58 Umbrälia - The Dark Path (2018)
mirror
Register


[youtube]0gowgTc2log[/youtube]
(3) infiltrator, SatanicPanzer, vyacheslav,
May 15 2018, 20:24:46 Umbrälia - The Dark Path (2018)


*Artist: Umbrälia
*Album: The Dark Path
*Year: 2018
*Genre: Progressive Death Metal
*Country: Mexico
*Format: mp3@CBR320kbps
*Size: 113MB

Tracklist:
1. Prelude to Insanity 04:38
2. Truth of Thorns 08:13
3. When the Lies are Real 04:15
4. Dominion 04:41
5. Near Collapse 05:15
6. Injured 05:33
7. The Defeated 06:53
8. Satan 09:39
******************************
Total playing time: 49:07




[more=Extended info]Alÿ - Lead & Rythm Guitars / Keyboards / Ukulele
Jorge "El Piolo" Soria - Bass Guitars
Alfonso "Mr. Blast" Sánchez- Drums
Saba Madrid - Vocals[/more]

[more=Technical info]
Input File: 03 When the Lies Are Real.mp3
Channels : 2
Sample Rate : 44100
Precision : 16-bit
Duration : 00:04:16.05 = 11291937 samples = 19204 CDDA sectors
File Size : 10.3M
Bit Rate : 322k
Sample Encoding: MPEG audio (layer I, II or III)
Comments :
Title=When the Lies Are Real
Artist=Umbrälia
Album=The Dark Path
Tracknumber=3/8
Year=2018
Genre=9
Discnumber=1/1

[/more]

Register
(11) andreikun, infiltrator, iteration666, kimkayoung, metala, METALHUNTER, nunim, Ostinato, Rosen, SymbyoticEntity, VALERY,
May 15 2018, 09:13:49 Kekal - Deeper Underground (2018)
mirror
Register

[youtube]-xfC81evNvk[/youtube]
(3) kimkayoung, SymbyoticEntity, yuratroll,
May 15 2018, 09:00:07 Amorphis - Queen Of Time (2018)
Death Metal? headcrab.png

в файнде я уже все написал, что думаю про альбом
Amorphis - The Queen Of Time (2018)
(1) SAPOGi,
May 15 2018, 05:40:30 Kekal - Deeper Underground (2018)


*Artist: Kekal
*Album: Deeper Underground
*Year: 2018
*Genre: Avant-Garde/Extreme Progressive Metal
*Country: Indonesia
*Format: mp3@CBR320kbps
*Size: 99MB

Tracklist:
1. Root of All Evil 06:27
2. Sanity Away from Sanity 05:24
3. Speed of God 04:45
4. Rotten in the House 04:07
5. Deeper Underground 05:04
6. The Many Faces of Your Face 04:58
7. Revealment (feat. Voxlucis) 03:35
8. Triple Evils 05:28
9. End of Hegemony 06:01
******************************
Total playing time: 45:49




[more=Extended info]"Deeper Underground" is Kekal's 11th full-length album, and it marks with the return of deep energetic simplicity derived from the band's extreme metal and crust roots, while maintaining its electronic music atmosphere as the basis for dialectical and emotional expositions of the lyrics.
The music examines the depths of philosophical and spiritual knowledge of existence, not in order to reserve all rights, but to reverse all wrongs. As metallic as it is synthesized, as organic as it is electronic, Kekal remains true to its core psyche in delivering music not only to feed our brains, but also to stir our souls.
[/more]

[more=Technical info]
Input File: 07 Revealment (feat. Voxlucis).mp3
Channels : 2
Sample Rate : 44100
Precision : 16-bit
Duration : 00:03:35.85 = 9518853 samples = 16188.5 CDDA sectors
File Size : 8.67M
Bit Rate : 321k
Sample Encoding: MPEG audio (layer I, II or III)
Comments :
Title=Revealment (feat. Voxlucis)
Artist=Kekal
Album=Deeper Underground
Tracknumber=7/9
Year=2018
Genre=9
Discnumber=1/1

[/more]

Register
(9) as71, metala, Ostinato, Rosen, SymbyoticEntity, syntexid, VALERY, Yanek, zerger,
May 14 2018, 14:16:17 Punition Babek - Come To Die (2018)
MIRROR
Register
(3) MEmethuselah, SymbyoticEntity, vinnivova,
May 14 2018, 07:50:14 Punition Babek - Come To Die (2018)


*Artist: Punition Babek
*Album: Come To Die
*Year: 2018
*Genre: Thrash Metal
*Country: Italy
*Format: mp3@CBR320kbps
*Size: 103MB

Tracklist:
01. Enslaver
02. Darkness in Hell
03. A Power to Believ
04. Come to Die
05. Demons
06. Into Reality
07. Money War
08. Rovine
******************************
Total playing time: 45:03



[more=Extended info]Marco "Frozen" Gianfriddo - Chitarra e Cori (2008 - presente)
Giovanni "Inox" Casulli - Voce (2009 - presente)
Alessandro "Alex" Fantini - Basso e Cori (2009 - presente)
Roberto "Bob" Chimentelli - Batteria (2008 - presente)
Antonio "Master" Mastrosimone - Chitarra (2013-presente)
[youtube]CuAcITpnchc[/youtube][/more]

[more=Technical info]
Input File: 04. Come to Die.mp3
Channels : 2
Sample Rate : 44100
Precision : 16-bit
Duration : 00:03:58.03 = 10496991 samples = 17852 CDDA sectors
File Size : 9.52M
Bit Rate : 320k
Sample Encoding: MPEG audio (layer I, II or III)
Comments :
Title=Come to Die
Artist=PUNITION BABEK
Album=Come to Die
Tracknumber=4/8
Year=2018

[/more]

Register
(11) andreikun, boby9052, Diflock, gwar, metala, METALHUNTER, Rosen, SymbyoticEntity, v.v.m, vir2al, wgs73,
May 13 2018, 10:08:30 Coffin Problem - So Good Nothing (2018)
MIRROR
Register
(2) ASkyThatBurns, Ostinato,
May 13 2018, 08:52:25 Coffin Problem - So Good Nothing (2018)


*Artist: Coffin Problem
*Album: So Good Nothing
*Year: 2018
*Genre: Post-Metal
*Country: United States
*Format: mp3@CBR320kbps
*Size: 99MB

Tracklist:
1. Prelude 04:06
2. Piece of Mind 05:14
3. Binary 05:32
4. Old Souls 06:40
5. So Good Nothing 05:27
6. Justification 05:06
7. Dying Age 06:33
8. Abysmal End 07:16
******************************
Total playing time: 45:54




[more=Extended info]Sean - Guitar/Vocals/Keys
Billy - Basses
Trevor - Guitars/Backing Vocals
Ben - Drums, Percussion
Erin - Backing vocals on tracks 4, 5, & 8
Jess - Backing vocals on tracks 4 & 8
Matt - Backing vocals on track 8[/more]

[more=Technical info]
Input File: 02 Piece of Mind.mp3
Channels : 2
Sample Rate : 44100
Precision : 16-bit
Duration : 00:05:14.63 = 13874963 samples = 23596.9 CDDA sectors
File Size : 12.9M
Bit Rate : 329k
Sample Encoding: MPEG audio (layer I, II or III)
Comments :
Title=Piece of Mind
Artist=Coffin Problem
Album=So Good Nothing
Tracknumber=2/8
Year=2018
Genre=Post-Metal
Discnumber=1/1

[/more]

Register
(3) ASkyThatBurns, avkruchinin, snot,
May 12 2018, 13:02:12 Ki Project - Robocalypse (2018)
MIRROR
Register
(2) SymbyoticEntity, vyacheslav,
May 12 2018, 13:01:27 Marax - The Abbys Of Illusions [ep] (2018)
MIRROR
Register
(5) ASkyThatBurns, csgmnk, kimkayoung, Ostinato, SymbyoticEntity,
May 12 2018, 13:00:48 In My Ashes - Dreaming Chaos (2018)
mirror
Register
(4) ASkyThatBurns, csgmnk, kimkayoung, SymbyoticEntity,
May 12 2018, 12:59:05 Mûspellzheimr - Raukn (2018)
MIRROR
Register
(8) 1968_janeart, ASkyThatBurns, CultMetalSerge, Moonshtook, Mortuusinfernus, nsk2008, skeletron215, vasiljev_sergej,
May 12 2018, 12:21:09 Mûspellzheimr - Raukn (2018)


*Artist: Mûspellzheimr
*Album: Raukn
*Year: 2018
*Genre: Black Metal
*Country: Denmark
*Format: mp3@CBR320kbps
*Size: 111MB

Tracklist:
1. . 07:57
2. . 05:45
3. . 08:44
4. . 06:24
5. . 06:13
6. . 08:33
******************************
Total playing time: 43:36



[more=Extended info][youtube]ALrMG7mkOTE[/youtube][/more]

[more=Technical info]
Input File: 02 - Ii.mp3
Channels : 2
Sample Rate : 44100
Precision : 16-bit
Duration : 00:05:45.27 = 15226231 samples = 25895 CDDA sectors
File Size : 16.0M
Bit Rate : 371k
Sample Encoding: MPEG audio (layer I, II or III)
Comments :
Title=II
Artist=MГ»spellzheimr
Album=Raukn
Tracknumber=2
Year=2018

[/more]

Register
(24) 1968_janeart, acerbus, ASkyThatBurns, Borderline1991, Daale, Evilded, Fryz, gena, Immortality, Indamage, kim666, Korpse, LEGION69, mondblut, nunim, Qliphoth, Rosen, satanist666, SilentNidhogg, stub888, udt4050, VALERY, vovenom, yuratroll,
May 12 2018, 11:59:21 In My Ashes - Dreaming Chaos (2018)


*Artist: In My Ashes
*Album: Dreaming Chaos
*Year: 2018
*Genre: Progressive Death/Heavy Metal
*Country: Italy
*Format: mp3@CBR320kbps
*Size: 73MB

Tracklist:
1. Louder
2. Lack Of Sanity
3. The Punishment
4. Metamorphosis
5. Hypocrisy
6. Dreaming Chaos
7. Enigma
8. Medal Of Life
******************************
Total playing time: 34:33



[more=Extended info]Alessio Colabianchi - Vocal
Simone Cristiani - Guitar
Manuel Piccinini - Guitar
Diego Scacchitti - Bass
Gianpaolo Angeloni - Drum
[youtube]BLW-EvDL3_A[/youtube]
[youtube]2J5IeNTrhXU[/youtube][/more]

[more=Technical info]
Input File: 2 Lack of Sanity.mp3
Channels : 2
Sample Rate : 44100
Precision : 16-bit
Duration : 00:03:49.48 = 10120244 samples = 17211.3 CDDA sectors
File Size : 9.29M
Bit Rate : 324k
Sample Encoding: MPEG audio (layer I, II or III)
Comments :
Title=Lack of Sanity
Artist=In My Ashes
Album=Dreaming Chaos
Tracknumber=2/8
Year=2018
Genre=Melodic Death Metal
Discnumber=1/1

[/more]

Register
(6) ASkyThatBurns, metala, nunim, Rosen, Rover, VALERY,
May 12 2018, 11:41:14 Marax - The Abbys Of Illusions [ep] (2018)


*Artist: Marax
*Album: The Abbys Of Illusions [ep]
*Year: 2018
*Genre: Symphonic Black/Death Metal
*Country: Slovenia
*Format: mp3@CBR320kbps
*Size: 44MB

Tracklist:
1. Intro
2. The Relinquishment Of Existence
3. The Daemon's Promise
4. Suicide
5. Resurrection
******************************
Total playing time: 19:57




[more=Extended info]Members of some other Slovenian bands (Cvinger, Cordura, Morana).
Anin Astaroth - Vocals
Morgoth - Drums
Nord Slayer - Guitar & Synth
Skalph - Bass
Žica - Violin[/more]

[more=Technical info]
Input File: 5 Resurrection.mp3
Channels : 2
Sample Rate : 44100
Precision : 16-bit
Duration : 00:04:03.38 = 10733146 samples = 18253.6 CDDA sectors
File Size : 9.92M
Bit Rate : 326k
Sample Encoding: MPEG audio (layer I, II or III)
Comments :
Title=Resurrection
Artist=Marax
Album=The Abyss Of Illusions
Tracknumber=5/5
Year=2018
Genre=Progressive Death Metal
Discnumber=1/1

[/more]

Register
(6) ASkyThatBurns, krotovich, Rosen, satanist666, SilentNidhogg, VALERY,

997 Pages V   1 2 3 > » 
- Lo-Fi Version Support form
Copyrights and abuse reports form
Time is now: 23rd May 2018 - 02:32:52