Welcome Guest ( Log In | Register )

История благодарностей участнику aesteticvice ::: Спасибо сказали: 358178 раз(а)
Дата поста: В теме: За сообщение: Спасибо сказали:
Today, 07:36:47 Dream Theater - Distance Over Time (2019)
Кошерные 320 прям с пылу-жару

140mb/320
Register

Register

Register
(1) recber,
Yesterday, 21:09:29 Dream Theater - Distance Over Time (2019)
я СЕЙЧАС ПЬЯНЫЙ В ДУПЕЛ ЖАРЮ ШИКАРНЫЙ катлето-отбивной, веган меня сейчас осуждает самозабвенно, а мне в кайф, я неправ?
(1) Фо,
Yesterday, 13:22:37 Cogitatio Obscura - Remnants Of Our Myths (2019)


*Artist: Cogitatio Obscura
*Album: Remnants Of Our Myths
*Year: 2019
*Genre: Atmospheric/Melodic Black/Folk Metal
*Country: Croatia
*Format: mp3@CBR320kbps
*Size: 91MB

Tracklist:
1. Nativity of Spring 01:15
2. The Journey Begins 10:06
3. Revelation of the Universe pt.1 04:12
4. Revelation of the Universe pt.2 05:37
5. Enter the Mythical Forest 01:55
6. Beneath the Forest Canopy 09:20
7. Acquiescence 01:11
8. Dusk of the Winter Goddess 03:05
9. Infinity 02:07
******************************
Total playing time: 38:48




[more=Extended info][youtube]-wRzxpSYWJ8[/youtube][/more]

[more=Technical info]
Input File: Cogitatio Obscura - Remnants of Our Myths - 04 Revelation of the Universe pt.2.mp3
Channels : 2
Sample Rate : 44100
Precision : 16-bit
Duration : 00:05:37.57 = 14886925 samples = 25317.9 CDDA sectors
File Size : 13.5M
Bit Rate : 321k
Sample Encoding: MPEG audio (layer I, II or III)
Comments :
Title=Revelation of the Universe pt.2
Artist=Cogitatio Obscura
Album=Remnants of Our Myths
Tracknumber=4
Year=2019

[/more]

Register
(5) artscald, Olethros, Rosen, satanist666, VALERY,
Yesterday, 13:12:06 Corpselium - Fountain Of Evil (2019)


*Artist: Corpselium
*Album: Fountain Of Evil
*Year: 2019
*Genre: Atmospheric/Occult Doom Metal
*Country: United Kingdom
*Format: mp3@CBR320kbps
*Size: 166MB

Tracklist:
1. Debauchery 06:20
2. Iberia 06:32
3. Shifting forms amidst the Dark of Night 11:28
4. the Wicked did Sleep (alternative) 07:30
5. Death by Bewitchment 08:12
6. Cross of the Ways 06:55
7. encounters with Magical Creatures 07:20
8. the Diabolical Mist 08:42
9. the Wicked did Sleep 08:20
******************************
Total playing time: 1:11:19



[more=Technical info]
Input File: Corpselium - Fountain of Evil - 02 Iberia.mp3
Channels : 2
Sample Rate : 44100
Precision : 16-bit
Duration : 00:06:32.69 = 17317805 samples = 29452 CDDA sectors
File Size : 15.9M
Bit Rate : 324k
Sample Encoding: MPEG audio (layer I, II or III)
Comments :
Title=Iberia
Artist=Corpselium
Album=Fountain of Evil
Tracknumber=2
Year=2019

[/more]

Register
(12) artscald, Ice Gnoll, Irimias, marilin, metala, Olethros, Ostinato, Rosen, SatanicPanzer, stub888, stumpheavyrock, VALERY,
Yesterday, 13:00:07 Evil Tormentor - Nigromancia Y Chabolismo (2019)


*Artist: Evil Tormentor
*Album: Nigromancia Y Chabolismo
*Year: 2019
*Genre: Old School Death/Thrash Metal
*Country: Spain
*Format: mp3@CBR320kbps
*Size: 69MB

Tracklist:
1. Nigromancia y Chabolismo (intro) 02:31
2. Satan Hates Moralists 03:32
3. Bringer of Souls 03:45
4. Warlock Child's Revenge 03:08
5. Lord of the Ashes 05:09
6. Toxic Rats 02:21
7. Silver Fume Ghost 03:58
8. Evil Prevails 04:42
******************************
Total playing time: 29:06




[more=Extended info]Anjoly Toñín - Vocals
Setesh - Guitars
Redu el Niño Jako - Drums
Rodrogas - Bass
[youtube]hJy5r2OoKFk[/youtube]
[youtube]WzlUFgVoVyE[/youtube]
[youtube]NQTJauwc9lo[/youtube][/more]

[more=Technical info]
Input File: Evil Tormentor - Nigromancia y Chabolismo - 02 Satan Hates Moralists.mp3
Channels : 2
Sample Rate : 44100
Precision : 16-bit
Duration : 00:03:32.96 = 9391580 samples = 15972.1 CDDA sectors
File Size : 8.67M
Bit Rate : 326k
Sample Encoding: MPEG audio (layer I, II or III)
Comments :
Title=Satan Hates Moralists
Artist=Evil Tormentor
Album=Nigromancia y Chabolismo
Tracknumber=2
Year=2019

[/more]

Register
(9) andreikun, artscald, DarkHorde, deathrashergavo, metala, Olethros, Rosen, stumpheavyrock, wgs73,
Yesterday, 10:31:59 Spiritcraft - Legacy Of Truth (2019)


*Artist: Spiritcraft
*Album: Legacy Of Truth
*Year: 2019
*Genre: Power Metal
*Country: Uruguay
*Format: mp3@CBR320kbps
*Size: 94MB

Tracklist:
1. Midnight Storm 05:11
2. Apparition 06:32
3. Legacy of Truth 05:50
4. Dagorlad 05:46
5. Far Beyond Illusion 05:44
6. Chains of Pain 05:36
7. Más allá de la ilusión 05:44
******************************
Total playing time: 40:23



[more=Extended info]Heavy/Power Metal with Melodic Death Metal Influences

Javier Lima - Bass, Vocals (backing) (2012-present) See also: Jake al Rey, Vardogr, ex-Dagorlad, ex-Asgard Tales, ex-Blizzard
Gabriel Chávez - Guitars (2012-present) See also: Vallvuler, ex-Arkham, ex-Asgard Tales, ex-Dagorlad, ex-Vardogr
Eduardo Lima - Vocals (2012-present) See also: Vardogr, ex-Dagorlad, ex-Asgard Tales
Fernando Gomez - Drums (2016-present) See also: Vardogr, ex-Deep Dream
Pablo Cheveste - Guitars, Vocals (backing) (2016-present) See also: ex-Apneuma, ex-Siria

[youtube]Qznm9cIqmgU[/youtube]
[youtube]AfXNhNuFw8o[/youtube][/more]

[more=Technical info]
Input File: 01 - Midnight Storm.mp3
Channels : 2
Sample Rate : 44100
Precision : 16-bit
Duration : 00:05:12.00 = 13759200 samples = 23400 CDDA sectors
File Size : 12.7M
Bit Rate : 326k
Sample Encoding: MPEG audio (layer I, II or III)
Comments :
Title=Midnight Storm
Artist=Spiritcraft
Album=Legacy of Truth
Tracknumber=1
Year=2019
Genre=Heavy Metal
Discnumber=1

[/more]

Register
(7) ace73pq, artscald, Herrant, metala, Olethros, Rosen, Rover,
Yesterday, 10:26:18 Dreamlongdead - Umbra [ep] (2018)


*Artist: Dreamlongdead
*Album: Umbra [ep]
*Year: 2018
*Genre: Old School Death/Doom Metal
*Country: Greece
*Format: mp3@CBR320kbps
*Size: 62MB

Tracklist:
1. No Grave Deep Enough(The Ballad of a Tall Man) 07:51
2. You gotta be fuckin' kidding 03:19
3. El Ritmo de la Tierra (The Yawning Chasm) 10:56
4. Unveiling the Becoming (Layers of Unreality) 04:40
******************************
Total playing time: 26:46




[more=Extended info]John: Vocals
Tassos: Vocals, Rhythm & Lead Guitars
Panos: Rhythm & Lead Guitars
Leo: Bass
Tolis: Drums

Synthesizers on “You gotta be fuckin' kidding” by Makis Petratos
Additional lead guitar on “No Grave Deep Enough” & harmony guitar on “El Ritmo le la Tierra” by Nikos Papakostas
Additional vocals on “El Ritmo le la Tierra” by Panos

Dialogue excerpts from:
“Phantasm” (1979, New Breed Productions Inc.)
“The Thing” (1982, Universal Pictures, Turman-Foster Company)
“In the Mouth of Madness” (1994, New Line Cinema)[/more]

[more=Technical info]
Input File: 01. No Grave Deep Enough (The Ballad Of A Tall Man).mp3
Channels : 2
Sample Rate : 44100
Precision : 16-bit
Duration : 00:07:51.33 = 20785653 samples = 35349.8 CDDA sectors
File Size : 18.9M
Bit Rate : 320k
Sample Encoding: MPEG audio (layer I, II or III)
Comments :
Title=No Grave Deep Enough(The Ballad Of A Tall Man)
Artist=DreamLongDead
Album=Umbra
Tracknumber=01
Year=2018
Genre=Death / Doom Metal

[/more]

Register
(10) andreikun, artscald, Ice Gnoll, marilin, Olethros, Ostinato, Rosen, stumpheavyrock, VALERY, Герб,
Yesterday, 10:10:34 Canticum Diaboli - De Flammis Et Dei Ruina (2019)


*Artist: Canticum Diaboli
*Album: De Flammis Et Dei Ruina
*Year: 2019
*Genre: Melodic Black Metal
*Country: Italy
*Format: mp3@CBR320kbps
*Size: 91MB

Tracklist:
1. Dies Irae 04:51
2. Canticum Diaboli 03:41
3. Vae Victis 04:05
4. Misantropia 04:42
5. Nox Profana 02:59
6. Alba nera 03:25
7. Tempesta 04:58
8. Laus Ultima 09:17
******************************
Total playing time: 37:58



[more=Extended info]Laevus - Guitars (lead) (2014-present)
Apostata - Guitars (rhythm) (2014-present)
Cernunnos - Bass (2016-present), Vocals (2016-present) See also: Barbarossa, ex-Vereor Nox
Impudicus - Drums (2017-present)
[youtube]ZaF08e8O03s[/youtube][/more]

[more=Technical info]
Input File: 02 - Canticum Diaboli.mp3
Channels : 2
Sample Rate : 44100
Precision : 16-bit
Duration : 00:03:41.09 = 9750025 samples = 16581.7 CDDA sectors
File Size : 9.39M
Bit Rate : 340k
Sample Encoding: MPEG audio (layer I, II or III)
Comments :
Title=Canticum Diaboli
Artist=Canticum Diaboli
Album=De Flammis et Dei Ruina
Tracknumber=2
Year=2019
Genre=Black Metal
Discnumber=1

[/more]

Register
(10) AHBAnep, artscald, kim666, Olethros, Ostinato, Rosen, satanist666, VALERY, vasiljev_sergej, zhol,
Yesterday, 08:57:30 Ethereal Darkness - Smoke And Shadows (2019)
mirror
Register

[youtube]gAl9IlABtVY[/youtube]
(2) --AK--, Ostinato,
Yesterday, 04:33:59 Ethereal Darkness - Smoke And Shadows (2019)


*Artist: Ethereal Darkness
*Album: Smoke And Shadows
*Year: 2019
*Genre: Melodic Death/Doom Metal
*Country: Belgium
*Format: mp3@CBR320kbps
*Size: 118MB

Tracklist:
1. Rivers 02:44
2. The Dreaming Soul 06:07
3. Forgotten Shadows 06:15
4. The Light That Fades 06:30
5. Apocalypse in Your Mind 05:32
6. Shrouded in Mourn 06:34
7. Time 07:34
8. Flow into the Sea 10:18
******************************
Total playing time: 51:34




[more=Extended info][youtube]quy3pXQE4sM[/youtube][/more]

[more=Technical info]
Input File: 02 - The Dreaming Soul.mp3
Channels : 2
Sample Rate : 44100
Precision : 16-bit
Duration : 00:06:07.54 = 16208514 samples = 27565.5 CDDA sectors
File Size : 14.7M
Bit Rate : 320k
Sample Encoding: MPEG audio (layer I, II or III)
Comments :
Title=The Dreaming Soul
Artist=Ethereal Darkness
Album=Smoke and Shadows
Tracknumber=2
Year=2019
Genre=Death Metal
Discnumber=1

[/more]

Register
(22) artscald, dalek, Ice Gnoll, KVRT, LEGION69, Maximvs, MeatWolf, metala, metalwoman, Olethros, ripper33, Rosen, russ777, sadmannn, SatanicPanzer, satanist666, sergsazan, THROWER666, toly1917, tOmV, VALERY, zhol,
Yesterday, 03:53:58 Oldd Wvrms - Codex Tenebris (2019)
MIRROR
Register

[youtube]f2j5Hsc9C-0[/youtube]
(1) Ostinato,
Yesterday, 03:51:21 Evnen - Act. II (2019)
MIRROR
Register

[youtube]FrqGyD5RylQ[/youtube]
(1) Ostinato,
Feb 19 2019, 21:46:56 Magnabolt - Magnabolt (2019)


*Artist: Magnabolt
*Album: Magnabolt
*Year: 2019
*Genre: Heavy/Thrash/Power Metal
*Country: United States
*Format: mp3@CBR320kbps
*Size: 105MB

Tracklist:
1. Surveillance 06:04
2. The Thunder Breaks 05:39
3. Master of the Cosmos 05:45
4. Don't Question the Master 04:47
5. Tongue of Fire 05:00
6. Knocknasheega 05:00
7. The Fox Chase 01:22
8. Power Squelch 04:23
9. Art of War 07:42
******************************
Total playing time: 45:42




[more=Extended info]ОЛДСКУЛ

Andrew Sylvia - Bass (Alpha Viper, Demon's Bell, Leathürbitch, ex-White Lightning, ex-Excruciator)
Matt Fitzgerald - Drums (ex-White Lightning)
Alex Ponder - Guitars (Weresquatch, ex-Headless Pez)
Peter Sylvia - Guitars, Vocals (Last Empire, ex-White Lightning)

[youtube]vzRpcp4K4CU[/youtube][/more]

[more=Technical info]
Input File: Magnabolt - Magnabolt - 04 Don't Question the Master.mp3
Channels : 2
Sample Rate : 44100
Precision : 16-bit
Duration : 00:04:47.52 = 12679588 samples = 21563.9 CDDA sectors
File Size : 11.6M
Bit Rate : 322k
Sample Encoding: MPEG audio (layer I, II or III)
Comments :
Title=Don't Question the Master
Artist=Magnabolt
Album=Magnabolt
Tracknumber=4
Year=2019

[/more]

Register
(6) artscald, Herrant, metala, Olethros, Rosen, Rover,
Feb 19 2019, 21:26:52 Candlemass - The Door To Doom (2019)
ЦИТАТА(Ghostb @ Feb 19 2019, 20:04:49) *
Это же самый первый их вокалист, еще на дебютнике пел)

с тех пор он сильно постарел, он тогда еще был слабоват, там сам материал вытягивал ну и молодой задор
(1) Ghostb,
Feb 19 2019, 21:16:53 Oldd Wvrms - Codex Tenebris (2019)


*Artist: Oldd Wvrms
*Album: Codex Tenebris
*Year: 2019
*Genre: Occult Doom Metal/Sludge
*Country: Belgium
*Format: mp3@CBR320kbps
*Size: 117MB

Tracklist:
1. Ténèbres 10:22
2. A L'or, Aux Ombres et Aux Abîmes 07:11
3. Misère & Corde 09:57
4. La Vallée Des Tombes 10:54
5. Fléau Est Son Âme 15:21
******************************
Total playing time: 53:45




[more=Extended info]В этот раз парни решили погрузить слушателя в инструментальные ритуальные действа, это все тот же мрачный жирный сладж дум остов с оккультно-постовыми венами.
Drawing his inspiration from ancient tales of witchcraft and forgotten rituals.
Their music is brewed in a dark cauldron, blending doom/sludge/black and post-metal, including samples, drones & lithurgic chants into a more hypnotic and intoxicating level.
Cho : Drums
Oli : Bass
Ben : Guitar
[/more]

[more=Technical info]
Input File: 02-oldd_wvrms-a_lor_aux_ombres_et_aux_abimes-39bc83bf.mp3
Channels : 2
Sample Rate : 44100
Precision : 16-bit
Duration : 00:07:11.60 = 19033384 samples = 32369.7 CDDA sectors
File Size : 17.4M
Bit Rate : 323k
Sample Encoding: MPEG audio (layer I, II or III)
Comments :
Title=A l'or, aux ombres et aux abîmes
Artist=Oldd Wvrms
Album=Codex tenebris
Tracknumber=2/5
Year=2019
Genre=Metal

[/more]

Register
(8) artscald, marilin, Olethros, Ostinato, Rosen, SatanicPanzer, stub888, VALERY,
Feb 19 2019, 20:44:11 Dyecrest - The Stage Is Set [ep] (2019)


*Artist: Dyecrest
*Album: The Stage Is Set [ep]
*Year: 2019
*Genre: Melodic Heavy/Power Metal
*Country: Finland
*Format: mp3@CBR320kbps
*Size: 50MB

Tracklist:
01. The Stage Is Set
02. Truce
03. Winterblood (Acoustic Version)
04. First Born Angel (Janne Oksanen Version)
05. Where the Light Was Born (Kimmo Blom Version)
******************************
Total playing time: 23:26



[more=Extended info]The EP was mixed by Miitri Aaltonen (Mokoma, Stam1na etc.) and mastered by Mika Jussila (Nightwish, Stratovarius etc.)

Mikael Salo: Lead Vocals
Henri Arola: Guitar, Backing Vocals
Matti Pasanen: Guitar, Backing Vocals
Pirkka Ohlis: Guitar, Keyboards, Backing Vocals
Jukka Matilainen: Bass
Niko Takala: Drums

[youtube]mLDs2La9lOg[/youtube][/more]

[more=Technical info]
Input File: 02. Truce.mp3
Channels : 2
Sample Rate : 44100
Precision : 16-bit
Duration : 00:03:22.10 = 8912478 samples = 15157.3 CDDA sectors
File Size : 8.14M
Bit Rate : 322k
Sample Encoding: MPEG audio (layer I, II or III)
Comments :
Title=Truce
Artist=Dyecrest
Album=The Stage Is Set
Tracknumber=2
Year=2019
Discnumber=1

[/more]

Register
(9) artscald, finmetal, metalwoman, Olethros, Rosen, Rover, satanist666, sergsazan, zhol,
Feb 19 2019, 20:28:45 Gets Worse - Snubbed (2019)


*Artist: Gets Worse
*Album: Snubbed
*Year: 2019
*Genre: Grindcore
*Country: United Kingdom
*Format: mp3@CBR320kbps
*Size: 61MB

Tracklist:
01. Empty Tank
02. Attendance Report
03. Hamster Food
04. Awkwardly Close
05. Dernard vs Drenrad
06. Crushed
07. El Belcho
08. Panic Shredder
09. Carlton Negged
10. Neck Vein
11. Fun Borrower
12. Shwoe Is Me
13. Redundant
14. Kool Brewster
15. 20 Gigaherpz
16. Mumbloid
17. Doppelkinda
18. Heart Leaker
19. Flies
20. Rest in Schromph
******************************
Total playing time: 27:05




[more=Extended info]Benj - Guitar // Vox
Paul - Bass // Vox
Rich - Drums // Vox
Tom - Guitar // Vox
[youtube]701bKDEHkRo[/youtube]
[youtube]H8P_a62uauI[/youtube]
[youtube]t9rmSDOgqXY[/youtube][/more]

[more=Technical info]
Input File: 03. Hamster Food.mp3
Channels : 2
Sample Rate : 44100
Precision : 16-bit
Duration : 00:00:53.03 = 2338799 samples = 3977.55 CDDA sectors
File Size : 2.26M
Bit Rate : 341k
Sample Encoding: MPEG audio (layer I, II or III)
Comments :
Title=Hamster Food
Artist=Gets Worse
Album=Snubbed
Tracknumber=3
Year=2019
Discnumber=1

[/more]

Register
(7) A.L.Rapsod, FUDEDOR, KoreanGringo, Olethros, Rosen, satanist666, Герб,
Feb 19 2019, 20:15:01 Melancholy - Branches And Hooks (2019)


*Artist: Melancholy
*Album: Branches And Hooks
*Year: 2019
*Genre: Progressive/Melodic Death/Doom Metal
*Country: Russian Federation
*Format: mp3@CBR320kbps
*Size: 95MB

Tracklist:
1. Dead Paradigm 04:55
2. Gladiator's Field 06:26
3. Mucus 04:34
4. Goat Mantra 03:50
5. Phantasm 06:24
6. Tentacles 05:05
7. Space Face 06:57
8. Reincarnation 05:53
******************************
Total playing time: 44:04



[more=Extended info]Roos Beast : Guitar, Voice, Key
Den Marino : Guitar, Voice
Levon : Bass

Guest musicians:
Andrey Ischenko - Drums
Max Rigel - Drums
Alex Kozlovsky - Cello
Eugeniy Ilin – Clarinet, Sax, Fluite
Boris Pronin - Trombon
[youtube]XeVEQ8Fs5Vs[/youtube]
[youtube]Pe8YJlQIsyk[/youtube][/more]

[more=Technical info]
Input File: 04. Goat Mantra.mp3
Channels : 2
Sample Rate : 44100
Precision : 16-bit
Duration : 00:03:50.36 = 10159008 samples = 17277.2 CDDA sectors
File Size : 9.32M
Bit Rate : 324k
Sample Encoding: MPEG audio (layer I, II or III)
Comments :
Title=Goat Mantra
Artist=Melancholy
Album=Branches and Hooks
Tracknumber=4
Year=2019
Discnumber=1

[/more]

Register
(6) artscald, metala, Olethros, Rosen, SatanicPanzer, VALERY,
Feb 19 2019, 19:58:36 Evnen - Act. II (2019)


*Artist: Evnen
*Album: Act. II
*Year: 2019
*Genre: Black/Death Metal
*Country: Spain
*Format: mp3@CBR320kbps
*Size: 75MB

Tracklist:
01. Perfidia
02. Falling Into Darkness
03. Angelus Infernalis
04. Thousand Tears
05. Eternal Kingdom
06. Beyond the Dark Light
07. Signati
******************************
Total playing time: 34:56




[more=Extended info]Jonathan Plaza - Vocals
Daniel Aparicio - Bass guitar
Diego Pérez - Guitars
Jordy Rodriguez - Guitars
Yann Amarok - Drums[/more]

[more=Technical info]
Input File: 01. Perfidia.mp3
Channels : 2
Sample Rate : 44100
Precision : 16-bit
Duration : 00:04:07.19 = 10900947 samples = 18539 CDDA sectors
File Size : 9.98M
Bit Rate : 323k
Sample Encoding: MPEG audio (layer I, II or III)
Comments :
Title=Perfidia
Artist=Evnen
Album=Act. II
Tracknumber=1
Year=2019
Discnumber=1

[/more]

Register
(12) artscald, marilin, MaXL, metala, Olethros, Ostinato, ripper33, Rosen, satanist666, VALERY, vasiljev_sergej, vov7609,
Feb 19 2019, 19:41:45 Phrymerial - Xenomorphic Creation (2019)
ЦИТАТА(yorsh @ Feb 19 2019, 18:24:46) *
Инопланетяне стали популярной темой в жанрах с приставкой 'тэкникал'.
Или мне кажется?

возможно, но сабж не техникал, прибруталенный дэткор, тупой и прямой как палка с перерывами на слэмминг и брэйкдауны
(1) AHBAnep,
Feb 19 2019, 19:20:59 Starmaker - Immortal (2019)


*Artist: Starmaker
*Album: Immortal
*Year: 2019
*Genre: Melodic Power Metal
*Country: Mexico
*Format: mp3@CBR320kbps
*Size: 70MB

Tracklist:
1. Prelude in D Minor 01:46
2. Immortal 03:50
3. The Call 04:14
4. Tomorrow Comes 06:52
5. Quartermain 03:28
6. Elementos 04:02
7. To Live Forever 03:52
8. Oceans of Light 03:27
******************************
Total playing time: 31:31




[more=Extended info]Eduardo Alapisco - Bass, Vocals (lead) See also: Sky Wanderer
Christian del Toro - Drums See also: Silent Devotion
Fernando C. Farías - Guitars (lead), Vocals (backing) See also: Sky Wanderer
Manuel Mava - Guitars (lead), Vocals (backing)
Paulina Siordia - Vocals[/more]

[more=Technical info]
Input File: 02. Immortal.mp3
Channels : 2
Sample Rate : 44100
Precision : 16-bit
Duration : 00:03:50.05 = 10145205 samples = 17253.8 CDDA sectors
File Size : 9.32M
Bit Rate : 324k
Sample Encoding: MPEG audio (layer I, II or III)
Comments :
Title=Immortal
Artist=Starmaker
Album=Immortal
Tracknumber=2
Year=2019
Discnumber=1

[/more]

Register
(8) artscald, Herrant, metala, Olethros, Rosen, satanist666, sergsazan, wn129aa,
Feb 19 2019, 18:28:10 Spirits Of Fire - Spirits Of Fire (2019)
Tim Owens (ex-Judas Priest, ex-Iced Earth) – Lead and Background Vocals
Chris Caffery (Savatage, Trans-Siberian Orchestra) – Lead, Rhythm and acoustic guitars, Background vocals
Steve DiGiorgio (Testament, Death, etc.) – Bass Guitars
Mark Zonder (ex-Fates Warning, Warlord) – Drums


159MB/320
Register

Register

[youtube]Cg1gzFPAhcM[/youtube]
[youtube]9mUkTfutQso[/youtube]
(5) ace73pq, AHBAnep, Beazth, MеtalHead, stumpheavyrock,
Feb 19 2019, 18:27:31 Iron Savior - Kill Or Get Killed (2019)
crazy.gif Heavy/Power Metal

116MB/320
Register

Register

[youtube]vYcxJbz4fUI[/youtube]
[youtube]dsDYvuWbrI4[/youtube]
(14) ace73pq, AHBAnep, Beazth, boby9052, Fess, forgersky, katalin, MеtalHead, recber, Reverend, SpeedThrasher, stumpheavyrock, v.v.m, wn129aa,
Feb 19 2019, 17:45:01 Crimson Carnage - Memoirs (2019)


*Artist: Crimson Carnage
*Album: Memoirs
*Year: 2019
*Genre: Melodic Death Metal
*Country: Sweden
*Format: mp3@CBR320kbps
*Size: 114MB

Tracklist:
01. Origin
02. Memoirs
03. Built by Rage
04. What They Say
05. The Blackening Heart
06. Pre Paper
07. Hate Pain Misery
08. Is Frost
09. Carry On
10. Flee or Fight
11. Righteous
12. The Lies
13. Desolation
******************************
Total playing time: 50:02

Preview 1

[more=Extended info]кодек GoGo
[youtube]wToPYdUbEtE[/youtube]
[youtube]NXvNHtzlh_g[/youtube]
[youtube]F3UYz9M_wjo[/youtube][/more]

[more=Technical info]
Input File: 06 - Pre Paper.mp3
Channels : 2
Sample Rate : 44100
Precision : 16-bit
Duration : 00:03:58.80 = 10531124 samples = 17910.1 CDDA sectors
File Size : 9.55M
Bit Rate : 320k
Sample Encoding: MPEG audio (layer I, II or III)
Comments :
Title=Pre Paper
Artist=Crimson Carnage
Album=Memoirs
Tracknumber=6
Year=2019
Genre=Death Metal
Discnumber=1

[/more]

Register
(9) artscald, BugEyes, HMHamster, Olethros, Rosen, sadmannn, sergsazan, VALERY, zhol,
Feb 19 2019, 09:19:48 Aeon Bridge - Revelations (2019)


*Artist: Aeon Bridge
*Album: Revelations
*Year: 2019
*Genre: Neo-Classical/Progressive Thrash Metal
*Country: United States
*Format: mp3@CBR320kbps
*Size: 112MB

Tracklist:
01. Lightning Strikes Twice 05:17
02. Lord Renegade 05:32
03. Moonlight Sonata, Movement I 05:34
04. Moonlight Sonata, Movement III 06:14
05. The Maelstrom 01:15
06. Allegro Inizio Redux 03:20
07. Aeon Eternal (Love Song for the Anxious) 04:01
08. Pictures at an Exhibition No. 9 - The Hut of Baba Yaga 03:47
09. Time-Shift 04:25
10. Inferno 04:45
11. Inferno (Instrumental) 04:45
******************************
Total playing time: 48:55



[more=Extended info]Track 1 guest solo: Jacob Rabin
Track 2 guest monologue: The Mars Advance; features excerpts of "Bouree In E Minor," composed by Johann Sebastian Bach, and "Eine Kleine Nachtmusik," composed by Wolfgang Amadeus Mozart
Track 3 composed by Ludwig van Beethoven; arranged by Aeon Bridge; guest solo: Jacob Rabin
Track 4 originally released on "The Bard's Reprisal"; composed by Ludwig van Beethoven; arranged by Aeon Bridge; guest solo: Jacob Rabin
Track 6 originally released on "The Bard's Reprisal"; features excerpt of "Caprice No. 5," composed by Niccolò Paganini
Track 8 composed by Modest Mussorgsky; arranged by Aeon Bridge
Track 10 vocals: Jacob Rabin; guest solos (in order): Dylan Meldrum, Eva Sanchez, Jacob Rabin

[youtube]bJ6yxvt0k38[/youtube]
[youtube]J1vjFbEdARI[/youtube]
[youtube]eqseF4hpss8[/youtube][/more]

[more=Technical info]
Input File: 06 - Allegro Inizio Redux (Redux).mp3
Channels : 2
Sample Rate : 44100
Precision : 16-bit
Duration : 00:03:20.19 = 8828379 samples = 15014.2 CDDA sectors
File Size : 8.01M
Bit Rate : 320k
Sample Encoding: MPEG audio (layer I, II or III)
Comments :
Title=Allegro Inizio Redux (Redux)
Artist=Aeon Bridge
Album=Revelations
Tracknumber=6
Year=2019
Genre=Metal
Discnumber=1

[/more]

Register
(9) artscald, boby9052, HMHamster, metala, Niknne, Olethros, Rosen, sadmannn, tOmV,

1177 Pages V   1 2 3 > » 
- Lo-Fi Version Support form
Copyrights and abuse reports form
Time is now: 21st February 2019 - 08:21:25