Welcome Guest ( Log In | Register )

История благодарностей участнику aesteticvice ::: Спасибо сказали: 328019 раз(а)
Дата поста: В теме: За сообщение: Спасибо сказали:
Today, 15:50:16 Chapter V: F10 - Pathogenesis (2018)


*Artist: Chapter V: F10
*Album: Pathogenesis
*Year: 2018
*Genre: Atmospheric Black Metal
*Country: Ukraine
*Format: mp3@CBR320kbps
*Size: 99MB

Tracklist:
1. Pathogenesis as Grace 08:45
2. Xenomorph Synthesis 01:18
3. Wrong Alien Endorphin 08:00
4. Blame to Human Begins 01:04
5. Nuclear Dogma AN602 10:45
6. Mephistophes Discipline 02:33
7. Helvetestoner 07:10
8. Error Circulation 02:35
******************************
Total playing time: 42:10




[more=Extended info]Astaroth Merc - All instruments (Balfor, Deferum Sacrum, Raventale, Virvel av Morkerhatet, P'hevda Phenomenon, ex-Den of Winter)
Howler - Vocals (Virvel av Morkerhatet, ex-Den of Winter, Astral Lueur, ex-Balance Interruption, ex-Tele.S.Therion)[/more]

[more=Technical info]
Input File: 06 Chapter V F10 - Mephistopheles Discipline.mp3
Channels : 2
Sample Rate : 44100
Precision : 16-bit
Duration : 00:02:33.19 = 6755811 samples = 11489.5 CDDA sectors
File Size : 6.13M
Bit Rate : 320k
Sample Encoding: MPEG audio (layer I, II or III)
Comments :
Title=Mephistopheles Discipline
Artist=Chapter V: F10
Album=Pathogenesis
Tracknumber=06
Year=2018

[/more]

Register
(1) kim666,
Today, 13:42:53 Oracle - Seven Deadly Sins (2018)


*Artist: Oracle
*Album: Seven Deadly Sins
*Year: 2018
*Genre: Dark/Death Metal
*Country: United States
*Format: mp3@CBR320kbps
*Size: 124MB

Tracklist:
01. Seven Deadly Sins
02. Greed
03. Envy
04. Lust
05. Pride
06. Gluttony
07. Sloth
08. Wrath
09. Sin into Exile
10. The Cleansation of All Sin
******************************
Total playing time: 50:49




[more=Extended info]Ray Ozinga - Bass (2016-present)
BG Watson - Drums (2016-present) See also: ex-Curse the Flesh
Trey Ozinga - Guitars (2016-present)
Jason Long - Vocals (2016-present) See also: Curse the Flesh[/more]

[more=Technical info]
Input File: 02 Greed.mp3
Channels : 2
Sample Rate : 44100
Precision : 16-bit
Duration : 00:03:26.54 = 9108194 samples = 15490.1 CDDA sectors
File Size : 8.81M
Bit Rate : 341k
Sample Encoding: MPEG audio (layer I, II or III)
Comments :
Title=Greed
Artist=Oracle
Album=Seven Deadly Sins
Tracknumber=2/10
Year=2018
Genre=Metal
Discnumber=1/1

[/more]

Register
(4) Doooomed, marilin, metala, tOmV,
Today, 12:55:37 Voivod - The Wake (2018)
ЦИТАТА(Shadowman @ Sep 25 2018, 11:40:00) *
В общем, впечатления от прослушивания довольно предсказуемые: сложность на завернутости сидит, да диссонансами всяческими погоняет. Вот только музыки как таковой за всем этим не слыхать. Хотя, если кому-то так заходит, что прям аж "шедевр" и "альбом года", спорить не буду - все очень индивидуально.

тут играет психоделический фактор, сабж надо расслушивать не с технической стороны, тут прежде всего надо ловить волну и чуствовать ощущения по над ритмами... сложно разжевать, просто напялил наушники закрыл глаза и погрузился в их мир... понятно, что не все воспринимают одинаково, поэтому если тебе нравится воивода, то найти в нем себя легко, я поначалу воспринимал только несколько альбомов, а теперь мне абсолютно все кажется гениальным, от панка и хэви в их исполнении до психоделики и трэша, я даже их мейнстримовый харднхэви альбом теперь могу слушать, а раньше плевался 1488.gif слушаю просто по иному и знаю, что хочу услышать
(1) avkruchinin,
Today, 12:20:19 Inoculation - Pure Cosmic Dread (2018)
ЦИТАТА(Thrashman @ Sep 25 2018, 11:11:06) *
ооо! раньше был олдскул трэш, олдскул дет, теперь есть олдскул текникал дет.
ждём олдскул прогрессив дет, олдскул блэк, олдскул хэви метал, олдскул хард рок 1488.gif

дебют у парней был реально шикарный, классический тех дэт с влиянием мэтров жанра, как будто из начала 90х, тут они пошли в "развитии" дальше, ускорившись и упростившись сделав реверанс от классики дэта в сторону современных тенденций, это еще не дэткор, но уже и не старая школа и даже за исключением некоторых отголосков уже не тех дэт, они сейчас ближе к кольцам сатурна, но как я написал выше напоминают сильно урезанную версию, плюс пока без брейков, хотя местами на замедлениях нечто похожее уже проскальзывает
(1) AHBAnep,
Today, 11:09:29 Mania - Reality Is The True Horror (2018)
mirror
Register
(1) Orphan,
Today, 11:03:42 Blood Of Serpents - Sulphur Sovereign (2018)
убойный и яростный шведо-сатаник, по злобе можно вспомнить ранний мардук и дарк фунерал, естесственно с шведским прононсом, я убрал трэш из стиля, там какие-то миазмы его витают на статическом уровне


MIRROR
Register

Register


[youtube]3uljnSvTJtc[/youtube]
[youtube]id6_q3NoNTc[/youtube]
[youtube]R9oQNPOBPB8[/youtube]
(1) DarkHorde,
Today, 06:12:00 Central Disorder - Eradication (2018)


*Artist: Central Disorder
*Album: Eradication
*Year: 2018
*Genre: Melodic Death/Thrash/Groove Metal
*Country: United States
*Format: mp3@CBR320kbps
*Size: 110MB

Tracklist:
01. The Descent
02. Insurrection
03. The Reckoning
04. Suffer My Hand
05. Eradication
06. No Salvation
07. Into the Night
08. Save the Hero
09. Bleed You Dry
10. Gravewalker
11. Consumed
******************************
Total playing time: 47:59




[more=Extended info]Rob "Torpedo" Peto - Vocals
Derek "D-Rock" DeLucia - Guitar
Michael Masky - Guitar
Aaron "A-Aron" Fedor - Bass
Bobby McCarthy - Drums

[youtube]_1_8Goo6lfg[/youtube]
[youtube]eqTXysEJXX8[/youtube][/more]

[more=Technical info]
Input File: 03. The Reckoning.mp3
Channels : 2
Sample Rate : 44100
Precision : 16-bit
Duration : 00:03:43.78 = 9868698 samples = 16783.5 CDDA sectors
File Size : 8.95M
Bit Rate : 320k
Sample Encoding: MPEG audio (layer I, II or III)
Comments :
Title=The Reckoning
Artist=Central Disorder
Album=Eradication
Tracknumber=3
Year=2018
Discnumber=1/1

[/more]

Register
(2) metala, sadmannn,
Today, 04:55:51 Fatal Death - Renacer Del Ejecutor [ep] (2018)


*Artist: Fatal Death
*Album: Renacer Del Ejecutor [ep]
*Year: 2018
*Genre: Thrash/Death Metal
*Country: Peru
*Format: mp3@CBR320kbps
*Size: 23MB

Tracklist:
01. Intro 01:18
02. Ejecutor 03:34
03. Mentes Putrefactas 03:10
04. Muerte Fatal 02:58
******************************
Total playing time: 11:00




[more=Extended info]Freddy G. - Guitar & Vocals
Bryan A. - Lead Guitar
Erik S. - Drums
Bernardo G. - Bass[/more]

[more=Technical info]
Input File: Fatal Death - Renacer del Ejecutor - 02 02. Ejecutor.mp3
Channels : 2
Sample Rate : 44100
Precision : 16-bit
Duration : 00:03:34.48 = 9458436 samples = 16085.8 CDDA sectors
File Size : 8.72M
Bit Rate : 325k
Sample Encoding: MPEG audio (layer I, II or III)
Comments :
Title=02. Ejecutor
Artist=Fatal Death
Album=Renacer del Ejecutor
Tracknumber=2
Year=2018

[/more]

Register
(1) wgs73,
Yesterday, 19:56:37 Blood Of Serpents - Sulphur Sovereign (2018)


*Artist: Blood Of Serpents
*Album: Sulphur Sovereign
*Year: 2018
*Genre: Black/Death Metal
*Country: Sweden
*Format: mp3@CBR320kbps
*Size: 101MB

Tracklist:
01. Mater Tenebris 05:04
02. In Darkness, Brotherhood 04:06
03. Devil's Tongue 03:55
04. Evictor of Christ 05:04
05. As the Temple Burns 07:14
06. Canticle 02:32
07. As Nocturnal Dimensions Beckon 04:59
08. Upon Waters Dark 05:42
09. Prophet of a False Faith 04:40
10. A Void Between Worlds 04:55
******************************
Total playing time: 48:11




[more=Extended info]Benny Åkeson - Bass (2012-present)
Kristian Roupe - Drums (2012-2013), Guitars (2013-present)
Fredrik Nilsson - Guitars (2012-present)
Christoffer Andersson - Drums (2013-present)
Thomas Clifford - Vocals (2018-present) See also: Abscession, Throne of Heresy, Zombie Destrüktion
[/more]

[more=Technical info]
Input File: 02. In Darkness, Brotherhood.mp3
Channels : 2
Sample Rate : 44100
Precision : 16-bit
Duration : 00:03:56.11 = 10412451 samples = 17708.2 CDDA sectors
File Size : 9.51M
Bit Rate : 322k
Sample Encoding: MPEG audio (layer I, II or III)
Comments :
Title=In Darkness, Brotherhood
Artist=Blood Of Serpents
Album=Sulphur Sovereign
Tracknumber=2
Year=2018
Discnumber=1

[/more]

Register
(7) DarkHorde, Doooomed, kim666, marilin, metala, ripper33, Tino,
Yesterday, 16:44:18 Mania - Reality Is The True Horror (2018)


*Artist: Mania
*Album: Reality Is The True Horror
*Year: 2018
*Genre: Atmospheric Black Metal
*Country: United States
*Format: mp3@CBR320kbps
*Size: 106MB

Tracklist:
1. Getting Nowhere 02:06
2. End Everything 02:52
3. Virion 03:23
4. Where Is God? 07:23
5. Endless State of Decay 04:12
6. Philosophy of Desire 02:28
7. Black 06:41
8. No Escape 05:58
9. No Future 07:56
******************************
Total playing time: 42:59



[more=Extended info]Nate Myers - All instruments (2004-present), Vocals (2004-present) See also: Iron Scepter, Predatory Light, Splatterhouse, Vault Dweller, Hell, Vanum, ex-Leech, Flesh Amulet, Kvlt 45, Nulla Cur, River, Will o the Wisp, ex-Velnias, ex-Disneyland, ex-Sars
Guest:
Nick Superchi - Piano (tracks 4 & 5) (Mysticism Black, MotörThrone, The Dead, Thy Emptiness, ex-Ceremonial Castings, ex-Abigail Williams, ex-Detrusion, ex-Hellchasm )
Gina Eygenhuysen - Violin (tracks 4 & 5) (Weeping Sores, Indian Blanket, Fister)[/more]

[more=Technical info]
Input File: 02. End Everything.mp3
Channels : 2
Sample Rate : 48000
Precision : 16-bit
Duration : 00:02:52.06 = 8258832 samples ~ 12904.4 CDDA sectors
File Size : 7.89M
Bit Rate : 367k
Sample Encoding: MPEG audio (layer I, II or III)
Comments :
Title=End Everything
Artist=Mania
Album=Reality Is The True Horror
Tracknumber=2
Year=2018
Genre=Black Metal

[/more]

Register
(2) kim666, stub888,
Yesterday, 14:05:22 Rudra - Past Life Regression (2018)


*Artist: Rudra
*Album: Past Life Regression
*Year: 2018
*Genre: Black/Death Metal
*Country: Singapore
*Format: mp3@CBR320kbps
*Size: 114MB

Tracklist:
01. Epitaph
02. Anger
03. Armageddon 1
04. Armageddon 2
05. Innocuous
06. Necrophilia 1
07. Pleasure of the Grave
08. Malediction 1
09. Hiding Behind Shadows
10. Murder Suicide
11. Malediction 2
12. Dwelling in the Unknown
13. Fake Elimination
14. Necrophilia 2
******************************
Total playing time: 49:53

[more=Extended info]Shiva - Drums (1992-present) See also: Kaliyuga
Kathir - Vocals, Bass (1992-present) See also: Abyssal Vortex, The Wandering Ascetic, ex-Narasimha, ex-Zushakon
Vinod - Guitars (2009-present) See also: Predatory, ex-Narasimha, ex-$uicide $olution, ex-Chaos Aftermath
Simon- Guitars (2013-present)[/more]

[more=Technical info]
Input File: 04 Armageddon 2.mp3
Channels : 2
Sample Rate : 44100
Precision : 16-bit
Duration : 00:04:02.12 = 10677316 samples = 18158.7 CDDA sectors
File Size : 9.75M
Bit Rate : 322k
Sample Encoding: MPEG audio (layer I, II or III)
Comments :
Title=Armageddon 2
Artist=Rudra
Album=Past Life Regression
Tracknumber=04/14
Year=2018
Genre=Death/Black Metal
Discnumber=1/1

[/more]

Register
(10) A.L.Rapsod, Dmitry1977, marilin, Mist13Signifier, Ostinato, Rosen, the_metalist, Tino, VALERY, vasiljev_sergej,
Yesterday, 07:30:08 Alexandra Zerner - Opus 1880 (2018)
MIRROR
Register
(1) thenecromancer,
Yesterday, 07:28:46 Human Decay - Mefitico (2018)
83MB/320
Register


[youtube]wGMQNhZ8gFo[/youtube]
(5) Foneg, jollo, older68, Ostinato, spiritualdecay666,
Yesterday, 07:25:25 Evil Invaders - Broken Dreams In Isolation [single] (2018)
MIRROR
Register

[youtube]cXHMKff7eAI[/youtube]
(2) cancer1974, Diflock,
Yesterday, 07:21:33 All My Sins - Pra Sila - Vukov Totem (2018)
MIRROR
Register


[youtube]j2tDR_buE-k[/youtube]
[youtube]DJIWinFXg3c[/youtube]
(2) nsk2008, vasiljev_sergej,
Yesterday, 07:13:24 Daedius - Of Chaos And Resurgence (2018)
MIRROR
Register

Register


[youtube]Sqmx5mkeD-0[/youtube]
(3) Foneg, MMMMM, Ostinato,
Yesterday, 04:36:05 Ashen Fields - Ashen Fields [ep] (2018)


*Artist: Ashen Fields
*Album: Ashen Fields [ep]
*Year: 2018
*Genre: Symphonic Death Metal
*Country: Italy
*Format: mp3@CBR320kbps
*Size: 25MB

Tracklist:
1. Moonlit Ashes 02:06
2. The Darkness that I Command 03:38
3. The Gods' Vessel 05:28
******************************
Total playing time: 11:12




[more=Extended info]Julio Rossanigo - Vocals
Davide Manzi - Guitars, Orchestrations
Jacopo Ruggero - Guitars
Fabio Mereta - Bass Guitar
Alessandro Fanelli - Drums
Additional keyboards by Ivano Lavezzini and Davide Manzi
Andrea Battista - Narrator on "The Gods' Vessel"

[youtube]Qw-NvmiP28E[/youtube][/more]

[more=Technical info]
Input File: 02. The Darkness That I Command.mp3
Channels : 2
Sample Rate : 44100
Precision : 16-bit
Duration : 00:03:38.58 = 9639422 samples = 16393.6 CDDA sectors
File Size : 8.85M
Bit Rate : 324k
Sample Encoding: MPEG audio (layer I, II or III)
Comments :
Title=The Darkness That I Command
Artist=Ashen Fields
Album=Ashen Fields (EP)
Tracknumber=2/3
Year=2018
Discnumber=1/1

[/more]

Register
(5) METALHUNTER, Ostinato, Rosen, SatanicPanzer, VALERY,
Yesterday, 03:13:52 Shrine Of Malice - Malignance [ep] (2018)


*Artist: Shrine Of Malice
*Album: Malignance [ep]
*Year: 2018
*Genre: Atmospheric/Blackened Deathcore
*Country: United States
*Format: mp3@CBR320kbps
*Size: 75MB

Tracklist:
1. Beelzebub 05:25
2. Hollow Sockets 04:46
3. The Furtherance ft Rheese Peters 04:43
4. Rot & Decay 05:12
5. The Stairwell ft Dan Watson 04:55
6. Lord of Flies ft Tom Barber 07:11
******************************
Total playing time: 32:12




[more=Extended info]This is metallic, melodic, ruthless, relentless, dissident, atmospheric, brutal and just pure evil. (С)

Izrael Selassie - Guitarist
Chris Paz - Lead Guitarist
Greg GIlbert - Vocalist
Dominic Keller - Bass Guitarist
Josh Null - Drummer
[youtube]1UQB_no086g[/youtube]
[youtube]NOgaFpNo6WE[/youtube][/more]

[more=Technical info]
Input File: 02 Hollow Sockets.mp3
Channels : 2
Sample Rate : 44100
Precision : 16-bit
Duration : 00:04:47.05 = 12658993 samples = 21528.9 CDDA sectors
File Size : 11.5M
Bit Rate : 321k
Sample Encoding: MPEG audio (layer I, II or III)
Comments :
Title=Hollow Sockets
Artist=Shrine of Malice
Album=Malignance
Tracknumber=2
Year=2018
Genre=Deathcore

[/more]

Register
(2) Ostinato, Rosen,
Yesterday, 02:57:12 Alexandra Zerner - Opus 1880 (2018)


*Artist: Alexandra Zerner
*Album: Opus 1880
*Year: 2018
*Genre: Progressive Metal
*Country: Bulgaria
*Format: mp3@CBR320kbps
*Size: 283MB

Tracklist:
01. Overture (feat. Ivan Ivanov)
02. Chaos of Cards (feat. Angel Wolf-Black)
03. The Oracle (feat. Angel Wolf-Black & Ivan Ivanov)
04. Mirrors
05. Quest of Light (feat. Angel Wolf-Black)
06. The Sound of Dreaming (feat. Angel Wolf-Black, Mistheria & Nora Kalcheva)
07. Questions (feat. Angel Wolf-Black)
08. Letter to Nowhere (feat. Angel Wolf-Black)
09. Diamind
10. Pinch of Time (feat. Angel Wolf-Black)
11. The Missed Dance (feat. Angel Wolf-Black)
12. Desaturation Point (feat. Bobby Koelble)
13. Master of Lightning (feat. Angel Wolf-Black, Ivan Ivanov & Iavor Pachovski)
14. The Other Side of the Sky, Pt. 1 (feat. Svetlana Bliznakova)
15. Unfairlytale (feat. Gretchen Menn)
16. Cumulonimbi
17. Dolphins (feat. Misha Iliev)
18. Electric Kisses (feat. Franck Hermanny)
19. Sensosphere (feat. Ivan Ivanov)
20. Five Gardens
21. The Other Side of the Sky, Pt. 2 (feat. Svetlana Bliznakova)
22. Youtopia
******************************
Total playing time: 2:01:29



[more=Extended info]double-CD
Born in Sofia, Bulgaria, Alexandra Zerner is a solo artist, guitar player, multi-instrumentalist and composer. She has been working as a session musician, sound engineer and guitar teacher since 2001...

[youtube]7921BpKArW4[/youtube]
[youtube]xI1QCT-3Vqg[/youtube][/more]

[more=Technical info]
Input File: 08. Letter to Nowhere (feat. Angel Wolf-Black).mp3
Channels : 2
Sample Rate : 44100
Precision : 16-bit
Duration : 00:02:36.02 = 6880262 samples = 11701.1 CDDA sectors
File Size : 6.50M
Bit Rate : 333k
Sample Encoding: MPEG audio (layer I, II or III)
Comments :
Title=Letter to Nowhere (feat. Angel Wolf-Black)
Artist=Alexandra Zerner
Album=Opus 1880
Tracknumber=8/22
Year=2018
Discnumber=1/1

[/more]

Register
(4) Herrant, Rosen, sadmannn, Yarri,
Yesterday, 02:30:59 Rotten Monarch - Albatross [ep] (2018)


*Artist: Rotten Monarch
*Album: Albatross [ep]
*Year: 2018
*Genre: Atmospheric Black/Doom Metal
*Country: United States
*Format: mp3@CBR320kbps
*Size: 70MB

Tracklist:
01. Trudge
02. Distant Void
03. Savannah Dreams
04. Dusk Summit
05. Collective
06. Albatross
07. UpHere
******************************
Total playing time: 30:10




[more=Extended info][youtube]PHcczhwDGHc[/youtube]
[youtube]2t2HRHfiA3A[/youtube][/more]

[more=Technical info]
Input File: 02 Distant Void.mp3
Channels : 2
Sample Rate : 44100
Precision : 16-bit
Duration : 00:05:43.19 = 15134635 samples = 25739.2 CDDA sectors
File Size : 13.9M
Bit Rate : 324k
Sample Encoding: MPEG audio (layer I, II or III)
Comments :
Title=Distant Void
Artist=Rotten Monarch
Album=Albatross
Tracknumber=02/07
Year=2018
Genre=Metal
Discnumber=1/1

[/more]

Register
(8) Doooomed, metala, Ostinato, Rosen, sergsazan, stub888, VALERY, vasiljev_sergej,
Yesterday, 02:06:05 El Escuadrón De La Muerte - Los Días Podridos (2018)


*Artist: El Escuadrón De La Muerte
*Album: Los Días Podridos
*Year: 2018
*Genre: Stoner/Doom Metal/Death'n'Roll
*Country: Mexico
*Format: mp3@CBR320kbps
*Size: 93MB

Tracklist:
01. Licantropandillero
02. Los Pinches Marcianos
03. Crudo y Erizo
04. Que Encuentres Flores en tu Camino
05. Morir
06. Porro con Cocos y Ramos
07. Perro Cabrón
08. Por Culero
09. Destructor de Anos
10. Tirado en el Infierno
******************************
Total playing time: 40:09




[more=Extended info][youtube]E23jizwn2ow[/youtube]
[youtube]uaGzhUAzVMo[/youtube][/more]

[more=Technical info]
Input File: 03 Crudo y Erizo.mp3
Channels : 2
Sample Rate : 32000
Precision : 16-bit
Duration : 00:02:24.18 = 4613760 samples ~ 10813.5 CDDA sectors
File Size : 5.77M
Bit Rate : 320k
Sample Encoding: MPEG audio (layer I, II or III)
Comments :
Title=Crudo y Erizo
Artist=El Escuadrón de la Muerte
Album=Los Días Podridos
Tracknumber=3
Year=2018
Genre=Rock

[/more]

Register
(3) Rosen, SatanicPanzer, VALERY,
Yesterday, 01:55:54 Sygdom - Onkosphaere [ep] (2018)


*Artist: Sygdom
*Album: Onkosphaere [ep]
*Year: 2018
*Genre: Blackened Doom Metal
*Country: Germany
*Format: mp3@CBR320kbps
*Size: 33MB

Tracklist:
1. Onkosphaere 04:16
2. Siech 04:12
3. Karg 05:23
******************************
Total playing time: 13:51



[more=Technical info]
Input File: Sygdom - Onkosphaere - 02 Siech.mp3
Channels : 2
Sample Rate : 44100
Precision : 16-bit
Duration : 00:04:12.07 = 11116243 samples = 18905.2 CDDA sectors
File Size : 10.1M
Bit Rate : 321k
Sample Encoding: MPEG audio (layer I, II or III)
Comments :
Title=Siech
Artist=Sygdom
Album=Onkosphaere
Tracknumber=2
Year=2018

[/more]

Register
(8) craP_cillA, marilin, Ostinato, Rosen, sergsazan, Shadechaser, VALERY, vasiljev_sergej,
Sep 23 2018, 17:15:21 All My Sins - Pra Sila - Vukov Totem (2018)


*Artist: All My Sins
*Album: Pra Sila - Vukov Totem
*Year: 2018
*Genre: Atmospheric Black/Pagan Metal
*Country: Serbia
*Format: mp3@CBR320kbps
*Size: 131MB

Tracklist:
1. Vukov Totem 09:43
2. Zov iz Magle 07:56
3. Vetrovo Kolo 06:25
4. U Mlazevima Krvi 03:52
5. Opsena 07:57
6. Mesecu u Oko 01:19
7. Konačna Ravnodnevica (Čin Prvi) 10:25
8. Konačna Ravnodnevica (Čin Drugi) 08:10
******************************
Total playing time: 55:50



[more=Extended info]Thematically focused upon the most important and powerful totem in the culture of southern Slavs, "Pra Sila - Vukov Totem" is a concept album specifically designed and dedicated to the Wolf as a mythological being.
V - Guitars, Bass, Vocals (backing & clean), Recitals, Keys, Vrg (Dead Shell of Universe, Terrörhammer, Ulvdalir, ex-Bethor, ex-Kawir, ex-Triumfall, ex-Zaklan)
Nav Cosmos - Vocals, Recitals, Bass
Khargash - Bass, Vocals (backing) (track 8) (Obscured, Terrörhammer, Neman, ex-Bloodline, Haematuria, No Regrets, T.W.A.T., ex-Bane, ex-M.A.D: Goya, ex-Paimonia, ex-Jane Dark, ex-Pseudo)
Nemir - Drums
Jaguar - Vocals (backing) (track 4) (Terrörhammer)
[/more]

[more=Technical info]
Input File: 04 U Mlazevima Krvi.mp3
Channels : 2
Sample Rate : 44100
Precision : 16-bit
Duration : 00:03:52.45 = 10251045 samples = 17433.8 CDDA sectors
File Size : 9.55M
Bit Rate : 329k
Sample Encoding: MPEG audio (layer I, II or III)
Comments :
Title=U Mlazevima Krvi
Artist=All My Sins
Album=Pra Sila - Vukov Totem
Tracknumber=04
Year=2018

[/more]

Register
(15) BandR75, Black Cat, Indamage, isvili, kim666, Korpse, Olrak, Orkkh, Ostinato, Rosen, RUDACHUR, stone88, VALERY, vovenom, Witchlord,
Sep 23 2018, 16:13:03 Evil Invaders - Broken Dreams In Isolation [single] (2018)


*Artist: Evil Invaders
*Album: Broken Dreams In Isolation [single]
*Year: 2018
*Genre: Speed/Thrash Metal
*Country: Belgium
*Format: mp3@CBR320kbps
*Size: 21MB

Tracklist:
1. Broken Dreams In Isolation (Re-Recorded) 04:19
2. The Unholy (Savatage Cover) 04:37
******************************
Total playing time: 8:56




[more=Extended info]‘Broken Dreams In Isolation’ deserved better, so we re-recorded, re-mixed it and had it mastered at Fascination Street Studios (Arch Enemy, Kreator, Behemoth,…) to give the track the sound it deserves. The result definitely took our sound to a higher level and we hope people will really hear the difference between the previous version and the new one.
The single will be released on 7” vinyl and the B-side will be a cover track: ‘The Unholy’ of the mighty Savatage! We’re huge fans, but covering Savatage properly can be a real pain hehe! We gave the song our own touch but managed to keep the dark and wide sound of the original version. Check it out!

Joe - Vocals (lead), Guitars (2007-present)
Senne Jacobs - Drums (2011-present)
Max - Bass (2014-2015), Guitars (lead) (2015-present) See also: Constant Vulse, Death Assault, ex-Voltrage
Joeri - Bass (2015-present) See also: ex-Prematory, Brides of Lucifer
[/more]

[more=Technical info]
Input File: 01. Broken Dreams In Isolation.mp3
Channels : 2
Sample Rate : 44100
Precision : 16-bit
Duration : 00:04:19.87 = 11460267 samples = 19490.2 CDDA sectors
File Size : 10.5M
Bit Rate : 323k
Sample Encoding: MPEG audio (layer I, II or III)
Comments :
Title=Broken Dreams in Isolation (Re-Recorded)
Artist=Evil Invaders
Album=Broken Dreams In Isolation
Tracknumber=01
Year=2018
Genre=Speed Metal

[/more]

Register
(6) infozahist, iouu, LightWizard, postal67, Rosen, wgs73,
Sep 23 2018, 13:25:45 Daedius - Of Chaos And Resurgence (2018)


*Artist: Daedius
*Album: Of Chaos And Resurgence
*Year: 2018
*Genre: Progressive/Technical Melodic Death Metal
*Country: Chile
*Format: mp3@CBR320kbps
*Size: 96MB

Tracklist:
1. Alignment 06:58
2. Of Plagues and Ignorance 05:44
3. Ancient Awakening 06:12
4. 432 (The Broken Balance) 04:30
5. Mask of Violence 06:16
6. R'lyeh 06:12
7. Oblivion 05:52
******************************
Total playing time: 41:44



[more=Extended info]Francisco Lara - Guitars
Matias Espinoza - Vocals
José Herrera - Fretless Bass (2006-present)
Jorge Salinas - Guitars (2006-present)
Tomás García - Drums (2012-present) See also: Thornafire, ex-Naioth
[youtube]BfHxSCvclG0[/youtube][/more]

[more=Technical info]
Input File: 04 - 432 (The Broken Balance).mp3
Channels : 2
Sample Rate : 44100
Precision : 16-bit
Duration : 00:04:29.73 = 11895049 samples = 20229.7 CDDA sectors
File Size : 10.9M
Bit Rate : 323k
Sample Encoding: MPEG audio (layer I, II or III)
Comments :
Title=432 (The Broken Balance)
Artist=Daedius
Album=Of Chaos And Resurgence
Tracknumber=4
Year=2018

[/more]

Register
(8) Dmitry1977, Foneg, metala, MMMMM, Ostinato, Rosen, SatanicPanzer, VALERY,

1069 Pages V   1 2 3 > » 
- Lo-Fi Version Support form
Copyrights and abuse reports form
Time is now: 25th September 2018 - 17:38:11