Welcome Guest ( Log In | Register )

История благодарностей участнику Ice Gnoll ::: Спасибо сказали: 215 раз(а)
Дата поста: В теме: За сообщение: Спасибо сказали:
Jan 22 2019, 08:35:54 Malevolent Creation - The 13Th Beast (2019)
Да зачехляйте говнометы уже. Было бы из-за чего в этой теме такой хай поднимать.
Дядька рычит здОрово, музыканты бренькают классно, мощь и напор сдувает. Ни одна тема не запоминается вааще. Спасибо за альбом, до новых встреч.
(5) Faust_Vulkan_16, Foneg, infiltrator, troll_swamp, Язва,
Jan 18 2019, 09:38:16 Vapor Hiemis - Чараўніца Смерці (2019)
Понятно, что идейные наследники Die Krups. Выжар и Памiрае Восень очень напомнили слышанный некогда у приятеля Psychopomps. Плюс добавлено фолка чуток. Не поклонник такой музыки, но на мой взгляд весьма достойно. Впрочем ценителям виднее.
(2) Mishok, Niknne,
Jan 14 2019, 10:12:03 Mirror Morionis - Last Winter Tolls (2015)
Register
(1) thenecromancer,
Jan 11 2019, 14:22:16 Morticula Rex - Grotesque Glory (2018)
Согласен с isvili, альбом приятен, но на пару раз. И по лучшей песенке тоже соглашусь. Ну и вокалист мне понравился.
(1) isvili,
Jan 11 2019, 13:40:09 Autumn's Mourning - Gotland [ep] (2019)
Насилу дослушал. Какой-то эпик фолк. Мы классные парни, потомки викингов, можем петь хором "о-о-о-о-о-о" у костра и валькирии подпевают нам из Вальхаллы и т.д. Но т.к. нифига не понимаю в вашем металле, то может быть это и симфодум.
(1) krotovich,
Jan 6 2019, 09:26:31 Legion Of The Damned - Slaves Of The Shadow Realm (2019)
ЦИТАТА(vosmidesijatye @ Jan 6 2019, 11:13:45) *
Не громковатый ли титул, Руслан?

Ну ту вряд ли hammer сравнивает значимость альбома для своей окружающей действительности. Просто стилистику, агрессию и напор. Думаю, что в этом он прав.
(1) hammer,
Jan 6 2019, 08:03:06 Крик Вильгельма - От Гленфиннана До Лондона (2019)
Немного страшновато, но так и распирает послушать шо цэ за Вильхельм и что он такое кричал из Гленфиннана в сторону Лондона. fear.gif
(1) vosmidesijatye,
Jan 6 2019, 07:47:46 Безбожник - Сопротивление (2019)
Вот так вот зайдешь почитать "чего же тут музыковеды две страницы накропали". Надеешься, что о высоком: О музыке, о поэзии. А они о [мат->бан]илове в подъездах, шлюхах, потрошении философов и опыспысовании могил...
Тьфу на вас! 13.gif
(5) 6666666, Bruce, Emm Human, Raw1488, vosmidesijatye,
Jan 4 2019, 12:01:15 Legion Of The Damned - Slaves Of The Shadow Realm (2019)
По шедевру конечно не соглашусь. Но, что альбом добротен - безусловно. Типичный Легион ни больше, ни меньше.
(1) Foneg,
Jan 4 2019, 09:15:50 Ленар Деллерт - По Теченью [single] (2018)
Ни в коем случае не умничаю, но разве не "По теченИю"? Или это просто фишка така?
Ну и как бы металла в сингле не обнаружено.
(1) Dellert,
Dec 21 2018, 14:21:13 Phlebotomized - Deformation Of Humanity (2019)
Альбом хорош! Да, он и близко не произвел на меня столь сокрушительного впечатления, как Immense Intense Suspense (надеюсь тот продавец, что всучил пьянющему мне этот диск на Горбушке в 94-м - здравствует). Но это действительно ОН, Phlebotomized, а не та субстанция, что производила на свет творения между этими альбомами. Доволен! УРА, товарищи!
(2) infiltrator, troll_swamp,
Dec 20 2018, 15:58:08 Phlebotomized - Deformation Of Humanity (2019)
Пока что еще не слушал. НО! Если это действительно окажется продолжением “Immense Intense Suspense”, то я сначала сбегаю в магазин за чепчиком и лифчиком, дабы подбрасывать всё это вверх. spitggis0.gif
(2) Bloodn Lord, infiltrator,
Dec 12 2018, 16:39:02 Dir En Grey - Arche (2014)
FLAC
Register
(1) Narasimha,
Dec 12 2018, 12:59:51 Путь - Песни Смерти (2018)
Колхоз - бессмысленный и беспощадный, бездарно, серо и безлико.
Ну, справедливости ради, не хуже чем огромное количество забугорных помойных сатанят.
(1) DarkHorde,
Dec 12 2018, 09:54:07 Dark Is The Water - Weight Of The Sea (2018)
Ни о чём. Можно вполне счастливо прожить без сего творения.
(1) Foneg,
Dec 8 2018, 07:45:47 Ols - Mszarna (2018)


*Artist: Ols
*Album: Mszarna
*Year: 2018
*Genre: Dark Folk
*Country: Poland
*Format: mp3@CBR320kbps
*Size: 102MB

Tracklist:
1. Księżycowa 09:15
2. Zimowa 08:48
3. Wiedźmowa 05:36
4. Roślinna 07:24
5. Ja, Olcha 08:40
6. Miniona 09:26
******************************
Total playing time: 49:09



[more=Technical info]
Input File: 01 - Księżycowa.mp3
Channels : 2
Sample Rate : 44100
Precision : 16-bit
Duration : 00:09:15.48 = 24496624 samples = 41660.9 CDDA sectors
File Size : 22.3M
Bit Rate : 321k
Sample Encoding: MPEG audio (layer I, II or III)
Comments :
Title=Księżycowa
Artist=Ols
Album=Mszarna
Tracknumber=01
Year=2018
Genre=Dark Folk/Neofolk

[/more]

Register
(1) Borya_Tvorogov,
Dec 6 2018, 13:49:25 Ols - Mszarna (2018)


*Artist: Ols
*Album: Mszarna
*Year: 2018
*Genre: Dark Folk, Neofolk
*Country: Poland
*Format: mp3@CBR320kbps
*Size: 102MB

Tracklist:
1. Księżycowa 09:15
2. Zimowa 08:48
3. Wiedźmowa 05:36
4. Roślinna 07:24
5. Ja, Olcha 08:40
6. Miniona 09:26
******************************
Total playing time: 49:09



[more=Technical info]
Input File: 01 - Księżycowa.mp3
Channels : 2
Sample Rate : 44100
Precision : 16-bit
Duration : 00:09:15.48 = 24496624 samples = 41660.9 CDDA sectors
File Size : 22.3M
Bit Rate : 321k
Sample Encoding: MPEG audio (layer I, II or III)
Comments :
Title=Księżycowa
Artist=Ols
Album=Mszarna
Tracknumber=01
Year=2018
Genre=Dark Folk/Neofolk

[/more]

Register
(2) A.L.Rapsod, Ostinato,
Dec 6 2018, 13:07:33 Ols - Ols (2016)


*Artist: Ols
*Album: Ols
*Year: 2016
*Genre: Dark Folk, Neofolk
*Country: Poland
*Format: mp3@CBR320kbps
*Size: 69MB

Tracklist:
1. O Drzewach 05:51
2. Woda 05:47
3. Chmielna 05:42
4. Kołysanka 05:37
5. Krew Na Mchu 05:05
6. Pożegnalna 06:03
******************************
Total playing time: 34:05



[more=Technical info]
Input File: 01 - O Drzewach.mp3
Channels : 2
Sample Rate : 44100
Precision : 16-bit
Duration : 00:05:50.90 = 15474778 samples = 26317.6 CDDA sectors
File Size : 14.1M
Bit Rate : 321k
Sample Encoding: MPEG audio (layer I, II or III)
Comments :
Title=O Drzewach
Artist=Ols
Album=Ols
Tracknumber=01
Year=2016
Genre=Dark Folk/Neofolk

[/more]

Register
(2) A.L.Rapsod, Ostinato,
Dec 6 2018, 12:55:14 M/eye - On Road [ep] (2018)
Register

Весьма недурственно.
(2) denver, vosmidesijatye,
Nov 19 2018, 07:24:15 Autumns Eyes - The Awakening Of The Sleeping King (2007)
Register
(1) Rawvnl,
Oct 9 2018, 10:53:26 Alkonost - Папоротник [single] (2018)
Понравилось
(1) SAPOGi,
Oct 8 2018, 07:42:11 Dominia - Melancholy [ep] (2018)
Самое лучшее, что есть в этом ЕР - это первая четверть песенки Melancholy (если отринуть раздражающий с первых мгновений вокал) и Больная муза (где, кстати, вокал вполне в тему). По звуку никаких претензий, инструменты звучат прекрасно, получил удовольствие. Второй и третий треки можно просто не слушать. Общее впечатление в музыкальном плане - скорее положительное. Исключение составила последняя четверть песенки Melancholy, где меланхолия становится похожей на Чардаш. Может это следовало из смысла текста (в английском не силен), но улыбнуло, от меланхолии не осталось и следа.
Ну и да, облога дюже хороша!
(1) MeatWolf,
Apr 16 2018, 07:59:16 Whispers In The Shadow - The Urgency Of Now (2018)


*Artist: Whispers In The Shadow
*Album: The Urgency Of Now
*Year: 2018
*Genre: Gothic Metal/Gothic Rock
*Country: Austria
*Format: mp3@CBR320kbps
*Size: 73MB

Tracklist:
1. Watchcry
2. A Rhythm Called Zero
3. The Urgency Of Now
4. Morning Falls
5. Scavengers Of Time
6. Lake Of Fire
7. The Rat King
8. Detractors
9. Exit-Gardens
******************************
Total playing time: 34:21

[more=Technical info]
Input File: 03. The Urgency of Now.mp3
Channels : 2
Sample Rate : 44100
Precision : 16-bit
Duration : 00:03:12.05 = 8469449 samples = 14403.8 CDDA sectors
File Size : 7.74M
Bit Rate : 323k
Sample Encoding: MPEG audio (layer I, II or III)
Comments :
Title=The Urgency of Now
Artist=Whispers In The Shadow
Album=The Urgency Of Now
Tracknumber=3
Year=2018
Genre=Gothic Rock

[/more]

Register
(3) Cartman223, thenecromancer, Zenial,
Mar 28 2018, 15:07:48 Necrocock - Hudba Z Psychiatrických Pavilonů (2015)
Register
(2) Doooomed, Mist13Signifier,
Nov 28 2015, 02:41:11 Black Oath - To Below And Beyond (2015)
А вот мне предыдущий альбом понравился куда менее, нежели данный. Впрочем - это наверное капризы от человека слышешего что то более интересное.
НО(!), спорить о вкусах глупо. Я не стремлюсь обвинить уважаемого Lux, что он не прав. Ибо оба альбома хороши, но мне милее, To Below And Beyond
(1) vosmidesijatye,

5 Pages V  < 1 2 3 4 > » 
- Lo-Fi Version Support form
Copyrights and abuse reports form
Time is now: 26th May 2020 - 13:29:05