Welcome Guest ( Log In | Register )

История благодарностей участнику Ice Gnoll ::: Спасибо сказали: 215 раз(а)
Дата поста: В теме: За сообщение: Спасибо сказали:
Nov 25 2015, 17:37:03 Black Oath - To Below And Beyond (2015)
Не знаком был ранее с этой группой и пока не слушал ранние. Что касается данного альбома, то очень понравилось.
(1) vosmidesijatye,
Aug 27 2015, 11:44:53 Anfel - Icy World (2015)
Понравилось. В музыкальном плане всё очень приятно. Тембр певицы не разрывает мозг, как делает множество вокалисток данного жанра. Скорее всего несколько песенок отсюда выдерну в коллекцию, а может и весь альбом, пока еще не решил.
(1) avkruchinin,
Jun 16 2015, 15:47:37 Krysantemia - Finis Dierum (2015)
На мой взгляд - очень хорошая работа. Странно, что ни одного отзыва не собрала. Драйвово, башкотрясно, с хорошим вокалом.
Иногда, как мне показалось, прорезаются нотки Модэрн мелодик-дэта.
P.S. Очень понравилась Incarnation
(1) Genuine Thrashiac,
Jun 11 2015, 21:45:21 Cryogenic - Celephais (1998)
Register
(5) dermarsoran, GAS, kim666, kramer820, thenecromancer,
Jun 7 2015, 23:25:28 Quadrivium - Methocha (2012)
Register
(2) IzverGOD, Vincent,
May 20 2015, 22:22:13 Kallisa - Песочный Человечек [ep] (2015)
Кстати, в музыкальном плане всё более-менее. Парней жалко, они старались.
Но вот девочка Алиса поющая (Господи прости!) и написавшая, кхм, стихи (Господи прости еще раз!) - это просто звиздец!
(1) Reverend,
Apr 30 2015, 07:32:31 Mythological Cold Towers - Monvmenta Antiqva (2015)
Очень хорошо Lightbringer, всё расписал. От себя лишь добавлю, что альбом понравился, но не настолько, чтобы его захотелось в коллекцию. Впрочем пару раз прокрутил его с удовольствием.
(1) Lightbringer,
Apr 29 2015, 22:45:43 Raven - ExtermiNation (2015)
ЦИТАТА(Old Vyaine @ Apr 26 2015, 14:07:32) *
Да. Раньше купишь кассету, и гоняешь её, гоняешь, пока количество не перейдёт в качество 1488.gif

Хехе, да было такое в прошлом веке, когда из-за отсутствия носителей, денег и возможности слушали то, что есть и не бухтели. Однако за собой могу вспомнить только одну вещь, которая действительно понравилась из-за вынужденного многократного прослушивания. Это Voivod "Dimension Hatross".
Извиняюсь, что не по теме.
(2) smes, vosmidesijatye,
Apr 26 2015, 23:32:42 Stonegriff - Come Taste The Blood (2015)
Присоединяюсь к тем, кому понравилось. 20.gif
(2) DMIYUR, vosmidesijatye,
Apr 22 2015, 23:52:59 Cold Distance - Isolated (2015)
Что касаемо музыки, то все вполне сносно и даже нравится. Возможно я бы даже послушал это еще, если бы не вокалисты. Если парня еще как-то можно терпеть (чаще всего с помощью самоубеждения: "Ну поет парень как может, ну что ж теперь, ведь бывает и хуже..."), то девочка - это просто жуть во мраке. Особенно ее потуги попеть убивают в финальной композиции Oblivion. Описывать ЭТО не буду, ибо просто нет цензурных слов. Но взять бутылку шнапса и перетянуть оной по роже тому, кто эту девочку допустил к микрофону тянет преизрядно.
Я бы понял и принял, если бы это был первый альбом группы, куда хотелось бы по-пацански пригласить поиграть и попеть всех приятелей и знакомых, подружку Анхен и Фрица из соседней пивной, но он не первый. По сему альбом можно назвать "Очередная про[мат->бан]ая возможность сделать что то стОящее"
(1) ArtiZenit,
Apr 21 2015, 22:11:34 Insanity Reigns Supreme - Unorthodox (2015)
Альбом надоел уже за первую треть своего звучания. Стоически дотерпев до конца, осознал, что зря это сделал. Ибо лучше не стало. Но на 1 раз послушать - нормально.
(1) KVRT,
Mar 16 2015, 11:00:29 Enforcer - From Beyond (2015)
У меня, как и у zolotoiskatel, альбом вызвал ассоциации именно с этими группами. Hell Will Follow - это W.A.S.P. Ну, а The Banshee запросто можно поставить в любой из первых двух альбомов Rage.
(1) vosmidesijatye,
Jan 9 2015, 14:47:19 Elitania - Templos De Cristal (2015)
В общем и целом посредственно, обычный проходняк.
Однако есть одна песенка Un Lugar En La Nada - это реальный перл всего альбома.
Если вы извращенец и мазохист, то послушайте! И получите бешеное наслаждение от того, как вокалист не вытягивает нот, да и не попадает в них. Это нечто! fear.gif
(1) Metropolis,
Dec 18 2014, 10:09:32 Edenial - Innerpretations (2014)
Я, конечно, далеко не специалист по стилям. Но послушал 2 песенки, что прицепил г-н KVRT, и мне кажется, что это не Готик и не Дум.
(1) Kwaad,
Dec 10 2014, 10:41:08 Torrens Conscientium - All Alone With The Thoughts (2014)
На мой взгляд очень удачная вещь. Уже несколько недель слушаю по несколько раз в день. Завораживает.
(1) Akatamus,
Nov 8 2014, 22:26:21 HEAVY METAL XX ВЕК
Однако ж задачку вы задали, господин Вазелин...
Пол дня потратил на обдумывание, но я таки справился. Мой выбор таков:

Iron Maiden - Seventh Son of a Seventh Son
Iron Maiden - Powerslave
Bruce Dickinson - Tattoed Millionaire
Judas Priest - Defenders of the Faith
Judas Priest - Painkiller
King Diamond - Abigail
Accept - Restless And Wild
Accept - Metal Heart
Riot - Thundersteel
Ozzy Osbourne - Ultimate Sin
Alice Cooper - Trash
Alice Cooper - Hey Stoopid
Manowar - Hail To England
Warlock - True As Steel
Doro - Force Majeure
Halloween - Walls of Jericho
Scorpions - Love At First Sting
Yngwie Malmsteen - Odyssey
Rage - Execution Guaranteed
Heaven's Gate - In Control
(2) kim666, Vazelyn,
Nov 7 2014, 12:33:35 Mal Etre - III (2014)
shitsic, склонен согласиться. Есть, конечно в альбоме некая однообразность, однако атмосферности, господа, тут воз и маленькая тележка. На протяжении часа я был уверен, что нахожусь глубоко в Лавкрафтовских подземельях, во время черных жертвоприношений. Порой складывается впечатление, что заунывными песнопениями из тебя жизнь высасывают. Брррррр. fear.gif
(2) Premature_Devotion, shitsic,
Nov 7 2014, 09:18:14 Deathtiny - In Creeps Clothing (2014)
Может быть просто "не в жилу" пришлось, ибо сыграно неплохо. Однако настойчивые позывы выключить это появились еще в первой трети альбома. Скучно и не интересно. С трудом дослушал до конца. Однако это того стоило, т.к. на мой взгляд, самая приличная вещь тут - Pain. Которая, конечно не шедевр, однако не становится последним "забитым гвоздем в гроб", а является неким робким лучиком света в общей безрадостности.
(1) Xutun,
Oct 24 2014, 22:37:28 2 Wolves - Shelter (2014)
ЦИТАТА(hughes @ Oct 24 2014, 20:29:58) *
Блин,как я такую четкую команду упустил?!?
Кто бы еще 2012 в качестве выложил,а то нет нигде...

Ну почему же нигде? smile3.gif
Тут:
http://dark-world.ru/search/?q=2+wolves
Или тут:
http://myzuka.ru/Album/530513/2-Wolves-Men-Of-Honour-2012
(1) Hughes,
Oct 21 2014, 22:39:43 Lyria - Catharsis (2014)


*Artist: Lyria
*Album: Catharsis
*Year: 2014
*Genre: Symphonic Alternative Metal
*Country: Brazil
*Format: mp3@CBR320kbps
*Size: 96MB

Tracklist:
01. The True War (03:46)
02. Revenge (04:39)
03. Jester (04:48)
04. The Phoenix Cry (04:29)
05. Reflection (03:51)
06. Insanity (04:14)
07. The Phoenix Rebirth (04:00)
08. Light And Darkness (03:45)
09. What Do You Want From Me (03:26)
10. Craven (04:09)
******************************
Total playing time: 41:07



[more=Technical info]
Input File: 01. The True War.mp3
Channels : 2
Sample Rate : 44100
Precision : 16-bit
Duration : 00:03:46.75 = 9999499 samples = 17006 CDDA sectors
File Size : 9.26M
Bit Rate : 327k
Sample Encoding: MPEG audio (layer I, II or III)
Comments :
Title=The True War
Artist=Lyria
Album=Catharsis
Tracknumber=1/10
Year=2014

[/more]

Register
(4) bugnotme, Cartman223, gwynnbleid, varlam4,
Oct 6 2014, 03:19:06 Plastic Violins Of Darkness - Spiral (2014)


*Artist: Plastic Violins Of Darkness
*Album: Spiral
*Year: 2014
*Genre: Doom Metal/Post-Metal/Psychedelic
*Country: Germany
*Format: mp3@CBR320kbps
*Size: 123MB

Tracklist:
1. Anima In Herba 20:07
2. Spiral 18:59
3. Solstice 13:01
******************************
Total playing time: 52:07



[more=Technical info]
Input File: 03. Solstice.mp3
Channels : 2
Sample Rate : 44100
Precision : 16-bit
Duration : 00:13:01.71 = 34473367 samples = 58628.2 CDDA sectors
File Size : 31.7M
Bit Rate : 324k
Sample Encoding: MPEG audio (layer I, II or III)
Comments :
Title=Solstice
Artist=Plastic Violins Of Darkness
Album=Spiral
Tracknumber=3
Year=2014

[/more]

Register
(14) Boozer, Buregon, denver, fylopaloma, KVRT, MeatKnife, muskatnuss, nitzebb, Old Vyaine, Rosen, SatanicPanzer, Semargl2010, VALERY, ZambuL,
Sep 27 2014, 11:47:23 Sorcerer - Sorcerer (1995) (1) Wolfera,
Aug 23 2014, 23:40:32 Сад Грез - Шизофрения [ep] (2014)


*Artist: Сад Грез
*Album: Шизофрения [ep]
*Year: 2014
*Genre: Power Metal
*Country: Russian Federation
*Format: mp3@CBR320kbps
*Size: 45MB

Tracklist:
01. Вы Не Мое Поколение 04:18
02. Отступник 06:13
03. Шизофрения 04:28
04. Каждый Сгорает Здесь 04:50
******************************
Total playing time: 19:49

[more=Technical info]
Input File: 04. Каждый Сгорает Здесь.mp3
Channels : 2
Sample Rate : 44100
Precision : 16-bit
Duration : 00:04:49.81 = 12780401 samples = 21735.4 CDDA sectors
File Size : 11.6M
Bit Rate : 320k
Sample Encoding: MPEG audio (layer I, II or III)
Comments :
Title=Каждый Сгорает Здесь
Artist=Сад Грез
Album=Шизофрения (ЕР)
Tracknumber=4
Year=2014
Genre=Power Metal

[/more]

Register
(6) Analien, oldvarg, Rosen, varlam4, wreak, Сварог Барг,
Aug 23 2014, 23:31:44 Darrow - Generation Of Builders (2014)


*Artist: Darrow
*Album: Generation Of Builders
*Year: 2014
*Genre: Metalcore/Modern Metal
*Country: Switzerland
*Format: mp3@CBR320kbps
*Size: 111MB

Tracklist:
1. All Of Us 01:28
2. Drifting 04:18
3. From Nothing 04:53
4. Light Of A Summer Day 05:25
5. My Dark Passenger 04:20
6. Odyssey 05:07
7. Farewell 01:23
8. Letter 04:43
9. June 04:33
10. Inside The Casket 03:44
11. Generation Of Builders 04:10
12. In Loving Memory 04:18
******************************
Total playing time: 48:22

[more=Technical info]
Input File: 02. Drifting.mp3
Channels : 2
Sample Rate : 44100
Precision : 16-bit
Duration : 00:04:18.43 = 11396763 samples = 19382.2 CDDA sectors
File Size : 10.4M
Bit Rate : 322k
Sample Encoding: MPEG audio (layer I, II or III)
Comments :
Title=Drifting
Artist=Darrow
Album=Generation of Builders
Tracknumber=2/12
Year=2014

[/more]

Register
(3) gwynnbleid, Rosen, wreak,
Aug 23 2014, 19:31:25 Black Robot - Woman (2014)


*Artist: Black Robot
*Album: Woman
*Year: 2014
*Genre: Hard Rock
*Country: United States
*Format: mp3@CBR320kbps
*Size: 77MB

Tracklist:
01. Woman 03:33
02. Circles 03:11
03. Louise 02:54
04. Goodbye My Angel 03:48
05. Stoned Again 02:42
06. El Camino 02:33
07. Silvermoon 04:24
08. Staring At The Sun 03:03
09. Over You 02:37
10. Time Isn't Wasted 03:38
******************************
Total playing time: 32:23

Preview 1

[more=Extended info]Одна из лучших (если не самая лучшая) hard rock- работ, слышанных мной за последнее время.[/more]

[more=Technical info]
Input File: 01 - Woman.mp3
Channels : 2
Sample Rate : 44100
Precision : 16-bit
Duration : 00:03:33.84 = 9430124 samples = 16037.6 CDDA sectors
File Size : 8.88M
Bit Rate : 332k
Sample Encoding: MPEG audio (layer I, II or III)
Comments :
Title=Woman
Artist=Black Robot
Album=Woman
Tracknumber=01
Year=2014
Genre=Blues/Rock

[/more]

Register
(8) avkruchinin, Diflock, garretje, gwar, marilin, Mplast, Old Vyaine, sperminator,

5 Pages V  < 1 2 3 4 5 >
- Lo-Fi Version Support form
Copyrights and abuse reports form
Time is now: 26th May 2020 - 13:59:42