Welcome Guest ( Log In | Register )

История благодарностей участнику johnbutoff ::: Спасибо сказали: 3794 раз(а)
Дата поста: В теме: За сообщение: Спасибо сказали:
Apr 19 2016, 22:20:13 Новости Black-направления
Помощник депутата Виталия Милонова. 22.gif

Глупое и неадекватное существо. Вот в ком бесы бурлят.
(3) infiltrator, WOLAND, zolotoiskatel,
Jul 8 2014, 20:05:19 Saor - Aura (2014)
ни чё, ни чё так... материал сочный и съедобный... побольше бы акцентов на гитарные пассажи...
(1) justpassingby,
Jun 25 2014, 18:42:38 Thee Silver Mt. Zion Memorial Orchestra - Fuck Off Get Free We Pour Light On Everything (2014)


*Artist: Thee Silver Mt. Zion Memorial Orchestra
*Album: Fuck Off Get Free We Pour Light On Everything
*Year: 2014
*Genre: Post-Rock/Noise Rock
*Country: Canada
*Format: mp3@CBR320kbps
*Size: 116MB

Tracklist:
1. Fuck Off Get Free (For the Island of Montreal) 10:22
2. Austerity Blues 14:17
3. Take Away These Early Grave Blues 6:47
4. Little One Runs 2:29
5. What We Loved Was Not Enough 11:22
6. Rains Thru the Roof at Thee Grande Ballroom (For Capital Steez) 3:57
******************************
Total playing time: 49:14



[more=Extended info]ну что тут сказать, некоторые треки очень даже хиты, например Austerity Blues, высокохудожественное музыкальное полотно...[/more]

[more=Technical info]
Input File: 03. Take Away These Early Grave Blues.mp3
Channels : 2
Sample Rate : 44100
Precision : 16-bit
Duration : 00:06:47.24 = 17959196 samples = 30542.9 CDDA sectors
File Size : 16.3M
Bit Rate : 321k
Sample Encoding: MPEG audio (layer I, II or III)
Comments :
Title=Take Away These Early Grave Bl
Artist=Thee Silver Mt. Zion Memorial
Album=Fuck Off Get Free We Pour Ligh
Tracknumber=3
Year=2014

[/more]

Register
(9) AndreFrancis, Emhyr var Emreis, grimmstone, katalin, Konst, Lone Reaper, marilin, xska, zoog,
Apr 28 2014, 19:33:46 Dub Buk - Цвях (2014)
отличный релиз, отличный звук, все хорошо и профессионально сделано, слушается на ура...
(2) neoatheist, Vrolok,
Apr 22 2014, 20:45:36 Catacombe - Quidam (2014)


Post-Rock/Atmospheric Sludge Metal - так будет лучше и понятнее

трек Shroud хорош...
(1) Diflock,
Apr 1 2014, 08:23:28 Dead Reptile Shrine - Praise Cemetary (2013)


*Artist: Dead Reptile Shrine
*Album: Praise Cemetary
*Year: 2013
*Genre: Black Metal
*Country: Finland
*Format: mp3@VBR235kbps
*Size: 100MB

Tracklist:
1. Mountain Ov Souls 3:38
2. Inside The Marble Polyandrium 4:27
3. Dust Fortress 6:14
4. Living Torch 3:17
5. Masonic Corpse Codex 5:23
6. Death Trap 4:40
7. Unicursal Hex 5:57
8. Dimension Of Mirrors 4:41
9. Frozen Gate To Nowhere 7:51
10. Death Of A Sorcerer King 12:11
******************************
Total playing time: 58:19

[more=Extended info]: Source...: CD :
: Encoder..: LAME v3.98.4 with preset V0 :
: Quality..: 235kbps / Joint Stereo :[/more]

Register
(50) 0x13, 666BlackDeath, a1241861, acerbus, anark, aorta3, Buregon, caro, Chasm, Constantinus I, crackedbrain, Daale, Darkthronefoad, ddarkthrone, Emhyr var Emreis, F-F, Fess, graham, gusto24191, hydrarg, Korpse, lestllk, maochen, marilin, nsmetalhead, Phlebotomized, Premature_Devotion, princeshr, Reverend, rom666, RUSP73, satanist666, SIAVASH, smes, spiritualdecay666, SSBandera, StabWound, stub888, Sylvi, Tino, toly1917, tont, VALERY, varlam4, vasiljev_sergej, vov7609, wreak, Xor, yuratroll, Спектр,
Mar 26 2014, 19:43:01 Teitanblood - Death (2014)
угнетающий, уничтожающий саунд... true_black.gif после первого прослушивания отложил до лучших времен - было никак... сегодня вошло как-то по-другому...
не скажу что хорошо, но треки Sleeping Throats Of The Antichrist, Cadaver Synod, Burning In Damnation Fires протрахали мозг как надо... в некоторых кусках звучит очень драйвово и совсем не хаотично..
и кстати, согласен с psychonaut'ом, если бы изначально у сабжа стиль был помечен как Chaotic Primitive Goat Black, что полностью отражает всю происходящую адскую вакханалию, то шума бы на 7 страниц не было.. наверно.. 1488.gif
(1) vosmidesijatye,
Mar 18 2014, 20:17:15 Teitanblood - Death (2014)
cbr 320

Register
(4) Blackvomito, General, Goatrex, Kazoth,
Mar 17 2014, 21:39:22 Misanthropic Art - The Streams Of Terror (2014)
гнетущая атмосфера, фатальная истерика, 80 минут убивающего драматизма в купе с надрывным вокалом... очень хорошо..., название проекта отлично отражает суть сабжа... есть и недостатки, ну это по мне так, слишком плотный звук в некоторых композициях, переходящий в какофонию...
(1) Radwind,
Mar 16 2014, 10:33:12 Twilight - III Beneath Trident's Tomb (2014)
данный релиз не стоит относить к традиционной блэк-метал-сцене и соответственно воспринимать его таковым, это отличный экспериментальный метал-акт с истеричной экспрессией в хорошем смысле.. у меня отчетливо возникла параллель с последним опусом swans в части подачи материала и его сути, очень хорошо идут друг с другом...
(1) smes,
Mar 15 2014, 19:40:41 Twilight - III Beneath Trident's Tomb (2014)
превью для тех, кто еще не ознакомился с альбомом

[youtube]pxmM5H8iXEk[/youtube]
(1) ShmiT,
Feb 15 2014, 20:24:09 Kriegsmaschine - Enemy Of Man (2014)
релиз не плох, качественно сделанный, но при прослушивании однообразен и, как многие уже отметили, выделяющийся только отлично проделанной работой ударника, ... после многократного прослушивания ничего не нашел для себя... поэтому, как и не хотелось бы, альбом ушел в топку...
(2) Samogon, Terry,
Jan 19 2014, 17:17:25 Alcest - Shelter (2014)
Мне альбом тоже понравился. Сильная работа. Конечно поп, дрим поп, если точнее,.. но от этого группа хуже не стала. Музыка романтичная, самое то для влюбенных тинейджеров, сразу вспомнился фильм "Бум" с Софи. Для меня самые лучшие треки: La nuit marche avec moi, Délivrance с шугой.
(1) MeatWolf,
Nov 18 2013, 20:55:15 An Autumn For Crippled Children - Try Not To Destroy Everything You Love (2013)
абсолютно безликий blackgaze, ну ведь совсем ничего интересного... да и вокал мне показался совсем ни к месту...
(1) Fess,
Nov 10 2013, 21:26:31 Temple Of Baal - Verses Of Fire (2013)
вынос мозга, дикий угар.. true_black.gif
(1) vosmidesijatye,
Nov 10 2013, 15:58:40 Cult Of Fire - मृत्यु का तापसी अनुध्यान (2013)
ЦИТАТА(frost192 @ Nov 10 2013, 18:24:54) *
В данном случае - есть исключение smile1.gif
Или ты так вкусил говна что уже опытен в данном вопросе?


вопрос с подвохом, даже не знаю как ответить.. 1488.gif
Nov 10 2013, 15:22:52 Cult Of Fire - मृत्यु का तापसी अनुध्यान (2013)
ЦИТАТА(frost192 @ Nov 10 2013, 18:18:22) *
Можно я отвечу?
Бывает что одного раза недостаточно чтобы понять внутри себя - нравится или нет музыка smile1.gif
Настроение не то или звезды не так встали например smile1.gif
ИМХО.


говно сколько не ешь - медом не станет.
Nov 7 2013, 19:34:30 Temple Of Baal - Verses Of Fire (2013)
ЦИТАТА(defamer666 @ Nov 7 2013, 22:25:21) *
P.S. По стилю будет наоборот Death/Black


ок. поправим
(1) defamer666,
Nov 7 2013, 19:32:24 Forlorn Winds - The Day The Wolf Swallowed The Sun (2013)


*Artist: Forlorn Winds
*Album: The Day The Wolf Swallowed The Sun
*Year: 2013
*Genre: Black Metal
*Country: United States
*Format: mp3@VBR293kbps
*Size: 67MB

Tracklist:
1. A New Age Dawns 03:39
02. Norn's Destiny 03:53
03. The Day the Wolf Swallowed the Sun 03:50
04. Realm of Decay 03:46
05. Ancient Flesh 03:46
06. Signal of Gjall 03:47
07. Transfiguration of Consciousness 03:50
08. Forlorn Winds 03:52
******************************
Total playing time: 30:23



[more=Extended info]Review: Forlorn Winds - The Day the Wolf Swallowed the Sun

Debut album of Vautrin (Ex-Pantheon) and P. (Dark Fury)[/more]

Register
(40) 0x13, blackwerwolf, Buregon, caro, DarkHorde, ddarkthrone, Fryz, Goatrex, hellbibber, Ildjarn, Indamage, Kazoth, kefka, lordbathor, neoatheist, Ostinato, Reverend, rickzammuto, rom666, RUDACHUR, SIAVASH, skeletron215, smes, sperminator, SSBandera, svartrest, the_cleanser, Thunderbird, toly1917, tont, Tundra, Typhon88, UlvhedinGrom, Unleashed, VALERY, varg-38ru, varlam4, vasiljev_sergej, Victim of fate, добрыйКот,
Nov 7 2013, 19:19:59 Glorior Belli - Gators Rumble, Chaos Unfurls (2013)


*Artist: Glorior Belli
*Album: Gators Rumble, Chaos Unfurls
*Year: 2013
*Genre: Southern Black Metal
*Country: France
*Format: mp3@VBR283kbps
*Size: 95MB

Tracklist:
1. Blackpowder Roars 2:52
2. Wolves at My Door 4:51
3. Ain't No Pit Deep Enough 4:26
4. A Hoax, A Croc! 3:44
5. From One Rebel to Another 3:52
6. I Asked for Wine, He Gave Me Blood 4:19
7. The South Will Always Know My Name 3:22
8. Le Blackout Blues 3:54
9. Backwoods Bayou 2:46
10. Built for Discomfort 3:53
11. Gators Rumble, Chaos Unfurls 5:41
******************************
Total playing time: 43:40



Register
(43) 0x13, 1968_janeart, aesteticvice, Aresson, AvantKitty, blacky66, caro, CryptOn, deadterror, doomTemplar, Dunkelgrafen, Fess, fishish, Fryz, garretje, gena, Hadelik, Hell_Is_Here, LordSancho666, Lord_Eurynome, Lux, marilin, Metropolis, Necro, Nerevar, nsk2008, nsmetalhead, Orgasmik, Premature_Devotion, princeshr, QuadenThyrane, sandr666, satanist666, SIAVASH, SilentNidhogg, smes, squall8fr, tont, VALERY, vasiljev_sergej, Wolfera, Xor, yuratroll,
Nov 7 2013, 19:00:45 Temple Of Baal - Verses Of Fire (2013)


*Artist: Temple Of Baal
*Album: Verses Of Fire
*Year: 2013
*Genre: Death/Black Metal
*Country: France
*Format: mp3@VBR288kbps
*Size: 129MB

Tracklist:
01. Tο αστέρι 418 7:24
02. Bloodangel 3:00
03. Arcana Silentium 7:26
04. The 10th Aethyr 6:34
05. Gates of Death 4:00
06. Gnosis of Fire 6:40
07. Golden Wings of Azazel 3:15
08. Lord of the Raging Seas 5:12
09. Serpens Luminis 5:41
10. Walls of Fire 9:39
******************************
Total playing time: 58:51




[more=Extended info]еще не слушал, по этому стиль поставил с архивов[/more]

Register
(64) 0x13, artscald, babanguida, Barricade, biroutios, Blut aus Nord, caro, Constantinus I, crackedbrain, deadterror, El_Chibo, Fess, fishish, Forrrrest, garretje, gena, Glioma, Hell_Is_Here, hudai, IzverGOD, karharoth, kefka, metala, Metropolis, Necro, neoatheist, Nerevar, nsmetalhead, nugorod, Old Vyaine, Orgasmik, Ostinato, Premature_Devotion, princeshr, QuadenThyrane, randumbum, Rizzelet, rom666, Rosen, Ruben, RUSP73, satanist666, SilentNidhogg, skeletron215, smes, sperminator, SSBandera, the_cleanser, Thunderbird, Tino, toly1917, VALERY, varg-38ru, varlam4, vasiljev_sergej, Vincent, vosmidesijatye, waldemardr, WarmasterChorus, wgs73, wtk.412, yuratroll, ZambuL, Шанкара,
Nov 5 2013, 18:59:33 Endstille - Kapitulation 2013 (2013)
в общем сие не понравилось, как то все одним треком, блекло... только The Refined Nation что-то из себя представляет...
(1) vosmidesijatye,
Nov 5 2013, 08:11:56 Endstille - Kapitulation 2013 (2013)
[youtube]0oVwrhKy-fI[/youtube]
(2) BioMax, SIAVASH,
Sep 28 2013, 11:57:03 Abuse - Knee Deep In The Negative (2000)


*Artist: Abuse
*Album: Knee Deep In The Negative
*Year: 2000
*Genre: Sludge/Death Metal
*Country: United States
*Format: mp3@VBR233kbps
*Size: 74MB

Tracklist:
1. Spiral Down 04:50
2. Crawlspace 04:39
3. Crosses Bleed Red 05:55
4. Ingrate 03:46
5. Fistfuck Face 02:58
6. Same Direction 02:43
7. Dead Again 04:44
8. Pulse 03:55
9. Seconds Count 03:17
10. For Sage 01:39
11. Sensual Rape 04:01
******************************
Total playing time: 42:27

Register
(8) caro, marilin, stub888, Synthaeon, Typhoid, VALERY, varlam4, wreak,
Sep 26 2013, 20:37:53 Neil Young & Crazy Horse - Psychedelic Pill (2012)


*Artist: Neil Young & Crazy Horse
*Album: Psychedelic Pill
*Year: 2012
*Genre: Country Rock/Psychedelic Rock/Hard Rock
*Country: Canada
*Format: mp3@CBR320kbps
*Size: 208MB

Tracklist:
1. Driftin' Back 27:36
2. Psychedelic Pill 3:28
3. Ramada Inn 16:50
4. Born in Ontario 3:49
5. Twisted Road 3:29
6. She's Always Dancing 8:33
7. For the Love of Man 4:14
8. Walk Like a Giant 16:29
9. Psychedelic Pill (Alternate Mix) 3:13
******************************
Total playing time: 1:27:41



[more=Technical info]
Input File: 02. Psychedelic Pill.mp3
Channels : 2
Sample Rate : 44100
Precision : 16-bit
Duration : 00:03:28.30 = 9185854 samples = 15622.2 CDDA sectors
File Size : 8.36M
Bit Rate : 321k
Sample Encoding: MPEG audio (layer I, II or III)
Comments :
Title=Psychedelic Pill
Artist=Neil Young & Crazy Horse
Album=Psychedelic Pill
Tracknumber=02/04
Year=2012
Genre=Rock
Discnumber=1/2

[/more]

Register
(5) dead can dance, garretje, igorzz, marilin, Емельян,

17 Pages V   1 2 3 > » 
- Lo-Fi Version Support form
Copyrights and abuse reports form
Time is now: 27th February 2020 - 16:10:58