Welcome Guest ( Log In | Register )

История благодарностей участнику zemlemer ::: Спасибо сказали: 186 раз(а)
Дата поста: В теме: За сообщение: Спасибо сказали:
Jan 4 2020, 22:25:38 Paint The Sky Red - There Is A Tomorrow You Don't Know (2019)


*Artist: Paint The Sky Red
*Album: There Is A Tomorrow You Don't Know
*Year: 2019
*Genre: Post-Rock
*Country: Singapore
*Format: mp3@CBR320kbps
*Size: 81MB

Tracklist:
1.A Light For Every Shadow 06:50
2.Amber 05:08
3.With Those Whom You Love 06:33
4.Every Breath is a Gift 07:19
5.Moments in Between 09:17
******************************
Total playing time: 35:07



[more=Technical info]
Input File: 02 - Amber.mp3
Channels : 2
Sample Rate : 44100
Precision : 16-bit
Duration : 00:05:09.07 = 13630163 samples = 23180.5 CDDA sectors
File Size : 12.4M
Bit Rate : 321k
Sample Encoding: MPEG audio (layer I, II or III)
Comments :
Title=Amber
Artist=Paint The Sky Red
Album=There Is A Tomorrow You Don't Know
Tracknumber=2/5
Year=2019
Genre=Post-Rock

[/more]

Register
(2) Diflock, Olethros,
Jan 4 2020, 22:20:56 Paint The Sky Red - Not All Who Wonder Are Lost (2015)


*Artist: Paint The Sky Red
*Album: Not All Who Wonder Are Lost
*Year: 2015
*Genre: Post-Rock
*Country: Singapore
*Format: mp3@CBR320kbps
*Size: 124MB

Tracklist:
1.To Everness 06:30
2.While We Sleepwalk 06:55
3.ABX 08:08
4.Victory 10:35
5.The Happy Ending Is You 11:15
6.Beyond The Breeze 11:11
******************************
Total playing time: 54:34



[more=Technical info]
Input File: 04. Victory.mp3
Channels : 2
Sample Rate : 44100
Precision : 16-bit
Duration : 00:10:35.10 = 28007954 samples = 47632.6 CDDA sectors
File Size : 25.7M
Bit Rate : 324k
Sample Encoding: MPEG audio (layer I, II or III)
Comments :
Title=Victory
Artist=Paint The Sky Red
Album=Not All Who Wonder Are Lost
Tracknumber=4
Year=2015
Genre=Post-Rock

[/more]

Register
(1) Olethros,
Jan 4 2020, 22:16:35 Paint The Sky Red - Paint The Sky Red (2011)


*Artist: Paint The Sky Red
*Album: Paint The Sky Red
*Year: 2011
*Genre: Post-Rock
*Country: Singapore
*Format: mp3@CBR320kbps
*Size: 102MB

Tracklist:
1.Eventually 05:42
2.Bridge We Crossed 10:02
3.Derail Your Train of Thoughts 06:28
4.Fly Me Linda 06:26
5.Like Flowers In Ultraviolet 06:19
6.The Passing 09:23
******************************
Total playing time: 44:20



[more=Technical info]
Input File: 02. Bridge We Crossed.mp3
Channels : 2
Sample Rate : 44100
Precision : 16-bit
Duration : 00:10:02.24 = 26558652 samples = 45167.8 CDDA sectors
File Size : 24.2M
Bit Rate : 321k
Sample Encoding: MPEG audio (layer I, II or III)
Comments :
Title=Bridge We Crossed
Artist=Paint The Sky Red
Album=Paint The Sky Red
Tracknumber=2/6
Year=2011
Genre=Post-Rock

[/more]

Register
(1) Olethros,
Jan 31 2016, 22:03:13 Bosque - Beyond (2016)
(3) KVRT, libertine, Sanc,
Jan 31 2016, 16:58:23 Kokomo - Monochrome Noise Love (2016)


*Artist: Kokomo
*Album: Monochrome Noise Love
*Year: 2016
*Genre: Instrumental Post-Metal
*Country: Germany
*Format: mp3@CBR320kbps
*Size: 127MB

Tracklist:
01. Pills And Pillows
02. Kill The Captain, Feed The Fishes
03. Monochrome Noise Love
04. Licht/Staub
05. Juengling Mit Apfel
06. Beware Of Pity
07. I'm Bill Murray
08. I'm Not Dead
09. Me Vs Myselves
10. Deathmaster Danger Dance
******************************
Total playing time: 1:02:23




[more=Technical info]
Input File: 04 - Licht_Staub.mp3
Channels : 2
Sample Rate : 44100
Precision : 16-bit
Duration : 00:08:06.90 = 21472246 samples = 36517.4 CDDA sectors
File Size : 19.5M
Bit Rate : 320k
Sample Encoding: MPEG audio (layer I, II or III)
Comments :
Title=Licht/Staub
Artist=Kokomo
Album=Monochrome Noise Love
Tracknumber=4/10
Year=2016

[/more]

Register
(10) 0x13, Buregon, dark1988, Dissident, gwynnbleid, marilin, Rodriga, Rosen, sweetredka, varlam4,
Aug 11 2015, 18:04:29 | - Отход На Закате (2015)
классная работа, слушается на одном дыхании
спокойная музыка, не напрягает
хорошая атмосфера теплого летного вечера
(1) SAPOGi,
Jun 21 2015, 12:08:38 God Is An Astronaut - Helios | Erebus (2015)


*Artist: God Is An Astronaut
*Album: Helios | Erebus
*Year: 2015
*Genre: Post-Rock
*Country: Ireland
*Format: mp3@CBR320kbps
*Size: 102MB

Tracklist:
01. Agneya
02. Pig Powder
03. Vetus Memoria
04. Finem Solis
05. Helios Erebus
06. Obscura Somnia
07. Centralia
08. Sea of Tree
******************************
Total playing time: 45:17

Preview 1

[more=Technical info]
Input File: 03. Vetus Memoria.mp3
Channels : 2
Sample Rate : 44100
Precision : 16-bit
Duration : 00:05:21.00 = 14156056 samples = 24074.9 CDDA sectors
File Size : 12.9M
Bit Rate : 322k
Sample Encoding: MPEG audio (layer I, II or III)
Comments :
Title=Vetus Memoria
Artist=God Is An Astronaut
Album=Helios | Erebus
Tracknumber=3
Year=2015
Genre=Post-Rock

[/more]

Register
(31) 0x13, as71, Chasm, fabriziomagno, Fatalv, Fryz, gwynnbleid, HMHamster, Jurmagund, karut, Kloun, KVRT, Kwaad, natrogrii, Old Vyaine, oldvarg, Ostinato, petrophp, princeshr, ProffesorVarg, SatanicPanzer, shadow666, Shub, squall8fr, StoneTemple, sweetredka, varnack, verner, Vincent, Xor, Zoloft,
Jan 15 2014, 22:06:35 Coma Void - Coma Void (2014)
понравился второй трек - есть в нем что-то космическое и затягивающее. вроде все и просто - на грязном фоне гитар звучат клавишные, а увлекает, гипнотизирует, прямо как обложка. в остальных треках ничего такого не нашел
(1) 666BlackDeath,
Jan 15 2014, 21:54:07 Eudaimony - Futile (2013)
а по мне так неплохо - размеренно, мощно, с клавишами
(2) smes, добрыйКот,
Nov 10 2013, 00:05:31 Astral Silence - Open Cold Dark Matter (2013)
Experience 01 с ходу нравится, напоминает Einsiedler от Urfaust,
upd вспомнил - это та же песня что была на их сплите еще в 2009
(1) Kazoth,
Nov 10 2013, 00:02:36 Blóðtrú - Sunwolf (2013)
вообще интересно
пилят быстро, но не слишком злобно, есть атмосфера

[youtube]bH5VxWgQsPk[/youtube]
(2) BioMax, neoatheist,
Oct 21 2013, 19:33:57 Meniscus - War Of Currents (2011)


*Artist: Meniscus
*Album: War Of Currents
*Year: 2011
*Genre: Post-Rock/Post-Metal/Instrumental
*Country: Australia
*Format: mp3@CBR320kbps
*Size: 87MB

Tracklist:
01. Room 3327
02. 130
03. Immersion
04. Fight Club
05. Cursed
06. Infant
******************************
Total playing time: 38:05

[more=Extended info]Cameron Brennan – Drums
Alison Kerjean – Bass
Daniel Oreskovic – Guitar
Martin Wong – Visuals[/more]

[more=Technical info]
Input File: 04 Fight Club.mp3
Channels : 2
Sample Rate : 44100
Precision : 16-bit
Duration : 00:05:04.25 = 13417557 samples = 22819 CDDA sectors
File Size : 12.3M
Bit Rate : 323k
Sample Encoding: MPEG audio (layer I, II or III)
Comments :
Title=Fight Club
Artist=Meniscus
Album=War Of Currents
Tracknumber=4
Year=2011

[/more]

Register
(11) 0x13, Andr, Buregon, caro, fragment, gwynnbleid, Metropolis, supremo, wreak, ZloY_GreY, Герб,
Oct 21 2013, 19:06:08 Meniscus - Absence Of I [ep] (2007)


*Artist: Meniscus
*Album: Absence Of I [ep]
*Year: 2007
*Genre: Post-Rock/Post-Metal/Instrumental
*Country: Australia
*Format: mp3@CBR320kbps
*Size: 104MB

Tracklist:
1. Cusp
2. Pilot
3. Mother
4. Idiot Savant/Far
******************************
Total playing time: 45:16

[more=Extended info]Cameron Brennan – Drums
Alison Kerjean – Bass
Daniel Oreskovic – Guitar
Martin Wong – Visuals[/more]

[more=Technical info]
Input File: 02 Pilot.mp3
Channels : 2
Sample Rate : 44100
Precision : 16-bit
Duration : 00:05:05.80 = 13485560 samples = 22934.6 CDDA sectors
File Size : 12.3M
Bit Rate : 321k
Sample Encoding: MPEG audio (layer I, II or III)
Comments :
Title=Pilot
Artist=Meniscus
Album=Absence Of I (EP)
Tracknumber=02
Year=2007

[/more]

Register
(6) 0x13, Buregon, caro, Rosen, supremo, wreak,
Sep 11 2013, 19:14:04 Depressive Suicidal Black Metal на природную тематику... (1) Gringuare2,
Aug 12 2013, 20:15:53 Crippled Black Phoenix - I, Vigilante (2010)
Альбом все так же хорош.
Свежая ссылка:
Register

(1) Aelitha,
Apr 13 2013, 18:50:39 Sleeping Peonies - Rose Curl, Sea Swirl [ep] (2010)
Register


обновил ссылку - CBR 320




(1) DisembowelMe,
Apr 13 2013, 18:46:40 Daturah - Reverie (2008)
Register


обновил ссылку, потому что обидно что на металарее нельзя скачать такой альбом
превосходный, шикарный, атмосферный пост-рок. лучший что доводилось слушать.
если кто знает что-либо подобное, прошу сообщить

(3) BERZERK, fragment, Герб,
Apr 13 2013, 18:43:24 Daturah - Daturah (2005)
Register


обновил ссылку, потому что обидно что на металарее нельзя скачать такой альбом
превосходный, шикарный, атмосферный пост-рок. лучший что доводилось слушать.
если кто знает что-либо подобное, прошу сообщить


(1) BERZERK,
Jul 6 2012, 20:06:14 Кавера на блэк-метал или блэк-метал кавера на.
Woods of Infinity - Walking in the Air
[youtube]Dc9XSCefFKw[/youtube] 
(1) raincatz,
Apr 15 2012, 20:20:47 Solbrud - Solbrud (2012)
Atmospheric Black Metal
вроде неплохо, первый трек долго и медленно запрягает, потом ускоряется и атмосферно рубит
остальные средне- и быстротемповые. есть хорошие проигрыши. нужно слушать подробнее
(1) waldemardr,
Mar 6 2012, 00:07:14 Draugadróttinn - Where The Sea Gives Up Its Dead [demo] (2010)
Register
 

В контакте нашел еще одну песню The Garden Of Proserpine, кто-нибудь знает откуда она?

(6) craniumnr, Doooomed, Lena, Sky7Daemon, the_cleanser, varlam4,
Jun 29 2011, 23:37:33 Amesoeurs - Amesoeurs (2009)
Относительно треклиста:
Вот выдержка из блога Amesoeurs еще Mar 23, 2009
"little mistake in booklet

Hi

Due to comments on internet, i want to let you know that i did a mistake in the tracklist written in the very booklet. The songs "I XIII V...." and "Troubles" have been switched. We have checked it a thousand time but as the diction in graphic design says "There is always a mistake in every album artwork"... But the tracklist on the back cover is alright."


На заднике указан правильный треклист:
06. I XIII V XIX XV V XXI XVIII XIX – IX XIX – IV V I IV
07. Trouble

В рипе от Hevn все правильно написано 
Jun 26 2011, 16:35:57 Film Noir - Ilolinna (2010)
Рабочая ссылка
Film Noir
(2) aGoo, Vertigo,
Jun 20 2011, 10:36:07 Draconian - The Last Hour Of Ancient Sunlight [studio clip] (2011)
Весьма средненько.
Песня продолжает скучнейшие традиции предыдущего альбома, и если это лучше песня, то на 12.gif такие дракониан нужны
Клип тоже слабенький smile2.gif
(1) aesteticvice,
Mar 13 2011, 13:48:11 Kontakte - We Move Through Negative Spaces (2011)


*Artist: Kontakte
*Album: We Move Through Negative Spaces
*Year: 2011
*Genre: Post-Rock
*Country: United Kingdom
*Format: mp3@CBR224kbps
*Size: 94MB

Tracklist:
1. Astralagus (6:32)
2. Hope... (7:45)
3. With Glowing Hearts (8:09)
4. Early Evening Bleeds Into Night (6:32)
5. A Snowflake In Her Hand (6:21)
6. The Owls Won't See Us In Here (7:17)
7. Every Passing Hour (3:46)
8. The Ocean Between You And Me (10:17)
******************************
Total playing time: 56:39



Register
(9) 0x13, bka, Devildance, eternald, kjemiker, Konst, KVRT, Old Vyaine, ZloY_GreY,

2 Pages V   1 2 >
- Lo-Fi Version Support form
Copyrights and abuse reports form
Time is now: 21st February 2020 - 14:11:15